osu file format v14

[General]
AudioFilename: slit i.mp3
AudioLeadIn: 0
PreviewTime: 100311
Countdown: 1
SampleSet: Normal
StackLeniency: 0.7
Mode: 0
LetterboxInBreaks: 1
WidescreenStoryboard: 0

[Editor]
DistanceSpacing: 0.1
BeatDivisor: 4
GridSize: 8
TimelineZoom: 1

[Metadata]
Title:Slit i
TitleUnicode:Slit i
Artist:Jioyi
ArtistUnicode:Jioyi
Creator:SnowNight
Version:Ø
Source:Cytus
Tags:cytus slit Ø i
BeatmapID:385854
BeatmapSetID:157615

[Difficulty]
HPDrainRate:6
CircleSize:5
OverallDifficulty:7.6
ApproachRate:9.3
SliderMultiplier:1.9
SliderTickRate:1

[Events]
//Background and Video events
0,0,"iii.jpg",0,0
//Break Periods
2,78927,89627
//Storyboard Layer 0 (Background)
//Storyboard Layer 1 (Fail)
//Storyboard Layer 2 (Pass)
//Storyboard Layer 3 (Foreground)
//Storyboard Sound Samples

[TimingPoints]
0,363.636363636364,4,2,0,70,1,0
11636,-133.333333333333,4,2,0,70,0,0
14181,-200,4,2,0,70,0,0
18181,-100,4,2,0,70,0,0
23818,-200,4,1,0,55,0,0
25090,-200,4,1,0,70,0,0
26181,-100,4,1,0,80,0,0
47818,-100,4,1,0,60,0,0
48454,-133.333333333333,4,1,0,50,0,0
49090,-100,4,1,0,40,0,0
49363,-100,4,1,0,80,0,0
72909,-100,4,2,0,50,0,0
73636,-285.714285714286,4,1,0,80,0,0
75272,-100,4,1,0,80,0,0
100311,-66.6666666666667,4,1,0,80,0,1
100857,-57.1428571428571,4,1,0,80,0,1
101221,-50,4,1,0,80,0,1
101584,-66.6666666666667,4,1,0,80,0,1
102493,-100,4,1,0,80,0,1
104130,-66.6666666666667,4,1,0,80,0,1
105948,-100,4,1,0,80,0,1
107402,-100,4,1,0,80,0,0
107454,-66.6666666666667,4,1,0,80,0,1
107570,-66.6666666666667,4,1,0,80,0,1
108272,-83.3333333333333,4,1,0,80,0,1
110545,-66.6666666666667,4,1,0,80,0,1
113428,-100,4,1,0,80,0,1
119160,-200,4,1,0,80,0,1
119433,-100,4,1,0,80,0,1
135238,-400,4,1,0,80,0,1
136857,-100,4,1,0,80,0,0

[HitObjects]
208,120,1636,5,0,0:0:0:0:
208,120,1818,1,0,0:0:0:0:
256,240,2000,1,0,0:0:0:0:
440,128,2363,2,0,L|440:232,1,95
64,88,2909,1,0,0:0:0:0:
64,88,3090,5,0,0:0:0:0:
80,160,3272,1,0,0:0:0:0:
104,232,3454,1,0,0:0:0:0:
144,296,3636,1,0,0:0:0:0:
205,344,3818,2,0,P|265:367|335:373,1,95
400,56,4181,5,0,0:0:0:0:
368,128,4363,1,0,0:0:0:0:
312,176,4545,1,0,0:0:0:0:
240,200,4727,1,0,0:0:0:0:
160,200,4909,2,0,L|96:184,6,47.5
154,47,5636,1,0,0:0:0:0:
269,86,5818,1,0,0:0:0:0:
350,162,6000,1,0,0:0:0:0:
400,250,6181,1,0,0:0:0:0:
429,341,6363,2,0,L|479:354,2,47.5
116,120,6727,5,0,0:0:0:0:
180,185,6909,1,0,0:0:0:0:
112,247,7090,1,0,0:0:0:0:
184,192,7272,1,0,0:0:0:0:
184,192,7363,1,0,0:0:0:0:
184,192,7454,1,0,0:0:0:0:
232,248,7636,1,0,0:0:0:0:
312,248,7818,1,0,0:0:0:0:
360,184,8000,1,0,0:0:0:0:
392,120,8181,1,0,0:0:0:0:
112,56,8363,6,0,L|192:88,1,47.5
168,80,8545,1,0,0:0:0:0:
312,136,8727,1,0,0:0:0:0:
288,208,8909,1,0,0:0:0:0:
264,280,9090,1,0,0:0:0:0:
448,248,9272,5,0,0:0:0:0:
432,240,9363,2,0,L|376:208,1,47.5
336,168,9636,1,0,0:0:0:0:
264,144,9818,1,0,0:0:0:0:
192,152,10000,1,0,0:0:0:0:
256,192,10090,12,0,11181,0:0:0:0:
70,112,11636,6,0,B|123:113|123:113|81:150|81:150|123:175|123:175|87:213|87:213|85:231|85:231|114:302,1,285.000010871888
232,208,12545,1,0,0:0:0:0:
304,280,12727,5,0,0:0:0:0:
401,341,12909,2,0,B|412:303|412:303|403:262|403:262|415:226|415:226|407:177|407:177|430:110|430:110|462:58,1,285.000010871888
304,72,13818,1,0,0:0:0:0:
208,64,14000,1,0,0:0:0:0:
168,144,14181,1,0,0:0:0:0:
196,171,14272,1,0,0:0:0:0:
232,160,14363,1,0,0:0:0:0:
262,189,14454,1,0,0:0:0:0:
296,176,14545,2,0,L|392:232,1,95
432,64,15818,5,0,0:0:0:0:
428,127,16000,2,0,B|472:167|472:167|408:171|346:220,1,190
256,88,17454,5,0,0:0:0:0:
256,104,17545,1,0,0:0:0:0:
256,120,17636,1,0,0:0:0:0:
256,136,17727,1,0,0:0:0:0:
256,152,17818,1,0,0:0:0:0:
248,168,17909,1,0,0:0:0:0:
248,184,18000,1,0,0:0:0:0:
248,256,18181,1,0,0:0:0:0:
136,112,18545,6,0,L|88:112,2,47.5
344,224,18909,2,0,L|384:280,2,47.5
160,272,19272,2,0,L|128:320,2,47.5
352,96,19636,2,0,L|416:88,2,47.5
240,136,20000,1,0,0:0:0:0:
136,192,20181,1,0,0:0:0:0:
72,72,20363,5,0,0:0:0:0:
96,96,20454,1,0,0:0:0:0:
72,104,20545,1,0,0:0:0:0:
256,224,20727,1,0,0:0:0:0:
272,256,20818,1,0,0:0:0:0:
240,256,20909,1,0,0:0:0:0:
256,288,21000,1,0,0:0:0:0:
288,288,21090,1,0,0:0:0:0:
408,160,21272,1,0,0:0:0:0:
384,184,21363,1,0,0:0:0:0:
416,192,21454,1,0,0:0:0:0:
272,128,21636,5,0,0:0:0:0:
120,160,21818,5,0,0:0:0:0:
136,192,21909,1,0,0:0:0:0:
152,224,22000,1,0,0:0:0:0:
168,256,22090,1,0,0:0:0:0:
192,288,22181,1,0,0:0:0:0:
216,320,22272,1,0,0:0:0:0:
248,310,22363,1,0,0:0:0:0:
272,328,22454,1,0,0:0:0:0:
297,312,22545,1,0,0:0:0:0:
320,328,22636,1,0,0:0:0:0:
344,296,22727,1,0,0:0:0:0:
368,272,22818,1,0,0:0:0:0:
384,240,22909,1,0,0:0:0:0:
376,200,23000,1,0,0:0:0:0:
352,168,23090,1,0,0:0:0:0:
320,144,23181,1,0,0:0:0:0:
288,128,23272,1,0,0:0:0:0:
256,112,23363,1,0,0:0:0:0:
224,96,23454,1,0,0:0:0:0:
192,80,23545,1,0,0:0:0:0:
160,64,23636,1,0,0:0:0:0:
128,48,23727,1,0,0:0:0:0:
96,32,23818,5,0,0:0:0:0:
104,48,23909,1,0,0:0:0:0:
112,64,24000,1,0,0:0:0:0:
120,80,24090,1,0,0:0:0:0:
128,96,24181,1,0,0:0:0:0:
136,112,24272,1,0,0:0:0:0:
144,128,24363,1,0,0:0:0:0:
152,144,24454,1,0,0:0:0:0:
160,160,24545,2,0,L|208:248,1,95
296,96,25090,5,0,0:0:0:0:
384,240,25272,1,0,0:0:0:0:
144,264,25636,1,0,0:0:0:0:
144,264,25818,1,0,0:0:0:0:
80,72,26181,6,0,L|176:80,1,95
344,104,26545,1,0,0:0:0:0:
448,240,26727,2,0,L|352:272,1,95
235,347,27090,1,0,0:0:0:0:
235,347,27272,1,0,0:0:0:0:
93,267,27454,2,0,P|65:244|54:189,1,95
248,104,27818,1,0,0:0:0:0:
80,136,28000,1,0,0:0:0:0:
56,304,28181,2,0,L|176:368,1,95
312,328,28545,1,0,0:0:0:0:
416,192,28727,1,0,0:0:0:0:
392,64,28909,5,0,0:0:0:0:
248,152,29090,1,0,0:0:0:0:
392,248,29272,1,0,0:0:0:0:
248,336,29454,1,0,0:0:0:0:
96,224,29636,2,0,L|24:152,1,95
40,144,29909,1,0,0:0:0:0:
48,136,30000,1,0,0:0:0:0:
56,128,30090,1,0,0:0:0:0:
64,120,30181,2,0,L|184:120,1,95
384,96,30545,1,0,0:0:0:0:
384,96,30727,5,0,0:0:0:0:
200,56,30909,1,0,0:0:0:0:
120,224,31090,1,0,0:0:0:0:
360,328,31454,1,0,0:0:0:0:
360,328,31636,1,0,0:0:0:0:
96,56,32000,5,0,0:0:0:0:
136,56,32090,1,0,0:0:0:0:
176,56,32181,1,0,0:0:0:0:
327,128,32363,2,0,P|374:135|415:158,1,95
407,334,32727,2,0,P|361:327|320:304,1,95
272,136,33090,2,0,P|318:143|359:166,1,95
416,56,33454,5,0,0:0:0:0:
416,80,33545,2,0,L|416:160,1,47.5
248,168,33818,1,0,0:0:0:0:
104,256,34000,1,0,0:0:0:0:
104,280,34090,2,0,L|104:336,1,47.5
232,216,34363,2,0,L|232:80,1,95
384,32,34727,1,0,0:0:0:0:
344,208,34909,6,0,L|400:312,1,95
248,352,35272,1,0,0:0:0:0:
128,264,35454,1,0,0:0:0:0:
128,112,35636,1,0,0:0:0:0:
248,24,35818,1,0,0:0:0:0:
248,24,36000,2,0,L|280:144,1,95
112,64,36363,5,0,0:0:0:0:
256,160,36545,1,0,0:0:0:0:
112,256,36727,1,0,0:0:0:0:
256,344,36909,1,0,0:0:0:0:
264,352,37000,1,0,0:0:0:0:
368,192,37272,2,0,L|368:56,2,95
56,48,37818,5,0,0:0:0:0:
80,72,37909,1,0,0:0:0:0:
104,96,38000,1,0,0:0:0:0:
128,176,38181,1,0,0:0:0:0:
200,232,38363,1,0,0:0:0:0:
168,304,38545,1,0,0:0:0:0:
192,328,38636,1,0,0:0:0:0:
216,352,38727,1,0,0:0:0:0:
256,184,38909,2,0,L|256:64,1,95
424,80,39272,6,0,L|328:80,1,95
424,224,39636,1,0,0:0:0:0:
264,168,39818,2,0,L|264:280,1,95
104,192,40181,1,0,0:0:0:0:
175,36,40363,2,0,B|293:60|240:82,1,95
424,133,40727,5,0,0:0:0:0:
444,114,40818,1,0,0:0:0:0:
448,139,40909,1,0,0:0:0:0:
376,264,41090,1,0,0:0:0:0:
394,287,41181,1,0,0:0:0:0:
368,296,41272,1,0,0:0:0:0:
383,317,41363,1,0,0:0:0:0:
357,324,41454,1,0,0:0:0:0:
200,264,41636,1,0,0:0:0:0:
178,284,41727,1,0,0:0:0:0:
152,264,41818,1,0,0:0:0:0:
96,104,42000,1,0,0:0:0:0:
106,80,42090,1,0,0:0:0:0:
128,96,42181,1,0,0:0:0:0:
80,200,42363,5,0,0:0:0:0:
432,200,42545,1,0,0:0:0:0:
80,200,42727,1,0,0:0:0:0:
80,200,43090,5,0,0:0:0:0:
432,200,43272,2,0,L|328:200,1,95
256,48,43636,5,0,0:0:0:0:
272,48,43727,1,0,0:0:0:0:
264,64,43818,1,0,0:0:0:0:
88,136,44000,5,0,0:0:0:0:
104,144,44090,1,0,0:0:0:0:
88,152,44181,1,0,0:0:0:0:
223,254,44363,5,0,0:0:0:0:
198,228,44454,1,0,0:0:0:0:
160,212,44545,1,0,0:0:0:0:
129,231,44636,5,0,0:0:0:0:
104,254,44727,1,0,0:0:0:0:
125,279,44818,1,0,0:0:0:0:
136,304,44909,1,0,0:0:0:0:
160,320,45000,1,0,0:0:0:0:
192,328,45090,2,0,L|296:336,1,95
440,216,45454,1,0,0:0:0:0:
320,72,45636,2,0,L|192:72,1,95
56,168,46000,1,0,0:0:0:0:
197,262,46181,2,0,L|299:292,1,95
216,56,46545,5,0,0:0:0:0:
208,72,46636,1,0,0:0:0:0:
208,88,46727,1,0,0:0:0:0:
208,104,46818,1,0,0:0:0:0:
208,120,46909,1,0,0:0:0:0:
208,136,47000,1,0,0:0:0:0:
216,152,47090,1,0,0:0:0:0:
224,160,47181,1,0,0:0:0:0:
232,168,47272,1,0,0:0:0:0:
240,176,47363,1,0,0:0:0:0:
248,184,47454,1,0,0:0:0:0:
256,192,47545,1,0,0:0:0:0:
264,200,47636,1,0,0:0:0:0:
272,208,47727,1,0,0:0:0:0:
280,216,47818,1,0,0:0:0:0:
288,216,47909,1,0,0:0:0:0:
296,216,48000,1,0,0:0:0:0:
304,216,48090,1,0,0:0:0:0:
312,216,48181,1,0,0:0:0:0:
320,216,48272,1,0,0:0:0:0:
328,216,48363,1,0,0:0:0:0:
336,216,48454,1,0,0:0:0:0:
344,216,48545,2,0,L|384:216,7,35.625001358986
232,80,49454,5,0,0:0:0:0:
112,144,49636,1,0,0:0:0:0:
69,323,49818,5,0,0:0:0:0:
103,266,49909,1,0,0:0:0:0:
160,228,50000,1,0,0:0:0:0:
189,167,50090,1,0,0:0:0:0:
336,88,50363,5,0,0:0:0:0:
152,144,50545,1,0,0:0:0:0:
288,264,50727,1,0,0:0:0:0:
232,80,50909,1,0,0:0:0:0:
288,264,51090,1,0,0:0:0:0:
416,176,51454,6,0,L|432:224,2,47.5
288,128,51818,1,0,0:0:0:0:
160,176,52000,1,0,0:0:0:0:
140,225,52090,1,0,0:0:0:0:
156,273,52181,1,0,0:0:0:0:
139,320,52272,1,0,0:0:0:0:
416,88,52545,5,0,0:0:0:0:
224,88,52727,2,0,L|96:88,1,95
256,232,53090,2,0,L|384:232,1,95
464,80,53454,1,0,0:0:0:0:
272,80,53636,2,0,L|152:80,1,95
80,64,54000,5,0,0:0:0:0:
256,176,54181,1,0,0:0:0:0:
48,208,54363,1,0,0:0:0:0:
48,208,54727,1,0,0:0:0:0:
288,320,54909,1,0,0:0:0:0:
438,223,55090,6,0,L|437:320,2,95
400,80,55636,5,0,0:0:0:0:
334,58,55727,5,0,0:0:0:0:
266,77,55818,5,0,0:0:0:0:
199,58,55909,5,0,0:0:0:0:
130,78,56000,5,0,0:0:0:0:
198,118,56090,1,0,0:0:0:0:
265,155,56181,5,0,0:0:0:0:
330,183,56272,1,0,0:0:0:0:
392,211,56363,5,0,0:0:0:0:
456,242,56454,2,0,L|438:199,2,47.5
444,294,56727,5,0,0:0:0:0:
416,326,56818,1,0,0:0:0:0:
381,351,56909,1,0,0:0:0:0:
338,356,57000,1,0,0:0:0:0:
299,339,57090,1,0,0:0:0:0:
288,297,57181,1,0,0:0:0:0:
298,255,57272,1,0,0:0:0:0:
318,217,57363,1,0,0:0:0:0:
319,174,57454,1,0,0:0:0:0:
284,148,57545,1,0,0:0:0:0:
296,107,57636,1,0,0:0:0:0:
333,87,57727,1,0,0:0:0:0:
367,112,57818,1,0,0:0:0:0:
401,139,57909,1,0,0:0:0:0:
439,120,58000,1,0,0:0:0:0:
438,183,58181,5,0,0:0:0:0:
374,223,58272,1,0,0:0:0:0:
310,263,58363,1,0,0:0:0:0:
246,303,58454,1,0,0:0:0:0:
181,337,58545,2,0,L|125:369,2,47.5
254,193,58909,5,0,0:0:0:0:
448,304,59636,5,0,0:0:0:0:
352,208,59818,5,0,0:0:0:0:
264,120,60000,1,0,0:0:0:0:
176,208,60181,1,0,0:0:0:0:
408,120,60545,1,0,0:0:0:0:
304,288,60727,1,0,0:0:0:0:
104,120,61090,1,0,0:0:0:0:
208,288,61272,1,0,0:0:0:0:
240,48,61454,6,0,L|320:80,1,47.5
400,232,61636,2,0,L|352:264,1,47.5
160,80,62000,6,0,L|212:110,1,47.5
432,176,62181,2,0,L|368:200,1,47.5
128,272,62363,2,0,L|200:248,1,47.5
208,240,62545,1,0,0:0:0:0:
240,216,62636,1,0,0:0:0:0:
272,192,62727,1,0,0:0:0:0:
296,160,62818,1,0,0:0:0:0:
464,80,63090,6,0,L|432:184,1,95
368,280,63454,2,0,L|272:288,1,95
88,72,64000,1,0,0:0:0:0:
88,72,64181,1,0,0:0:0:0:
191,192,64363,6,0,L|128:219,1,47.5
408,120,64545,2,0,L|464:96,1,47.5
192,48,64909,6,0,L|135:20,1,47.5
352,192,65090,2,0,L|397:133,1,47.5
159,288,65272,2,0,L|126:223,1,47.5
240,211,65454,1,0,0:0:0:0:
292,165,65545,1,0,0:0:0:0:
346,119,65636,5,0,0:0:0:0:
397,74,65727,1,0,0:0:0:0:
256,88,66000,6,0,L|160:152,1,95
304,328,66363,2,0,L|408:248,1,95
376,72,66909,5,0,0:0:0:0:
340,73,67000,1,0,0:0:0:0:
317,95,67090,1,0,0:0:0:0:
72,192,67272,6,0,L|128:192,1,47.5
440,192,67454,2,0,L|376:192,1,47.5
72,192,67818,6,0,L|128:192,1,47.5
440,192,68000,2,0,L|384:192,1,47.5
440,192,68181,1,0,0:0:0:0:
240,72,68545,5,0,0:0:0:0:
168,248,68727,1,0,0:0:0:0:
360,232,68909,1,0,0:0:0:0:
24,64,69272,1,0,0:0:0:0:
112,328,69454,1,0,0:0:0:0:
360,76,69818,5,0,0:0:0:0:
338,87,69909,1,0,0:0:0:0:
324,102,70000,1,0,0:0:0:0:
310,120,70090,1,0,0:0:0:0:
299,138,70181,1,0,0:0:0:0:
288,168,70272,5,0,0:0:0:0:
304,208,70363,1,0,0:0:0:0:
312,248,70454,1,0,0:0:0:0:
296,288,70545,1,0,0:0:0:0:
296,328,70636,1,0,0:0:0:0:
336,320,70727,1,0,0:0:0:0:
376,304,70818,1,0,0:0:0:0:
400,272,70909,1,0,0:0:0:0:
400,232,71000,1,0,0:0:0:0:
400,192,71090,1,0,0:0:0:0:
400,152,71181,1,0,0:0:0:0:
399,113,71272,2,0,L|367:65,7,47.5
365,81,72000,5,0,0:0:0:0:
358,87,72090,1,0,0:0:0:0:
352,94,72181,1,0,0:0:0:0:
345,101,72272,1,0,0:0:0:0:
338,108,72363,1,0,0:0:0:0:
332,115,72454,1,0,0:0:0:0:
326,122,72545,1,0,0:0:0:0:
256,192,72727,5,0,0:0:0:0:
216,108,72909,2,0,L|144:55,3,47.5
255,93,73272,2,0,L|258:11,3,47.5
239,116,73636,2,0,L|270:187,1,66.4999979705811
190,221,74181,5,0,0:0:0:0:
190,221,74227,1,0,0:0:0:0:
190,221,74272,1,0,0:0:0:0:
190,221,74318,1,0,0:0:0:0:
190,221,74363,1,0,0:0:0:0:
190,221,74409,1,0,0:0:0:0:
190,221,74454,1,0,0:0:0:0:
190,221,74500,1,0,0:0:0:0:
190,221,74545,1,0,0:0:0:0:
190,221,74590,1,0,0:0:0:0:
190,221,74636,1,0,0:0:0:0:
190,221,74681,1,0,0:0:0:0:
190,221,74727,1,0,0:0:0:0:
384,120,75272,6,0,L|272:128,1,95
120,96,75636,6,0,L|120:152,2,47.5
304,88,75909,2,0,L|304:160,2,47.5
447,257,76181,2,0,L|447:196,2,47.5
211,255,76454,2,0,L|211:192,2,47.5
352,304,76727,5,0,0:0:0:0:
355,160,76909,1,0,0:0:0:0:
355,160,76954,1,0,0:0:0:0:
355,160,77000,1,0,0:0:0:0:
355,160,77045,1,0,0:0:0:0:
232,80,77272,5,0,0:0:0:0:
186,152,77454,1,0,0:0:0:0:
138,223,77636,1,0,0:0:0:0:
354,120,78000,1,0,0:0:0:0:
283,231,78181,1,0,0:0:0:0:
447,227,78545,1,0,0:0:0:0:
374,338,78727,1,0,0:0:0:0:
256,192,90181,12,0,95636,0:0:0:0:
128,80,96000,6,0,L|128:128,1,47.5
88,216,96181,2,0,L|144:216,1,47.5
256,168,96363,2,0,L|256:248,1,47.5
224,312,96545,2,0,L|160:312,1,47.5
296,72,96727,6,0,L|248:88,1,47.5
296,144,96909,2,0,L|352:168,1,47.5
296,216,97090,2,0,L|240:248,1,47.5
296,288,97272,2,0,L|352:320,1,47.5
160,136,97454,6,0,L|208:168,1,47.5
226,260,97636,2,0,L|274:292,1,47.5
368,136,97818,2,0,L|416:168,1,47.5
421,264,98000,2,0,L|469:288,8,47.5
344,64,98909,5,0,0:0:0:0:
312,96,99000,1,0,0:0:0:0:
288,128,99090,1,0,0:0:0:0:
280,168,99181,1,0,0:0:0:0:
296,208,99272,1,0,0:0:0:0:
328,232,99363,1,0,0:0:0:0:
368,224,99454,1,0,0:0:0:0:
392,192,99545,1,0,0:0:0:0:
400,152,99636,1,0,0:0:0:0:
384,112,99727,1,0,0:0:0:0:
344,96,99818,1,0,0:0:0:0:
304,88,99909,1,0,0:0:0:0:
264,80,100000,1,0,0:0:0:0:
232,56,100090,1,0,0:0:0:0:
192,72,100181,1,0,0:0:0:0:
215,163,100363,6,0,P|306:175|210:180,1,285.000010871888
299,117,100909,2,0,L|179:317,1,166.250001585484
399,106,101272,5,0,0:0:0:0:
399,182,101454,2,0,L|399:310,1,95
112,112,101818,6,0,B|72:144|72:144|104:272,1,142.500005435944,0|2,0:0|0:0,0:0:0:0:
256,120,102181,1,0,0:0:0:0:
80,48,102363,1,0,0:0:0:0:
256,80,102545,6,0,L|184:104,1,47.5,0|0,0:0|0:0,0:0:0:0:
256,168,102727,6,0,L|312:192,1,47.5,0|0,0:0|0:0,0:0:0:0:
256,256,102909,6,0,L|192:280,1,47.5,0|0,0:0|0:0,0:0:0:0:
256,336,103090,5,0,0:0:0:0:
385,292,103272,5,0,0:0:0:0:
361,256,103363,1,0,0:0:0:0:
371,214,103454,1,0,0:0:0:0:
350,185,103545,1,0,0:0:0:0:
331,169,103636,1,0,0:0:0:0:
314,153,103727,1,0,0:0:0:0:
305,132,103818,1,0,0:0:0:0:
302,120,103909,1,0,0:0:0:0:
304,113,104000,1,0,0:0:0:0:
192,126,104181,6,0,P|125:159|80:230,3,142.500005435944
187,219,104909,1,0,0:0:0:0:
187,219,105000,1,0,0:0:0:0:
408,80,105181,5,0,0:0:0:0:
376,136,105272,5,0,0:0:0:0:
408,192,105363,5,0,0:0:0:0:
376,248,105454,5,0,0:0:0:0:
200,56,105636,6,0,L|128:104,1,71.2500027179719
200,152,105818,2,0,L|272:200,1,71.2500027179719
288,264,106000,1,0,0:0:0:0:
192,288,106181,2,0,P|112:328|16:288,1,190
40,248,106636,5,0,0:0:0:0:
69,210,106727,1,0,0:0:0:0:
104,176,106818,1,0,0:0:0:0:
144,152,106909,2,0,P|184:120|232:104,1,95
312,144,107272,1,0,0:0:0:0:
344,312,107454,5,0,0:0:0:0:
454,175,107636,2,0,B|500:113|503:145|372:75,1,142.500005435944
288,62,108000,2,0,B|257:39|257:39|205:84,2,71.2500027179719
128,72,108363,1,0,0:0:0:0:
201,202,108545,2,0,P|185:235|165:245,1,56.9999982604981
234,201,108727,2,0,P|249:230|283:248,1,56.9999982604981
217,176,108909,2,0,L|217:111,1,56.9999982604981
456,128,109090,5,0,0:0:0:0:
443,136,109181,1,0,0:0:0:0:
425,145,109272,1,0,0:0:0:0:
409,153,109363,2,0,B|308:167|308:167|314:132|277:165|277:165|277:142,1,170.999994781494
183,144,109818,1,0,0:0:0:0:
286,258,110000,1,0,0:0:0:0:
448,304,110181,5,0,0:0:0:0:
448,304,110272,1,0,0:0:0:0:
448,304,110363,1,0,0:0:0:0:
448,304,110454,1,0,0:0:0:0:
208,176,110545,6,0,P|264:176|304:240,1,95
288,240,110727,2,0,P|256:272|192:288,1,95
200,272,110909,2,0,P|168:216|208:160,2,95
284,334,111272,1,0,0:0:0:0:
254,217,112181,5,0,0:0:0:0:
254,265,112363,1,0,0:0:0:0:
254,313,112545,1,0,0:0:0:0:
255,136,112909,1,0,0:0:0:0:
256,82,113090,2,0,L|175:55,3,71.2500027179719
110,38,113454,5,0,0:0:0:0:
95,78,113545,1,0,0:0:0:0:
96,121,113636,1,0,0:0:0:0:
109,161,113727,1,0,0:0:0:0:
122,201,113818,1,0,0:0:0:0:
150,232,113909,1,0,0:0:0:0:
178,263,114000,1,0,0:0:0:0:
223,268,114090,1,0,0:0:0:0:
253,237,114181,1,0,0:0:0:0:
264,194,114272,1,0,0:0:0:0:
255,150,114363,1,0,0:0:0:0:
275,112,114454,1,0,0:0:0:0:
315,96,114545,1,0,0:0:0:0:
357,103,114636,1,0,0:0:0:0:
388,132,114727,1,0,0:0:0:0:
402,175,114818,2,0,L|451:203,2,47.5
412,215,115090,5,0,0:0:0:0:
369,218,115181,1,0,0:0:0:0:
329,202,115272,1,0,0:0:0:0:
298,171,115363,1,0,0:0:0:0:
260,150,115454,1,0,0:0:0:0:
218,138,115545,1,0,0:0:0:0:
175,154,115636,1,0,0:0:0:0:
135,171,115727,1,0,0:0:0:0:
105,202,115818,1,0,0:0:0:0:
84,239,115909,1,0,0:0:0:0:
78,281,116000,1,0,0:0:0:0:
76,320,116090,2,0,L|129:374,2,47.5
14,333,116363,5,0,0:0:0:0:
45,298,116454,1,0,0:0:0:0:
78,269,116545,1,0,0:0:0:0:
110,237,116636,1,0,0:0:0:0:
133,202,116727,1,0,0:0:0:0:
161,166,116818,1,0,0:0:0:0:
206,160,116909,1,0,0:0:0:0:
239,178,117000,1,0,0:0:0:0:
264,213,117090,1,0,0:0:0:0:
282,251,117181,1,0,0:0:0:0:
264,284,117272,1,0,0:0:0:0:
235,311,117363,1,0,0:0:0:0:
206,333,117454,1,0,0:0:0:0:
175,351,117545,2,0,L|120:373,1,47.5
129,338,117727,2,0,L|71:322,1,47.5
97,290,117909,5,0,0:0:0:0:
67,259,118000,1,0,0:0:0:0:
83,219,118090,1,0,0:0:0:0:
116,193,118181,1,0,0:0:0:0:
143,163,118272,1,0,0:0:0:0:
130,126,118363,1,0,0:0:0:0:
104,98,118454,1,0,0:0:0:0:
392,80,118727,5,0,0:0:0:0:
392,304,118909,1,0,0:0:0:0:
103,192,119272,2,0,L|42:192,1,47.5
68,150,119545,5,0,0:0:0:0:
42,115,119636,1,0,0:0:0:0:
57,77,119727,1,0,0:0:0:0:
43,36,119818,1,0,0:0:0:0:
83,23,119909,1,0,0:0:0:0:
121,42,120000,1,0,0:0:0:0:
145,77,120090,1,0,0:0:0:0:
176,105,120181,1,0,0:0:0:0:
217,116,120272,1,0,0:0:0:0:
259,119,120363,1,0,0:0:0:0:
292,144,120454,1,0,0:0:0:0:
316,179,120545,1,0,0:0:0:0:
306,220,120636,2,0,L|346:292,3,47.5
369,277,121000,6,0,L|386:195,1,47.5
353,198,121181,1,0,0:0:0:0:
337,190,121272,1,0,0:0:0:0:
345,174,121363,1,0,0:0:0:0:
361,174,121454,1,0,0:0:0:0:
386,188,121545,2,0,L|434:140,1,47.5
440,116,121727,1,0,0:0:0:0:
401,97,121818,1,0,0:0:0:0:
368,68,121909,1,0,0:0:0:0:
325,65,122000,1,0,0:0:0:0:
285,49,122090,1,0,0:0:0:0:
242,42,122181,1,0,0:0:0:0:
200,55,122272,5,0,0:0:0:0:
161,72,122363,1,0,0:0:0:0:
125,96,122454,1,0,0:0:0:0:
92,123,122545,1,0,0:0:0:0:
75,162,122636,1,0,0:0:0:0:
64,203,122727,1,0,0:0:0:0:
76,243,122818,1,0,0:0:0:0:
110,268,122909,1,0,0:0:0:0:
150,280,123000,1,0,0:0:0:0:
192,280,123090,1,0,0:0:0:0:
233,288,123181,1,0,0:0:0:0:
257,320,123272,1,0,0:0:0:0:
282,344,123363,2,0,L|322:304,3,47.5
384,128,123818,5,0,0:0:0:0:
256,53,124000,1,0,0:0:0:0:
128,128,124181,1,0,0:0:0:0:
72,168,124545,1,0,0:0:0:0:
440,168,124727,1,0,0:0:0:0:
32,232,125090,1,0,0:0:0:0:
480,232,125272,1,0,0:0:0:0:
491,273,125363,1,0,0:0:0:0:
470,307,125454,1,0,0:0:0:0:
427,314,125545,1,0,0:0:0:0:
388,301,125636,1,0,0:0:0:0:
366,264,125727,1,0,0:0:0:0:
355,221,125818,2,0,L|307:157,1,47.5
289,160,126000,2,0,L|249:136,1,47.5
207,149,126181,2,0,L|143:197,1,47.5
164,220,126363,2,0,L|204:292,1,47.5
218,290,126545,5,0,0:0:0:0:
260,288,126636,1,0,0:0:0:0:
299,270,126727,1,0,0:0:0:0:
333,244,126818,1,0,0:0:0:0:
352,206,126909,1,0,0:0:0:0:
369,166,127000,1,0,0:0:0:0:
360,123,127090,5,0,0:0:0:0:
332,96,127181,1,0,0:0:0:0:
291,81,127272,1,0,0:0:0:0:
251,98,127363,1,0,0:0:0:0:
216,122,127454,1,0,0:0:0:0:
196,159,127545,1,0,0:0:0:0:
192,201,127636,1,0,0:0:0:0:
202,242,127727,1,0,0:0:0:0:
222,279,127818,1,0,0:0:0:0:
260,297,127909,1,0,0:0:0:0:
302,297,128000,1,0,0:0:0:0:
343,285,128090,1,0,0:0:0:0:
377,260,128181,1,0,0:0:0:0:
406,229,128272,1,0,0:0:0:0:
435,198,128363,1,0,0:0:0:0:
467,170,128454,1,0,0:0:0:0:
455,128,128545,1,0,0:0:0:0:
487,100,128636,1,0,0:0:0:0:
470,60,128727,1,0,0:0:0:0:
433,37,128818,1,0,0:0:0:0:
390,37,128909,1,0,0:0:0:0:
349,49,129000,1,0,0:0:0:0:
311,69,129090,1,0,0:0:0:0:
268,67,129181,1,0,0:0:0:0:
231,45,129272,2,0,L|231:125,2,47.5
145,54,129636,6,0,L|145:142,1,47.5
25,198,129818,2,0,L|81:198,1,47.5
145,318,130000,2,0,L|145:262,1,47.5
352,184,130363,1,0,0:0:0:0:
288,184,130454,1,0,0:0:0:0:
224,184,130545,1,0,0:0:0:0:
42,191,130727,2,0,L|106:191,5,47.5
48,72,131272,6,0,P|88:120|96:128,1,47.5
176,96,131454,2,0,L|232:160,1,47.5
136,200,131636,2,0,L|184:256,1,47.5
264,232,131818,2,0,L|320:304,1,47.5
422,269,132000,6,0,L|390:341,1,47.5
444,148,132181,2,0,L|492:92,1,47.5
305,174,132363,2,0,L|233:214,1,47.5
284,60,132545,2,0,L|324:36,1,47.5
107,84,132727,6,0,L|59:108,1,47.5
136,168,132909,2,0,L|192:184,1,47.5
112,248,133090,2,0,L|64:272,1,47.5
136,328,133272,2,0,L|184:344,1,47.5
456,112,133454,2,0,L|408:80,1,47.5
328,120,133636,2,0,L|288:176,1,47.5
336,248,133818,2,0,L|384:280,1,47.5
464,240,134000,2,0,L|496:184,1,47.5
416,88,134181,6,0,L|352:96,1,47.5
304,160,134363,2,0,L|312:240,1,47.5
376,272,134545,2,0,L|448:264,1,47.5
496,208,134727,2,0,L|488:144,5,47.5
299,122,135272,38,0,L|261:189,1,71.25
104,192,136000,37,0,0:0:0:0:
256,304,136272,1,0,0:0:0:0:
408,192,136545,1,0,0:0:0:0:
256,192,136727,21,2,0:0:0:0:
