osu file format v14

[General]
AudioFilename: audio.mp3
AudioLeadIn: 0
PreviewTime: 33931
Countdown: 1
SampleSet: Normal
StackLeniency: 0.7
Mode: 0
LetterboxInBreaks: 0
WidescreenStoryboard: 0

[Editor]
DistanceSpacing: 1.2
BeatDivisor: 16
GridSize: 4
TimelineZoom: 2.1

[Metadata]
Title:Cyanine
TitleUnicode:Cyanine
Artist:Jioyi
ArtistUnicode:Jioyi
Creator:siahflyer
Version:LV.MAX
Source:Lanota
Tags:haha = =
BeatmapID:1571793
BeatmapSetID:745596

[Difficulty]
HPDrainRate:6.2
CircleSize:3
OverallDifficulty:6
ApproachRate:9.8
SliderMultiplier:1.6
SliderTickRate:1

[Events]
//Background and Video events
0,0,"Cyanine_2.jpg",0,0
//Break Periods
//Storyboard Layer 0 (Background)
//Storyboard Layer 1 (Fail)
//Storyboard Layer 2 (Pass)
//Storyboard Layer 3 (Foreground)
//Storyboard Sound Samples

[TimingPoints]
1645,329.67032967033,3,1,0,100,1,0
1645,-200,4,1,0,100,0,0
16480,-66.6666666666667,4,1,0,100,0,0
17139,-133.333333333333,4,1,0,100,0,0
18128,329.67032967033,3,1,0,100,1,0
18128,-100,4,1,0,100,0,0
30985,-50,4,1,0,100,0,0
31974,-100,4,1,0,100,0,0
32963,-200,4,1,0,100,0,0
33128,-66.6666666666667,4,1,0,100,0,0
49776,-57.1428571428571,4,1,0,100,0,0
56699,329.67032967033,4,1,0,100,1,0
57688,-200,4,1,0,100,0,0
62962,-133.333333333333,4,1,0,100,0,0
65600,-80,4,1,0,100,0,0
68236,329.67032967033,4,1,0,100,1,0
68236,-133.333333333333,4,1,0,100,0,0
77466,-100,4,1,0,100,0,0
78785,-200,4,1,0,100,0,0
88675,-100,4,1,0,100,0,0
99884,-50,4,1,0,100,0,0
105159,-133.333333333333,4,1,0,100,0,0
113071,-50,4,1,0,100,0,1
120983,-200,4,1,0,100,0,0
122961,-50,4,1,0,100,0,0
123620,-50,4,1,0,100,0,1
131532,-200,4,1,0,100,0,0
134170,-133.333333333333,4,1,0,100,0,0
144719,-50,4,1,0,100,0,0
163181,-100,4,1,0,100,0,0
165818,-50,4,1,0,100,0,0
185598,-200,4,1,0,100,0,0

[Colours]
Combo1 : 250,255,21
Combo2 : 0,71,130
Combo3 : 0,103,230
Combo4 : 255,234,85

[HitObjects]
168,96,1645,5,0,0:0:0:0:
168,96,2304,2,0,P|144:120|160:232,1,80
128,164,3293,2,0,P|140:216|184:240,1,80
276,276,4282,2,0,P|264:223|219:200,2,80
152,252,5271,1,0,0:0:0:0:
156,228,5436,1,0,0:0:0:0:
160,204,5601,2,0,P|168:176|212:132,2,80
328,312,6590,5,0,0:0:0:0:
332,104,7579,38,0,L|312:188,2,80
324,248,8568,2,0,L|344:164,2,80
424,88,9557,5,0,0:0:0:0:
424,88,10216,2,0,P|376:72|312:96,1,80
348,76,11205,1,0,0:0:0:0:
314,97,11370,1,0,0:0:0:0:
276,102,11535,1,0,0:0:0:0:
276,102,12194,2,0,P|208:86|192:90,2,80
168,212,13183,1,0,0:0:0:0:
328,252,13513,37,0,0:0:0:0:
328,252,13842,1,0,0:0:0:0:
328,252,14172,1,0,0:0:0:0:
408,176,14502,5,0,0:0:0:0:
408,176,14831,1,0,0:0:0:0:
408,176,15161,1,0,0:0:0:0:
428,68,15491,37,0,0:0:0:0:
428,68,15820,1,0,0:0:0:0:
428,68,16150,1,0,0:0:0:0:
272,80,16315,1,0,0:0:0:0:
244,124,16370,1,0,0:0:0:0:
252,176,16425,1,0,0:0:0:0:
300,200,16480,6,0,P|365:230|322:334,1,180.000006866455
221,309,16809,2,0,B|160:257|261:200|171:115,1,180.000006866455
222,9,17139,2,0,B|292:91|292:91|319:40|319:40|351:159|415:183,1,330.000012588501
396,316,18128,37,0,0:0:0:0:
328,108,18292,1,0,0:0:0:0:
116,316,18457,5,0,0:0:0:0:
184,108,18621,1,0,0:0:0:0:
400,328,18787,37,0,0:0:0:0:
324,92,18952,1,0,0:0:0:0:
112,328,19117,5,0,0:0:0:0:
188,92,19282,1,0,0:0:0:0:
404,344,19446,37,0,0:0:0:0:
320,76,19611,1,0,0:0:0:0:
108,344,19776,5,0,0:0:0:0:
192,76,19941,1,0,0:0:0:0:
408,356,20106,37,0,0:0:0:0:
316,64,20270,1,0,0:0:0:0:
104,356,20435,5,0,0:0:0:0:
196,64,20599,1,0,0:0:0:0:
412,368,20765,37,0,0:0:0:0:
312,48,20930,1,0,0:0:0:0:
100,368,21095,6,0,L|120:308,1,40
200,48,21259,2,0,L|184:100,1,40
400,328,21424,38,0,L|381:270,1,40
324,84,21589,2,0,L|341:141,1,40
125,289,21754,6,0,L|141:243,1,40
177,127,21919,2,0,L|154:201,1,40
384,288,22084,37,0,0:0:0:0:
336,128,22248,1,0,0:0:0:0:
120,308,22413,5,0,0:0:0:0:
184,104,22578,1,0,0:0:0:0:
392,308,22743,37,0,0:0:0:0:
328,104,22908,1,0,0:0:0:0:
116,320,23073,5,0,0:0:0:0:
188,92,23237,1,0,0:0:0:0:
396,320,23402,37,0,0:0:0:0:
324,92,23566,1,0,0:0:0:0:
108,336,23732,5,0,0:0:0:0:
196,76,23897,1,0,0:0:0:0:
404,336,24062,37,0,0:0:0:0:
316,76,24227,1,0,0:0:0:0:
100,348,24391,5,0,0:0:0:0:
204,60,24556,1,0,0:0:0:0:
412,348,24721,37,0,0:0:0:0:
308,60,24886,1,0,0:0:0:0:
100,348,25051,6,0,L|128:282,1,40
204,60,25215,2,0,L|183:120,1,40
412,348,25380,38,0,L|384:282,1,40
308,60,25544,2,0,L|329:120,1,40
256,352,25710,6,0,L|256:292,1,40
256,8,25875,2,0,L|256:56,1,40
255,315,26040,37,0,0:0:0:0:
256,68,26204,1,0,0:0:0:0:
189,306,26369,5,0,0:0:0:0:
322,77,26533,1,0,0:0:0:0:
134,261,26699,37,0,0:0:0:0:
377,121,26863,1,0,0:0:0:0:
112,191,27029,5,0,0:0:0:0:
404,191,27193,1,0,0:0:0:0:
124,116,27358,37,0,0:0:0:0:
391,270,27523,1,0,0:0:0:0:
176,53,27688,5,0,0:0:0:0:
336,330,27853,1,0,0:0:0:0:
255,23,28018,37,0,0:0:0:0:
255,360,28182,1,0,0:0:0:0:
341,43,28347,5,0,0:0:0:0:
169,340,28512,1,0,0:0:0:0:
411,102,28677,37,0,0:0:0:0:
100,282,28842,1,0,0:0:0:0:
64,192,29007,6,0,L|120:192,1,40
448,191,29171,2,0,L|392:191,1,40
112,192,29336,38,0,L|168:192,1,40
400,192,29500,2,0,L|344:192,1,40
160,192,29666,6,0,L|216:192,1,40
352,192,29830,2,0,L|296:192,1,40
252,192,29996,37,0,0:0:0:0:
200,164,30078,1,0,0:0:0:0:
184,108,30160,1,0,0:0:0:0:
220,60,30243,1,0,0:0:0:0:
268,96,30325,1,0,0:0:0:0:
328,108,30408,1,0,0:0:0:0:
388,100,30490,1,0,0:0:0:0:
432,60,30573,1,0,0:0:0:0:
420,120,30655,1,0,0:0:0:0:
408,180,30737,1,0,0:0:0:0:
396,240,30820,1,0,0:0:0:0:
384,300,30902,1,0,0:0:0:0:
328,292,30985,6,0,P|304:252|316:208,3,80
112,264,31314,38,0,P|158:263|190:295,3,80
244,88,31644,6,0,P|221:128|177:140,3,80
428,160,31974,37,0,0:0:0:0:
412,216,32056,1,0,0:0:0:0:
360,244,32138,1,0,0:0:0:0:
300,232,32221,1,0,0:0:0:0:
320,176,32303,5,0,0:0:0:0:
300,232,32386,1,0,0:0:0:0:
240,244,32468,1,0,0:0:0:0:
180,232,32551,1,0,0:0:0:0:
168,172,32633,37,0,0:0:0:0:
180,232,32715,1,0,0:0:0:0:
164,292,32798,1,0,0:0:0:0:
132,344,32880,1,0,0:0:0:0:
72,360,32963,5,0,0:0:0:0:
152,52,33128,2,0,P|212:156|192:16,1,360.000013732911
152,52,33952,38,0,P|136:100|160:184,1,120.000004577637
228,224,34281,2,0,P|244:176|220:92,1,120.000004577637
112,100,34611,2,0,P|96:148|120:232,1,120.000004577637
176,316,34941,6,0,B|224:288|224:288|320:288,1,120.000004577637
192,192,35270,2,0,B|245:177|245:177|338:202,1,120.000004577637
232,72,35600,2,0,B|287:70|287:70|371:117,1,120.000004577637
448,184,35930,37,0,0:0:0:0:
260,332,36259,1,0,0:0:0:0:
224,96,36589,1,0,0:0:0:0:
404,328,36919,5,0,0:0:0:0:
160,208,37248,1,0,0:0:0:0:
384,56,37578,37,0,0:0:0:0:
388,104,37633,1,0,0:0:0:0:
388,152,37688,1,0,0:0:0:0:
352,180,37743,5,0,0:0:0:0:
356,232,37798,1,0,0:0:0:0:
360,280,37853,1,0,0:0:0:0:
364,328,37908,38,0,P|304:340|224:308,1,120.000004577637
128,244,38237,2,0,P|88:156|104:108,1,120.000004577637
204,28,38567,2,0,P|224:76|216:144,1,120.000004577637
180,244,38897,6,0,P|160:312|168:360,1,120.000004577637
312,292,39226,2,0,P|332:224|324:176,1,120.000004577637
436,64,39556,2,0,P|416:132|424:180,1,120.000004577637
344,352,39886,37,0,0:0:0:0:
56,220,40215,1,0,0:0:0:0:
288,32,40545,1,0,0:0:0:0:
344,352,40875,5,0,0:0:0:0:
304,88,41040,1,0,0:0:0:0:
304,348,41204,37,0,0:0:0:0:
260,64,41369,1,0,0:0:0:0:
264,344,41534,5,0,0:0:0:0:
260,312,41699,1,0,0:0:0:0:
256,276,41864,38,0,B|248:220|248:220|192:160,1,120.000004577637
88,152,42193,2,0,B|96:208|96:208|152:268,1,120.000004577637
304,252,42523,2,0,L|264:104,1,120.000004577637
168,24,42853,6,0,L|200:152,1,120.000004577637
232,292,43182,2,0,P|284:308|360:264,1,120.000004577637
300,116,43512,2,0,P|352:100|428:144,1,120.000004577637
484,276,43842,37,0,0:0:0:0:
140,259,44171,1,0,0:0:0:0:
428,180,44501,1,0,0:0:0:0:
39,69,44831,5,0,0:0:0:0:
383,86,45160,2,0,L|374:219,1,120.000004577637
241,347,45490,37,0,0:0:0:0:
235,299,45545,1,0,0:0:0:0:
229,251,45600,1,0,0:0:0:0:
277,200,45655,5,0,0:0:0:0:
279,152,45710,1,0,0:0:0:0:
281,104,45765,1,0,0:0:0:0:
205,42,45820,38,0,P|161:124|168:180,1,120.000004577637
247,126,46149,2,0,P|272:215|316:250,1,120.000004577637
351,176,46479,2,0,P|433:220|489:213,1,120.000004577637
361,310,46809,6,0,L|216:322,1,120.000004577637
289,233,47138,2,0,L|144:245,1,120.000004577637
228,155,47468,2,0,L|83:167,1,120.000004577637
337,143,47798,37,0,0:0:0:0:
372,149,47880,1,0,0:0:0:0:
403,167,47963,1,0,0:0:0:0:
427,193,48045,1,0,0:0:0:0:
436,227,48128,2,0,L|448:301,3,60.0000022888184
326,228,48457,2,0,L|314:154,3,60.0000022888184
271,342,48787,5,0,0:0:0:0:
238,327,48869,1,0,0:0:0:0:
212,301,48952,1,0,0:0:0:0:
205,265,49034,1,0,0:0:0:0:
205,228,49117,2,0,L|205:130,2,60.0000022888184
260,60,49364,6,0,L|260:138,1,60.0000022888184
256,336,49776,5,0,0:0:0:0:
336,156,49886,1,0,0:0:0:0:
336,156,49996,1,0,0:0:0:0:
256,336,50106,37,0,0:0:0:0:
176,156,50216,1,0,0:0:0:0:
176,156,50326,1,0,0:0:0:0:
256,324,50435,5,0,0:0:0:0:
340,132,50545,1,0,0:0:0:0:
340,132,50655,1,0,0:0:0:0:
256,324,50765,37,0,0:0:0:0:
172,132,50875,1,0,0:0:0:0:
172,132,50985,1,0,0:0:0:0:
256,308,51095,5,0,0:0:0:0:
344,100,51204,1,0,0:0:0:0:
344,100,51314,1,0,0:0:0:0:
256,308,51424,37,0,0:0:0:0:
168,100,51533,1,0,0:0:0:0:
168,100,51643,1,0,0:0:0:0:
256,28,51754,5,0,0:0:0:0:
344,280,51864,1,0,0:0:0:0:
344,280,51974,1,0,0:0:0:0:
256,28,52084,37,0,0:0:0:0:
168,280,52194,1,0,0:0:0:0:
168,280,52304,1,0,0:0:0:0:
256,44,52413,5,0,0:0:0:0:
368,324,52523,1,0,0:0:0:0:
368,324,52633,1,0,0:0:0:0:
256,44,52743,37,0,0:0:0:0:
144,324,52853,1,0,0:0:0:0:
144,324,52963,1,0,0:0:0:0:
256,60,53073,5,0,0:0:0:0:
396,360,53182,1,0,0:0:0:0:
396,360,53292,1,0,0:0:0:0:
256,60,53402,37,0,0:0:0:0:
116,360,53511,1,0,0:0:0:0:
116,360,53621,1,0,0:0:0:0:
396,360,53732,5,0,0:0:0:0:
352,192,53842,1,0,0:0:0:0:
316,24,53952,1,0,0:0:0:0:
116,360,54062,37,0,0:0:0:0:
160,192,54172,1,0,0:0:0:0:
196,24,54282,1,0,0:0:0:0:
336,360,54391,5,0,0:0:0:0:
308,192,54501,1,0,0:0:0:0:
280,24,54611,1,0,0:0:0:0:
176,360,54721,37,0,0:0:0:0:
204,192,54831,1,0,0:0:0:0:
232,24,54941,1,0,0:0:0:0:
292,360,55051,5,0,0:0:0:0:
276,192,55160,1,0,0:0:0:0:
260,24,55270,1,0,0:0:0:0:
220,360,55380,37,0,0:0:0:0:
236,192,55490,1,0,0:0:0:0:
252,24,55600,1,0,0:0:0:0:
208,300,55710,6,0,P|256:309|304:300,1,93.3333342234294
456,60,55930,37,0,0:0:0:0:
336,100,56040,2,0,B|287:114|287:114|208:87,1,93.3333342234294
32,256,56259,5,0,0:0:0:0:
148,208,56369,2,0,B|197:193|197:193|276:220,1,93.3333342234294
408,328,56589,37,0,0:0:0:0:
283,289,56699,2,0,L|302:296,20,20
160,248,57688,22,0,P|124:192|120:140,2,120
264,292,59171,1,0,0:0:0:0:
264,292,59501,1,0,0:0:0:0:
276,244,59583,1,0,0:0:0:0:
288,196,59666,1,0,0:0:0:0:
288,196,59830,1,0,0:0:0:0:
288,196,60160,1,0,0:0:0:0:
280,100,60325,6,0,B|228:68|192:80|192:80|184:116,2,120
372,132,61479,1,0,0:0:0:0:
372,132,61808,1,0,0:0:0:0:
372,132,62138,1,0,0:0:0:0:
380,180,62220,1,0,0:0:0:0:
392,228,62303,1,0,0:0:0:0:
392,228,62468,1,0,0:0:0:0:
392,228,62797,1,0,0:0:0:0:
364,320,62962,38,0,B|324:348|324:348|268:304|268:304|224:352,2,180.000006866455
356,212,64116,1,0,0:0:0:0:
356,212,64446,1,0,0:0:0:0:
356,212,64775,1,0,0:0:0:0:
304,204,64858,1,0,0:0:0:0:
252,196,64940,1,0,0:0:0:0:
252,196,65105,1,0,0:0:0:0:
252,196,65435,1,0,0:0:0:0:
260,296,65600,6,0,P|208:324|176:176,1,250
196,112,66094,2,0,B|256:160|340:152|340:152|336:224|400:264,1,250
360,352,66589,2,0,B|236:276|120:128|152:72|240:-8|340:64|344:76|372:124|304:168|308:252|72:336,1,800
128,12,68236,38,0,L|112:168,1,150.000005722046
252,348,68730,6,0,L|268:192,1,150.000005722046
408,40,69225,38,0,B|568:128|408:184|408:184|552:264|356:336,1,450.000017166138
176,336,70543,5,0,0:0:0:0:
104,152,70873,38,0,P|148:52|176:64,1,150.000005722046
168,316,71367,6,0,P|204:208|196:160,1,150.000005722046
296,324,71862,38,0,B|304:276|240:248|208:288|208:288|124:300|76:268|64:220|60:176|88:140|112:120|140:104|188:112,1,450.000017166138
288,108,73181,2,0,P|316:120|356:112,1,60.0000022888184
184,340,73510,6,0,L|140:172,1,150.000005722046
224,56,74005,38,0,B|240:136|240:136|204:216,1,150.000005722046
144,340,74499,6,0,B|224:340|224:340|224:256|224:256|164:256|164:256|100:232|96:164,1,330.000012588501
168,16,75488,2,0,P|232:56|142:69,1,210.000008010865
147,81,76148,38,0,P|148:176|212:252,2,180.000006866455
456,220,77466,6,0,L|348:232,1,80
456,220,77796,38,0,L|348:232,1,80
456,220,78126,6,0,L|348:232,1,80
456,220,78455,38,0,L|348:232,1,80
108,252,78785,5,0,0:0:0:0:
168,144,78950,1,0,0:0:0:0:
232,296,79115,1,0,0:0:0:0:
136,64,79279,2,0,L|244:76,1,80
392,88,79774,1,0,0:0:0:0:
88,56,79939,2,0,L|-8:44,1,80
107,298,80433,37,0,0:0:0:0:
235,146,80598,1,0,0:0:0:0:
90,116,80763,5,0,0:0:0:0:
254,322,80928,1,0,0:0:0:0:
287,103,81093,37,0,0:0:0:0:
62,339,81257,1,0,0:0:0:0:
287,103,81422,6,0,P|343:145|377:148,1,80
193,202,81917,1,0,0:0:0:0:
421,233,82082,1,0,0:0:0:0:
266,88,82246,1,0,0:0:0:0:
265,321,82411,1,0,0:0:0:0:
266,45,82576,2,0,P|205:78|199:116,1,80
118,293,83071,37,0,0:0:0:0:
387,253,83236,1,0,0:0:0:0:
253,103,83400,5,0,0:0:0:0:
240,339,83565,1,0,0:0:0:0:
151,85,83730,37,0,0:0:0:0:
58,302,83895,1,0,0:0:0:0:
62,50,84060,5,0,0:0:0:0:
149,239,84225,1,0,0:0:0:0:
132,122,84389,1,0,0:0:0:0:
73,269,84554,2,0,L|112:179,1,80
168,29,85049,1,0,0:0:0:0:
270,309,85214,2,0,L|238:224,1,80
330,44,85708,37,0,0:0:0:0:
149,180,85873,1,0,0:0:0:0:
286,369,86038,5,0,0:0:0:0:
467,232,86203,1,0,0:0:0:0:
149,180,86367,37,0,0:0:0:0:
467,232,86532,1,0,0:0:0:0:
444,101,86615,1,0,0:0:0:0:
349,183,86697,6,0,B|329:119|329:119|321:94,1,80
220,48,87192,1,0,0:0:0:0:
224,249,87356,1,0,0:0:0:0:
427,214,87521,1,0,0:0:0:0:
223,145,87686,1,0,0:0:0:0:
224,360,87851,1,0,0:0:0:0:
32,283,88016,37,0,0:0:0:0:
32,283,88675,5,0,0:0:0:0:
54,193,88757,1,0,0:0:0:0:
146,187,88840,1,0,0:0:0:0:
180,272,88922,1,0,0:0:0:0:
110,331,89005,37,0,0:0:0:0:
102,251,89087,1,0,0:0:0:0:
146,187,89170,1,0,0:0:0:0:
123,81,89334,5,0,0:0:0:0:
214,21,89664,1,0,0:0:0:0:
295,94,89994,1,0,0:0:0:0:
245,191,90323,1,0,0:0:0:0:
351,182,90653,37,0,0:0:0:0:
245,191,90983,1,0,0:0:0:0:
222,284,91230,1,0,0:0:0:0:
222,284,91312,1,0,0:0:0:0:
110,289,91642,1,0,0:0:0:0:
102,177,91972,5,0,0:0:0:0:
78,66,92301,1,0,0:0:0:0:
175,10,92631,1,0,0:0:0:0:
258,86,92961,1,0,0:0:0:0:
159,139,93290,37,0,0:0:0:0:
179,249,93620,1,0,0:0:0:0:
289,265,93950,5,0,0:0:0:0:
289,265,94115,1,0,0:0:0:0:
339,164,94279,37,0,0:0:0:0:
339,164,94444,1,0,0:0:0:0:
450,152,94609,5,0,0:0:0:0:
465,263,94939,1,0,0:0:0:0:
353,275,95268,1,0,0:0:0:0:
241,285,95598,1,0,0:0:0:0:
157,210,95928,37,0,0:0:0:0:
137,99,96257,1,0,0:0:0:0:
51,171,96505,1,0,0:0:0:0:
51,171,96587,1,0,0:0:0:0:
65,282,96917,1,0,0:0:0:0:
191,295,97246,5,0,0:0:0:0:
161,153,97576,37,0,0:0:0:0:
25,237,97906,5,0,0:0:0:0:
172,332,98236,37,0,0:0:0:0:
184,112,98565,5,0,0:0:0:0:
137,279,98730,1,0,0:0:0:0:
235,99,98895,37,0,0:0:0:0:
213,315,99060,1,0,0:0:0:0:
286,97,99225,5,0,0:0:0:0:
298,332,99389,1,0,0:0:0:0:
339,107,99554,37,0,0:0:0:0:
388,328,99719,1,0,0:0:0:0:
376,108,99884,6,0,B|460:192|460:192|353:300,1,240
136,276,100214,2,0,B|51:191|51:191|158:83,1,240
368,108,100543,38,0,B|452:192|452:192|345:300,1,240
144,276,100873,2,0,B|59:191|59:191|166:83,1,240
356,108,101203,6,0,B|440:192|440:192|333:300,1,240
156,276,101533,2,0,B|71:191|71:191|178:83,1,240
376,224,101862,37,0,0:0:0:0:
136,160,102027,1,0,0:0:0:0:
392,184,102192,1,0,0:0:0:0:
120,200,102356,1,0,0:0:0:0:
356,276,102521,6,0,B|440:191|440:191|333:83,1,240
156,108,102851,2,0,B|71:192|71:192|178:300,1,240
372,276,103181,38,0,B|456:191|456:191|349:83,1,240
136,108,103511,2,0,B|51:192|51:192|158:300,1,240
384,276,103840,6,0,B|468:191|468:191|361:83,1,240
128,108,104170,2,0,B|43:192|43:192|150:300,1,240
396,276,104499,1,0,0:0:0:0:
428,220,104664,1,0,0:0:0:0:
428,156,104829,1,0,0:0:0:0:
408,96,104994,1,0,0:0:0:0:
360,52,105159,37,0,0:0:0:0:
136,328,105323,1,0,0:0:0:0:
204,32,105488,1,0,0:0:0:0:
324,352,105653,1,0,0:0:0:0:
460,48,105818,1,0,0:0:0:0:
120,264,105983,1,0,0:0:0:0:
456,188,106148,1,0,0:0:0:0:
176,80,106312,1,0,0:0:0:0:
164,352,106477,5,0,0:0:0:0:
8,104,106642,1,0,0:0:0:0:
300,60,106807,1,0,0:0:0:0:
80,304,106972,1,0,0:0:0:0:
352,168,107137,1,0,0:0:0:0:
76,72,107301,1,0,0:0:0:0:
244,336,107466,1,0,0:0:0:0:
288,28,107631,1,0,0:0:0:0:
456,296,107796,38,0,L|452:256,1,30.0000011444092
364,200,107961,2,0,L|368:248,1,30.0000011444092
292,328,108126,6,0,L|288:288,1,30.0000011444092
216,192,108291,2,0,L|220:240,1,30.0000011444092
160,352,108455,5,0,0:0:0:0:
148,340,108496,1,0,0:0:0:0:
140,328,108538,1,0,0:0:0:0:
132,316,108579,1,0,0:0:0:0:
128,300,108620,1,0,0:0:0:0:
124,284,108661,1,0,0:0:0:0:
124,268,108703,1,0,0:0:0:0:
128,252,108744,1,0,0:0:0:0:
132,240,108785,21,0,0:0:0:0:
220,160,108867,1,0,0:0:0:0:
312,240,108950,1,0,0:0:0:0:
408,172,109032,1,0,0:0:0:0:
384,52,109115,21,0,0:0:0:0:
372,60,109156,1,0,0:0:0:0:
360,68,109197,1,0,0:0:0:0:
347,75,109238,1,0,0:0:0:0:
332,79,109279,5,0,0:0:0:0:
316,79,109321,1,0,0:0:0:0:
301,77,109362,1,0,0:0:0:0:
286,75,109403,1,0,0:0:0:0:
271,74,109444,37,0,0:0:0:0:
255,74,109486,1,0,0:0:0:0:
240,78,109527,1,0,0:0:0:0:
226,85,109568,1,0,0:0:0:0:
214,94,109609,5,0,0:0:0:0:
204,105,109650,1,0,0:0:0:0:
195,117,109692,1,0,0:0:0:0:
189,131,109733,1,0,0:0:0:0:
188,145,109774,38,0,L|188:169,15,15.0000005722046
256,192,110433,12,0,112741,0:0:0:0:
124,120,113071,5,0,0:0:0:0:
117,215,113153,1,0,0:0:0:0:
139,124,113236,1,0,0:0:0:0:
132,219,113318,1,0,0:0:0:0:
154,128,113400,1,0,0:0:0:0:
147,223,113483,1,0,0:0:0:0:
169,129,113565,1,0,0:0:0:0:
162,224,113648,1,0,0:0:0:0:
214,108,113730,37,0,0:0:0:0:
217,243,113812,1,0,0:0:0:0:
230,108,113895,1,0,0:0:0:0:
233,243,113977,1,0,0:0:0:0:
282,88,114060,5,0,0:0:0:0:
285,235,114142,1,0,0:0:0:0:
335,119,114225,37,0,0:0:0:0:
332,234,114307,1,0,0:0:0:0:
350,122,114389,1,0,0:0:0:0:
347,237,114471,1,0,0:0:0:0:
364,127,114554,1,0,0:0:0:0:
361,242,114636,1,0,0:0:0:0:
420,128,114719,5,0,0:0:0:0:
422,232,114801,1,0,0:0:0:0:
435,126,114884,1,0,0:0:0:0:
437,230,114965,1,0,0:0:0:0:
468,116,115049,37,0,0:0:0:0:
475,272,115131,1,0,0:0:0:0:
374,159,115214,6,0,L|374:74,1,80
261,210,115378,38,0,L|261:125,3,80
56,284,115708,5,0,0:0:0:0:
56,128,115790,1,0,0:0:0:0:
72,288,115873,1,0,0:0:0:0:
72,124,115955,1,0,0:0:0:0:
124,264,116038,37,0,0:0:0:0:
120,100,116120,1,0,0:0:0:0:
140,264,116203,1,0,0:0:0:0:
136,100,116285,1,0,0:0:0:0:
181,245,116367,5,0,0:0:0:0:
184,84,116450,1,0,0:0:0:0:
197,241,116532,1,0,0:0:0:0:
200,88,116615,1,0,0:0:0:0:
248,260,116697,37,0,0:0:0:0:
247,118,116779,1,0,0:0:0:0:
297,285,116862,5,0,0:0:0:0:
298,129,116944,1,0,0:0:0:0:
312,288,117027,1,0,0:0:0:0:
313,126,117109,1,0,0:0:0:0:
327,289,117192,1,0,0:0:0:0:
328,125,117274,1,0,0:0:0:0:
384,252,117356,37,0,0:0:0:0:
384,135,117439,1,0,0:0:0:0:
399,250,117521,1,0,0:0:0:0:
399,137,117604,1,0,0:0:0:0:
448,260,117686,5,0,0:0:0:0:
448,113,117768,1,0,0:0:0:0:
463,262,117851,1,0,0:0:0:0:
463,111,117933,1,0,0:0:0:0:
475,265,118016,38,0,B|384:313|391:20|269:214|239:112,1,240
88,118,118345,5,0,0:0:0:0:
91,253,118428,1,0,0:0:0:0:
102,124,118510,1,0,0:0:0:0:
105,247,118593,1,0,0:0:0:0:
117,127,118675,1,0,0:0:0:0:
120,244,118758,1,0,0:0:0:0:
132,125,118840,1,0,0:0:0:0:
135,246,118923,1,0,0:0:0:0:
181,102,119005,37,0,0:0:0:0:
183,255,119087,1,0,0:0:0:0:
197,101,119170,1,0,0:0:0:0:
199,256,119252,1,0,0:0:0:0:
254,108,119334,5,0,0:0:0:0:
307,352,119499,37,0,0:0:0:0:
300,210,119582,1,0,0:0:0:0:
322,346,119664,1,0,0:0:0:0:
315,216,119747,1,0,0:0:0:0:
336,338,119829,1,0,0:0:0:0:
329,224,119912,1,0,0:0:0:0:
384,354,119994,5,0,0:0:0:0:
379,200,120076,1,0,0:0:0:0:
400,353,120159,1,0,0:0:0:0:
395,201,120241,1,0,0:0:0:0:
422,308,120323,38,0,P|373:295|348:264,1,80
190,301,120488,2,0,P|176:252|191:214,1,80
16,163,120653,2,0,P|51:127|91:120,3,80
186,82,120983,22,0,L|186:115,1,20
256,160,121148,2,0,L|256:136,1,20
336,96,121312,2,0,L|336:120,1,20
332,248,121477,6,0,L|332:216,1,20
400,324,121642,2,0,L|400:300,1,20
264,340,121807,2,0,L|264:364,1,20
172,280,121972,38,0,L|172:248,3,20
60,316,122301,5,0,0:0:0:0:
59,295,122384,1,0,0:0:0:0:
58,275,122466,1,0,0:0:0:0:
58,254,122549,1,0,0:0:0:0:
125,62,122631,1,0,0:0:0:0:
253,210,122796,1,0,0:0:0:0:
255,229,122878,1,0,0:0:0:0:
257,248,122961,2,0,P|187:295|157:115,1,320
116,134,123620,5,0,0:0:0:0:
119,272,123703,1,0,0:0:0:0:
130,139,123785,1,0,0:0:0:0:
133,267,123868,1,0,0:0:0:0:
145,142,123950,1,0,0:0:0:0:
148,264,124033,1,0,0:0:0:0:
160,146,124115,1,0,0:0:0:0:
163,260,124198,1,0,0:0:0:0:
193,107,124279,5,0,0:0:0:0:
196,268,124362,1,0,0:0:0:0:
208,105,124444,1,0,0:0:0:0:
211,270,124527,1,0,0:0:0:0:
245,141,124609,37,0,0:0:0:0:
246,251,124692,1,0,0:0:0:0:
289,105,124774,5,0,0:0:0:0:
290,255,124856,1,0,0:0:0:0:
304,107,124939,1,0,0:0:0:0:
305,253,125021,1,0,0:0:0:0:
319,108,125104,1,0,0:0:0:0:
320,252,125186,1,0,0:0:0:0:
353,132,125268,37,0,0:0:0:0:
357,272,125351,1,0,0:0:0:0:
368,134,125433,1,0,0:0:0:0:
372,270,125516,1,0,0:0:0:0:
405,116,125598,5,0,0:0:0:0:
408,232,125681,1,0,0:0:0:0:
344,348,125763,38,0,L|344:264,1,80
208,92,125928,6,0,L|208:176,3,80
52,312,126257,37,0,0:0:0:0:
52,200,126340,1,0,0:0:0:0:
68,316,126422,1,0,0:0:0:0:
68,196,126505,1,0,0:0:0:0:
84,316,126587,1,0,0:0:0:0:
84,196,126670,1,0,0:0:0:0:
100,312,126752,1,0,0:0:0:0:
100,200,126835,5,0,0:0:0:0:
152,312,126917,2,0,P|188:260|197:143,1,160
225,47,127137,2,0,P|279:144|281:253,1,213.333333333333
218,349,127411,2,0,P|153:263|226:134,1,266.666666666667
247,272,127741,2,0,P|326:274|348:211,1,106.666666666667
347,133,127906,37,0,0:0:0:0:
352,274,127988,1,0,0:0:0:0:
362,136,128071,1,0,0:0:0:0:
367,271,128153,1,0,0:0:0:0:
374,135,128236,2,0,P|456:123|338:65,1,320
65,109,128895,6,0,L|83:354,2,240
183,76,129554,37,0,0:0:0:0:
184,221,129637,1,0,0:0:0:0:
198,80,129719,1,0,0:0:0:0:
199,217,129802,1,0,0:0:0:0:
213,82,129884,1,0,0:0:0:0:
214,215,129967,1,0,0:0:0:0:
257,95,130049,5,0,0:0:0:0:
259,230,130131,1,0,0:0:0:0:
295,80,130214,37,0,0:0:0:0:
298,222,130296,1,0,0:0:0:0:
295,80,130461,5,0,0:0:0:0:
144,288,130708,1,0,0:0:0:0:
254,301,130790,1,0,0:0:0:0:
366,313,130873,37,0,0:0:0:0:
368,196,130955,1,0,0:0:0:0:
381,314,131038,1,0,0:0:0:0:
383,195,131120,1,0,0:0:0:0:
396,312,131203,1,0,0:0:0:0:
398,197,131285,1,0,0:0:0:0:
411,307,131367,1,0,0:0:0:0:
413,202,131449,1,0,0:0:0:0:
427,209,131532,22,0,L|438:142,1,40
447,90,132027,2,0,L|431:186,1,80
319,316,132686,2,0,P|279:259|280:216,2,80
369,143,133510,5,0,0:0:0:0:
330,96,133593,1,0,0:0:0:0:
271,82,133675,1,0,0:0:0:0:
213,97,133757,1,0,0:0:0:0:
170,139,133840,2,0,P|158:153|151:183,1,40
140,320,134170,37,0,0:0:0:0:
272,204,134334,1,0,0:0:0:0:
100,100,134499,2,0,L|96:176,1,60.0000022888184
148,124,134746,2,0,L|157:199,1,60.0000022888184
196,140,134994,2,0,L|218:212,1,60.0000022888184
252,144,135241,1,0,0:0:0:0:
304,136,135406,5,0,0:0:0:0:
420,196,135488,2,0,L|408:256,1,60.0000022888184
344,236,135736,2,0,L|312:288,1,60.0000022888184
256,264,135983,2,0,L|208:302,1,60.0000022888184
152,272,136230,2,0,L|94:291,1,60.0000022888184
60,236,136477,2,0,L|-1:234,1,60.0000022888184
136,168,136725,37,0,0:0:0:0:
376,64,136807,6,0,L|308:96,1,60.0000022888184
414,266,137054,2,0,L|363:211,1,60.0000022888184
234,366,137301,2,0,L|270:300,1,60.0000022888184
83,225,137549,2,0,L|157:239,1,60.0000022888184
171,38,137796,2,0,L|180:112,1,60.0000022888184
207,331,138043,37,0,0:0:0:0:
348,219,138126,2,0,L|331:295,1,60.0000022888184
170,158,138373,2,0,L|187:234,1,60.0000022888184
380,86,138620,2,0,L|363:162,1,60.0000022888184
140,22,138867,2,0,L|157:98,1,60.0000022888184
348,220,139115,2,0,L|332:288,1,60.0000022888184
244,126,139362,5,0,0:0:0:0:
144,24,139444,37,0,0:0:0:0:
72,308,139609,1,0,0:0:0:0:
456,128,139774,1,0,0:0:0:0:
112,140,139939,1,0,0:0:0:0:
320,352,140104,1,0,0:0:0:0:
384,24,140268,1,0,0:0:0:0:
108,224,140433,1,0,0:0:0:0:
440,268,140598,1,0,0:0:0:0:
200,32,140763,5,0,0:0:0:0:
216,352,140928,1,0,0:0:0:0:
400,80,141093,1,0,0:0:0:0:
68,232,141257,1,0,0:0:0:0:
420,192,141422,1,0,0:0:0:0:
96,76,141587,1,0,0:0:0:0:
292,336,141752,1,0,0:0:0:0:
384,24,141917,1,0,0:0:0:0:
412,108,142082,38,0,L|388:108,14,15.0000005722046
409,198,142741,2,0,L|388:195,14,15.0000005722046
389,284,143400,1,0,0:0:0:0:
256,192,143483,12,0,144390,0:0:0:0:
124,52,144719,6,0,B|144:184|144:184|200:156|200:156|224:284,1,320
384,84,145214,1,0,0:0:0:0:
108,240,145378,1,0,0:0:0:0:
95,201,145461,1,0,0:0:0:0:
94,161,145543,1,0,0:0:0:0:
108,123,145626,1,0,0:0:0:0:
135,94,145708,38,0,P|157:103|172:164,1,80
220,315,145873,2,0,P|197:306|183:245,1,80
234,66,146038,6,0,B|262:158|320:188|320:188|244:217|244:217|282:262|235:324,1,320
95,81,146532,1,0,0:0:0:0:
184,309,146697,2,0,P|215:288|219:198,1,106.666666666667
293,39,147027,38,0,L|281:131,1,80
373,75,147192,2,0,L|361:167,1,80
461,108,147356,2,0,L|442:245,2,106.666666666667
285,290,147686,5,0,0:0:0:0:
342,102,147851,1,0,0:0:0:0:
303,95,147933,1,0,0:0:0:0:
263,88,148016,1,0,0:0:0:0:
225,81,148098,1,0,0:0:0:0:
186,74,148181,1,0,0:0:0:0:
15,110,148345,1,0,0:0:0:0:
60,269,148510,37,0,0:0:0:0:
100,272,148593,1,0,0:0:0:0:
139,278,148675,2,0,B|196:279|196:279|250:343|250:343|249:282|249:282|398:285,1,320
315,33,149170,5,0,0:0:0:0:
319,72,149252,1,0,0:0:0:0:
307,110,149334,1,0,0:0:0:0:
275,135,149417,1,0,0:0:0:0:
236,145,149499,1,0,0:0:0:0:
74,319,149664,38,0,L|92:227,1,80
246,39,149829,2,0,L|227:131,1,80
72,319,149994,6,0,B|112:158|112:158|127:320|235:325,1,320
325,54,150488,1,0,0:0:0:0:
415,338,150653,1,0,0:0:0:0:
374,341,150736,1,0,0:0:0:0:
334,343,150818,1,0,0:0:0:0:
294,335,150900,1,0,0:0:0:0:
258,316,150983,38,0,P|239:250|264:209,1,80
233,10,151148,2,0,P|252:75|227:117,1,80
52,266,151312,6,0,B|120:186|120:186|218:185|218:185|304:107,1,320
215,340,151807,37,0,0:0:0:0:
215,340,151889,1,0,0:0:0:0:
459,249,152054,1,0,0:0:0:0:
264,71,152219,1,0,0:0:0:0:
225,60,152301,6,0,P|178:54|116:87,1,80
376,168,152466,2,0,P|428:176|470:136,1,80
226,60,152631,38,0,P|133:67|48:258,1,320
354,334,153126,1,0,0:0:0:0:
170,54,153290,1,0,0:0:0:0:
170,54,153373,1,0,0:0:0:0:
176,203,153620,2,0,B|186:159|186:159|173:119|173:119|187:95|187:95|155:20,1,160
403,351,153950,5,0,0:0:0:0:
152,10,154115,1,0,0:0:0:0:
80,367,154279,1,0,0:0:0:0:
385,25,154444,1,0,0:0:0:0:
403,351,154609,6,0,P|387:296|323:271,1,80
152,10,154774,2,0,P|168:64|232:89,1,80
80,367,154939,6,0,P|96:312|160:287,1,80
385,25,155104,37,0,0:0:0:0:
389,121,155186,1,0,0:0:0:0:
394,221,155268,22,0,B|314:176|314:176|331:197|279:265|279:265|244:209|244:138,1,320
152,320,155763,1,0,0:0:0:0:
111,100,155928,1,0,0:0:0:0:
149,112,156011,1,0,0:0:0:0:
187,102,156093,1,0,0:0:0:0:
220,79,156176,1,0,0:0:0:0:
243,47,156257,6,0,P|290:80|274:144,1,80
320,284,156422,2,0,P|290:332|244:332,1,80
104,160,156587,38,0,B|208:164|240:160|240:160|272:212|216:264|216:264|160:264|140:240,1,320
208,44,157082,1,0,0:0:0:0:
431,66,157246,2,0,P|416:125|338:162,1,106.666666666667
210,294,157576,6,0,L|311:312,1,80
413,214,157741,2,0,L|319:198,1,80
173,50,157906,2,0,L|308:74,2,106.666666666667
199,216,158236,37,0,0:0:0:0:
421,107,158400,1,0,0:0:0:0:
419,147,158483,1,0,0:0:0:0:
406,184,158565,1,0,0:0:0:0:
382,216,158648,1,0,0:0:0:0:
350,240,158730,1,0,0:0:0:0:
184,42,158895,1,0,0:0:0:0:
157,275,159060,5,0,0:0:0:0:
187,248,159142,1,0,0:0:0:0:
203,211,159225,2,0,B|295:98|295:98|191:99|191:99|250:169,1,320
419,293,159719,1,0,0:0:0:0:
388,266,159801,1,0,0:0:0:0:
357,239,159884,1,0,0:0:0:0:
344,276,159966,1,0,0:0:0:0:
332,314,160049,1,0,0:0:0:0:
44,213,160214,38,0,L|140:247,1,80
312,83,160378,2,0,L|192:139,1,80
262,356,160543,6,0,B|263:266|192:268|192:268|205:216|300:237|300:237|300:154,1,320
106,41,161038,1,0,0:0:0:0:
223,223,161203,1,0,0:0:0:0:
261,211,161285,1,0,0:0:0:0:
288,182,161367,1,0,0:0:0:0:
304,145,161450,1,0,0:0:0:0:
324,110,161532,38,0,P|374:105|396:123,1,80
162,210,161697,2,0,P|112:215|90:197,1,80
381,200,161862,6,0,B|228:248|429:273|586:307|242:306,1,320
30,251,162356,1,0,0:0:0:0:
30,251,162439,1,0,0:0:0:0:
308,354,162604,1,0,0:0:0:0:
483,170,162768,1,0,0:0:0:0:
483,170,162851,38,0,B|447:174|447:174|402:147,1,80
138,25,163016,2,0,B|174:21|174:21|219:48,1,80
138,25,163181,6,0,B|145:34|145:34|148:25|148:25|152:35|152:35|156:25|156:25|160:32|160:32|166:24|166:24|167:31|167:31|171:23|171:23|245:66|245:66|245:76|245:76|253:70|253:70|256:79|256:79|262:74|262:74|263:83|263:83|270:81|270:81|294:97,1,240
373,314,163840,2,0,B|250:323|212:212|212:212|215:207|215:207|209:203|209:203|213:196|213:196|205:194|205:194|207:181|207:181|203:166,1,240
154,78,164499,37,0,0:0:0:0:
154,78,164609,1,0,0:0:0:0:
116,187,164719,1,0,0:0:0:0:
116,187,164829,1,0,0:0:0:0:
283,81,164939,1,0,0:0:0:0:
283,81,165049,1,0,0:0:0:0:
163,267,165159,1,0,0:0:0:0:
163,267,165268,1,0,0:0:0:0:
328,251,165378,2,0,P|374:233|399:211,1,53.3333333333333
373,230,165818,6,0,L|377:331,1,80
249,151,165983,2,0,L|245:50,1,80
250,303,166148,2,0,L|254:404,1,80
370,83,166312,1,0,0:0:0:0:
301,60,166395,1,0,0:0:0:0:
229,65,166477,1,0,0:0:0:0:
166,101,166560,1,0,0:0:0:0:
128,162,166642,1,0,0:0:0:0:
119,234,166725,1,0,0:0:0:0:
151,297,166807,38,0,P|199:286|230:237,1,80
281,108,166972,2,0,P|233:119|202:167,1,80
224,349,167137,6,0,L|219:248,1,80
329,149,167301,2,0,L|333:239,1,80
149,146,167466,2,0,L|143:35,1,80
349,344,167631,1,0,0:0:0:0:
393,287,167714,1,0,0:0:0:0:
386,215,167796,1,0,0:0:0:0:
332,167,167878,1,0,0:0:0:0:
259,165,167961,1,0,0:0:0:0:
199,204,168043,1,0,0:0:0:0:
126,208,168126,38,0,P|75:194|45:137,1,80
233,47,168290,2,0,P|283:61|314:118,1,80
175,301,168455,5,0,0:0:0:0:
154,231,168538,1,0,0:0:0:0:
164,160,168620,1,0,0:0:0:0:
210,104,168703,1,0,0:0:0:0:
277,80,168785,2,0,P|308:82|320:134,1,80
154,231,168950,1,0,0:0:0:0:
88,202,169032,1,0,0:0:0:0:
51,139,169115,1,0,0:0:0:0:
54,67,169197,1,0,0:0:0:0:
103,15,169279,2,0,P|133:61|157:76,1,80
260,230,169444,2,0,P|252:285|234:311,1,80
341,48,169609,37,0,0:0:0:0:
321,117,169692,1,0,0:0:0:0:
261,157,169774,2,0,P|290:184|339:183,1,80
341,48,169939,5,0,0:0:0:0:
271,63,170021,1,0,0:0:0:0:
201,84,170104,1,0,0:0:0:0:
133,108,170186,1,0,0:0:0:0:
81,153,170268,1,0,0:0:0:0:
67,224,170351,1,0,0:0:0:0:
91,291,170433,1,0,0:0:0:0:
151,330,170516,1,0,0:0:0:0:
222,330,170598,1,0,0:0:0:0:
282,290,170681,1,0,0:0:0:0:
302,221,170763,38,0,P|298:170|272:138,1,80
157,222,170928,2,0,P|161:273|187:305,1,80
336,193,171093,6,0,L|371:101,1,80
191,42,171257,2,0,L|155:134,1,80
180,318,171422,2,0,L|277:302,1,80
283,127,171587,1,0,0:0:0:0:
213,106,171669,1,0,0:0:0:0:
150,140,171751,1,0,0:0:0:0:
130,209,171834,1,0,0:0:0:0:
164,273,171916,1,0,0:0:0:0:
233,293,171999,1,0,0:0:0:0:
296,259,172082,38,0,P|356:261|385:286,1,80
100,134,172246,2,0,P|68:184|32:197,1,80
311,20,172411,6,0,L|257:90,1,80
199,284,172576,2,0,L|253:214,1,80
452,62,172741,2,0,L|398:132,1,80
365,347,172906,38,0,P|338:291|346:264,1,80
169,84,173071,5,0,0:0:0:0:
212,141,173153,1,0,0:0:0:0:
282,157,173236,2,0,P|309:213|301:240,1,80
131,259,173400,38,0,P|104:203|112:176,1,80
316,127,173565,2,0,P|343:183|335:210,1,80
85,294,173730,6,0,L|196:311,1,80
206,49,173895,2,0,L|189:160,1,80
362,259,174060,2,0,L|251:242,1,80
48,182,174225,1,0,0:0:0:0:
118,193,174307,1,0,0:0:0:0:
189,200,174389,1,0,0:0:0:0:
261,206,174472,1,0,0:0:0:0:
330,189,174554,1,0,0:0:0:0:
378,134,174637,1,0,0:0:0:0:
385,62,174719,38,0,P|342:82|321:135,1,80
319,316,174884,2,0,P|362:296|383:243,1,80
252,116,175049,6,0,L|244:12,1,80
116,248,175214,2,0,L|125:352,1,80
288,80,175378,2,0,L|280:-24,1,80
100,280,175543,2,0,L|109:384,1,80
287,77,175708,6,0,P|330:91|376:80,1,80
100,280,175873,2,0,P|57:266|11:277,1,80
345,48,176038,2,0,P|388:62|434:51,1,80
220,306,176203,1,0,0:0:0:0:
99,280,176285,1,0,0:0:0:0:
26,162,176367,22,0,P|52:113|85:97,1,80
251,81,176532,2,0,P|297:50|310:16,1,80
186,316,176697,2,0,P|169:262|181:228,1,80
411,172,176862,5,0,0:0:0:0:
402,243,176944,1,0,0:0:0:0:
362,303,177027,1,0,0:0:0:0:
299,338,177109,1,0,0:0:0:0:
226,341,177192,1,0,0:0:0:0:
164,304,177274,1,0,0:0:0:0:
125,243,177356,38,0,P|113:189|125:149,1,80
289,55,177521,2,0,P|301:109|288:149,1,80
120,244,177686,6,0,L|180:328,1,80
240,112,177851,2,0,L|180:28,1,80
296,284,178016,2,0,L|356:368,1,80
240,112,178181,1,0,0:0:0:0:
216,180,178263,1,0,0:0:0:0:
192,248,178345,1,0,0:0:0:0:
172,316,178428,1,0,0:0:0:0:
240,336,178510,1,0,0:0:0:0:
312,332,178593,1,0,0:0:0:0:
368,288,178675,38,0,P|400:240|400:184,1,80
144,288,178840,2,0,P|112:240|112:184,1,80
246,41,179005,5,0,0:0:0:0:
209,102,179087,1,0,0:0:0:0:
198,173,179170,1,0,0:0:0:0:
208,243,179252,1,0,0:0:0:0:
242,305,179334,2,0,P|277:338|332:351,1,80
385,131,179499,37,0,0:0:0:0:
317,156,179582,1,0,0:0:0:0:
246,167,179664,1,0,0:0:0:0:
174,164,179746,1,0,0:0:0:0:
106,137,179829,2,0,P|44:99|32:76,1,80
138,303,179994,2,0,P|200:341|212:364,1,80
246,167,180159,5,0,0:0:0:0:
306,204,180241,1,0,0:0:0:0:
377,203,180323,2,0,P|406:176|425:130,1,80
246,167,180488,37,0,0:0:0:0:
216,100,180571,1,0,0:0:0:0:
157,58,180653,1,0,0:0:0:0:
85,45,180736,1,0,0:0:0:0:
47,106,180818,1,0,0:0:0:0:
52,177,180900,1,0,0:0:0:0:
89,239,180983,1,0,0:0:0:0:
148,279,181065,1,0,0:0:0:0:
219,289,181148,1,0,0:0:0:0:
287,269,181230,1,0,0:0:0:0:
337,217,181312,2,0,P|372:280|367:302,1,80
175,211,181477,5,0,0:0:0:0:
162,124,181560,1,0,0:0:0:0:
149,28,181642,37,0,0:0:0:0:
379,108,181807,1,0,0:0:0:0:
110,273,181972,1,0,0:0:0:0:
252,22,182137,1,0,0:0:0:0:
277,333,182301,1,0,0:0:0:0:
78,126,182466,1,0,0:0:0:0:
397,161,182631,1,0,0:0:0:0:
86,316,182796,1,0,0:0:0:0:
81,223,182878,1,0,0:0:0:0:
78,126,182961,21,0,0:0:0:0:
365,60,183126,1,0,0:0:0:0:
225,361,183290,1,0,0:0:0:0:
213,9,183455,1,0,0:0:0:0:
474,295,183620,1,0,0:0:0:0:
31,246,183785,1,0,0:0:0:0:
416,22,183950,1,0,0:0:0:0:
225,361,184115,1,0,0:0:0:0:
80,95,184279,6,0,P|120:130|195:139,1,120
275,101,184444,2,0,P|346:78|395:95,1,120
441,172,184609,2,0,P|435:232|401:287,1,120
298,315,184774,2,0,P|237:305|189:263,1,120
166,117,184939,38,0,B|125:215|125:215|134:240|134:240|119:247,1,120
242,302,185104,2,0,B|250:233|250:233|243:202|243:202|269:162,1,120
303,41,185268,2,0,B|320:106|320:106|308:131|308:131|333:172,1,120
391,314,185433,2,0,B|406:247|407:240|407:240|399:222|399:222|416:186|416:186,1,120
432,35,185598,37,0,0:0:0:0:
430,59,185681,1,0,0:0:0:0:
428,82,185763,2,0,L|426:113,3,20
323,152,186093,1,0,0:0:0:0:
309,171,186175,1,0,0:0:0:0:
295,190,186257,2,0,L|274:219,3,20
159,226,186587,38,0,L|148:226,8,10
256,192,186999,12,0,189554,0:0:0:0:
