osu file format v14

[General]
AudioFilename: audio.mp3
AudioLeadIn: 0
PreviewTime: 143429
Countdown: 0
SampleSet: Normal
StackLeniency: 0.7
Mode: 0
LetterboxInBreaks: 0
WidescreenStoryboard: 1

[Editor]
Bookmarks: 18155,33979,41067,49803,57715,68264,78814,89363,95957,99913,113100,119034,124308,134198,139473,140792,144748,145737,155297,160902,165847,176396,186616,186946,189583
DistanceSpacing: 1.2
BeatDivisor: 4
GridSize: 8
TimelineZoom: 2.1

[Metadata]
Title:Cyanine
TitleUnicode:Cyanine
Artist:Jioyi
ArtistUnicode:Jioyi
Creator:Zunv
Version:Extra
Source:
Tags:Lanota
BeatmapID:1283839
BeatmapSetID:607862

[Difficulty]
HPDrainRate:7
CircleSize:4
OverallDifficulty:8
ApproachRate:9.4
SliderMultiplier:2.39999994277954
SliderTickRate:1

[Events]
//Background and Video events
0,0,"paolo-giandoso-uf-clockwork-universe-pg-05-v001.jpg",0,0
//Break Periods
2,57915,67664
//Storyboard Layer 0 (Background)
//Storyboard Layer 1 (Fail)
//Storyboard Layer 2 (Pass)
//Storyboard Layer 3 (Foreground)
//Storyboard Sound Samples

[TimingPoints]
1672,329.67032967033,4,1,0,60,1,0
1672,-333.333333333333,4,2,0,60,0,0
18155,329.67032967033,4,1,0,60,1,0
18155,-166.666666666667,4,1,0,45,0,0
33649,-333.333333333333,4,2,0,60,0,0
33979,-111.111111111111,4,1,0,60,0,0
41561,-333.333333333333,4,2,0,60,0,0
41891,-50,4,1,0,60,0,0
42220,-111.111111111111,4,1,0,60,0,0
49473,-71.4285714285714,4,1,0,60,0,0
49803,-111.111111111111,4,1,0,60,0,0
68264,-166.666666666667,4,1,0,60,0,0
70572,-83.3333333333333,4,1,0,60,0,0
70902,-166.666666666667,4,1,0,60,0,0
73209,-83.3333333333334,4,1,0,60,0,0
73539,-166.666666666667,4,1,0,60,0,0
75517,-333.333333333333,4,1,0,60,0,0
76012,-166.666666666667,4,1,0,60,0,0
78814,-125,4,1,0,60,0,0
89693,-166.666666666667,4,1,0,60,0,0
92001,-333.333333333333,4,1,0,60,0,0
92660,-166.666666666667,4,1,0,60,0,0
94638,-333.333333333333,4,1,0,60,0,0
95133,-166.666666666667,4,1,0,60,0,0
99913,-125,4,1,0,60,0,0
110462,-333.333333333333,4,1,0,60,0,0
111946,-111.111111111111,4,1,0,60,0,0
112770,-66.6666666666667,4,1,0,60,0,0
113100,-83.3333333333333,4,1,0,60,0,1
118045,-125,4,1,0,60,0,1
118374,-83.3333333333333,4,1,0,60,0,1
121012,-166.666666666667,4,1,0,60,0,0
123649,-83.3333333333333,4,1,0,60,0,1
125957,-166.666666666667,4,1,0,60,0,1
126286,-83.3333333333333,4,1,0,60,0,1
128594,-111.111111111111,4,1,0,60,0,1
128924,-166.666666666667,4,1,0,60,0,1
129583,-83.3333333333333,4,1,0,60,0,1
131561,-166.666666666667,4,1,0,60,0,0
133045,-133.333333333333,4,1,0,60,0,0
133374,-111.111111111111,4,1,0,60,0,0
136836,-66.6666666666667,4,1,0,60,0,0
137165,-111.111111111111,4,1,0,60,0,0
144418,-333.333333333333,4,1,0,60,0,0
144748,-66.6666666666667,4,1,0,60,0,0
163209,-333.333333333333,4,1,0,60,0,0
164528,-66.6666666666667,4,1,0,60,0,0
181671,-100,4,1,0,60,0,0
186616,-200,4,1,0,60,0,0

[HitObjects]
296,156,1672,6,0,L|375:162,1,71.9999960861207,0|0,0:0|0:0,0:0:0:0:
427,102,2331,1,0,0:0:0:0:
367,161,2661,2,0,P|355:196|357:230,1,71.9999978027344,0|0,0:0|0:0,0:0:0:0:
441,209,3320,5,0,0:0:0:0:
367,161,3650,2,0,L|296:153,1,71.9999978027344,0|0,0:0|0:0,0:0:0:0:
333,233,4309,1,0,0:0:0:0:
295,152,4639,2,0,L|224:146,1,71.9999978027344
276,25,5298,2,0,L|258:68,1,35.9999989013672
174,64,5628,6,0,P|146:88|130:118,1,71.9999978027344
285,171,6617,5,0,0:0:0:0:
286,170,7606,6,0,L|292:241,1,71.9999978027344,0|0,0:0|0:0,0:0:0:0:
362,196,8265,1,0,0:0:0:0:
346,113,8595,1,0,0:0:0:0:
286,170,8924,2,0,P|251:182|217:180,1,71.9999978027344,0|0,0:0|0:0,0:0:0:0:
240,97,9584,5,0,0:0:0:0:
319,243,10243,5,0,0:0:0:0:
319,243,10573,2,0,L|311:172,1,71.9999978027344,0|0,0:0|0:0,0:0:0:0:
207,201,11232,2,0,L|240:215,1,35.9999989013672,0|0,0:0|0:0,0:0:0:0:
136,156,11562,6,0,P|124:191|126:225,1,71.9999978027344,0|0,0:0|0:0,0:0:0:0:
50,177,12221,1,0,0:0:0:0:
207,201,12551,2,0,L|278:193,1,71.9999978027344,0|0,0:0|0:0,0:0:0:0:
136,156,13210,1,0,0:0:0:0:
278,193,13540,6,0,P|290:228|288:262,1,71.9999978027344,0|0,0:0|0:0,0:0:0:0:
115,220,14529,1,0,0:0:0:0:
287,123,15518,6,0,P|275:158|277:192,1,71.9999978027344,0|0,0:0|0:0,0:0:0:0:
362,168,16177,1,0,0:0:0:0:
213,84,16507,1,0,0:0:0:0:
256,192,16589,12,0,17825,0:0:0:0:
70,235,18155,6,0,L|58:313,1,71.9999978027344
194,172,18484,2,0,L|182:250,1,71.9999978027344,8|0,0:0|0:0,0:0:0:0:
317,92,18814,2,0,L|239:80,1,71.9999978027344
370,241,19144,1,8,0:0:0:0:
194,172,19308,1,0,0:0:0:0:
358,262,19473,5,0,0:0:0:0:
182,193,19638,1,0,0:0:0:0:
182,193,19720,1,0,0:0:0:0:
182,193,19803,2,0,L|111:203,1,71.9999978027344,8|0,0:0|0:0,0:0:0:0:
246,352,20133,2,0,L|256:281,1,71.9999978027344
114,102,20462,2,0,L|186:112,1,71.9999978027344,8|0,0:0|0:0,0:0:0:0:
358,166,20792,5,0,0:0:0:0:
194,214,20957,1,0,0:0:0:0:
346,145,21122,1,8,0:0:0:0:
182,193,21286,1,0,0:0:0:0:
154,213,21368,1,0,0:0:0:0:
135,243,21451,2,0,L|123:314,1,71.9999978027344
299,261,21781,2,0,L|228:271,1,71.9999978027344,8|0,0:0|0:0,0:0:0:0:
7,175,22111,6,0,L|77:185,1,71.9999978027344
299,90,22440,2,0,L|228:100,1,71.9999978027344,8|0,0:0|0:0,0:0:0:0:
7,4,22770,1,0,0:0:0:0:
137,109,22935,1,0,0:0:0:0:
0,87,23100,2,0,L|71:76,1,71.9999978027344,8|0,0:0|0:0,0:0:0:0:
92,49,23347,1,0,0:0:0:0:
124,35,23429,1,0,0:0:0:0:
315,159,23594,5,0,0:0:0:0:
151,111,23759,1,8,0:0:0:0:
327,180,23924,1,0,0:0:0:0:
162,131,24089,2,0,L|151:201,1,71.9999978027344
252,300,24418,2,0,L|241:228,2,71.9999978027344,8|0|0,0:0|0:0|0:0,0:0:0:0:
236,64,24913,5,0,0:0:0:0:
346,141,25078,1,8,0:0:0:0:
155,231,25242,1,0,0:0:0:0:
155,231,25325,1,0,0:0:0:0:
155,231,25407,2,0,L|143:160,1,71.9999978027344
352,45,25737,1,8,0:0:0:0:
39,98,25902,1,8,0:0:0:0:
465,45,26067,5,6,0:0:0:0:
465,45,26396,2,0,P|455:95|426:127,1,71.9999978027344,8|0,0:0|0:0,0:0:0:0:
350,103,26726,2,0,P|360:155|390:188,1,71.9999978027344
455,209,27056,2,0,P|420:249|377:262,1,71.9999978027344,8|0,0:0|0:0,0:0:0:0:
263,62,27385,5,0,0:0:0:0:
446,110,27550,1,0,0:0:0:0:
116,142,27715,2,0,P|85:160|65:189,1,71.9999978027344,8|0,0:0|0:0,0:0:0:0:
300,150,28045,2,0,P|329:130|349:101,1,71.9999978027344,0|0,0:0|0:0,0:0:0:0:
152,227,28374,2,0,P|170:256|200:277,1,71.9999978027344,8|0,0:0|0:0,0:0:0:0:
179,85,28704,5,0,0:0:0:0:
314,270,28869,1,0,0:0:0:0:
167,64,29034,1,8,0:0:0:0:
326,291,29198,1,0,0:0:0:0:
356,309,29281,1,0,0:0:0:0:
389,316,29363,2,0,P|424:307|453:287,1,71.9999978027344,0|0,0:0|0:0,0:0:0:0:
152,227,29693,2,0,P|116:218|87:199,1,71.9999978027344,8|0,0:0|0:0,0:0:0:0:
389,138,30023,6,0,L|431:128,2,35.9999989013672,0|0|0,0:0|0:0|0:0,0:0:0:0:
218,292,30352,2,0,L|208:334,2,35.9999989013672,8|0|0,0:0|0:0|0:0,0:0:0:0:
274,74,30682,2,0,L|264:32,2,35.9999989013672,0|0|0,0:0|0:0|0:0,0:0:0:0:
347,290,31012,2,0,L|357:332,2,35.9999989013672,8|0|0,0:0|0:0|0:0,0:0:0:0:
171,82,31341,2,0,L|129:72,2,35.9999989013672,0|0|0,0:0|0:0|0:0,0:0:0:0:
389,138,31671,2,0,L|431:128,2,35.9999989013672,8|0|0,0:0|0:0|0:0,0:0:0:0:
173,211,32001,2,0,L|131:221,2,35.9999989013672,0|0|0,0:0|0:0|0:0,0:0:0:0:
279,250,32330,5,8,0:0:0:0:
279,250,32413,1,0,0:0:0:0:
279,250,32495,1,0,0:0:0:0:
238,122,32660,1,0,0:0:0:0:
238,122,32743,1,0,0:0:0:0:
238,122,32825,1,0,0:0:0:0:
138,219,32990,1,8,0:0:0:0:
396,159,33155,5,8,0:0:0:0:
189,295,33319,1,0,0:0:0:0:
156,308,33401,1,0,0:0:0:0:
122,308,33483,1,0,0:0:0:0:
89,295,33566,1,0,0:0:0:0:
65,270,33649,2,0,P|51:237|52:207,1,53.9999970645905
232,181,33979,6,0,P|190:214|137:218,1,107.999996704102,6|0,0:0|0:0,0:0:0:0:
400,106,34308,2,0,L|391:201,1,53.9999983520508,0|0,0:0|0:0,0:0:0:0:
336,216,34473,1,0,0:0:0:0:
429,19,34638,2,0,L|333:27,1,53.9999983520508,0|0,0:0|0:0,0:0:0:0:
318,84,34803,1,0,0:0:0:0:
444,226,34968,1,0,0:0:0:0:
444,226,35297,6,0,L|332:216,1,107.999996704102,0|0,0:0|0:0,0:0:0:0:
65,270,35627,2,0,P|127:311|177:307,1,107.999996704102,0|0,0:0|0:0,0:0:0:0:
318,84,35957,2,0,L|211:93,1,107.999996704102,0|0,0:0|0:0,0:0:0:0:
336,216,36286,5,0,0:0:0:0:
444,226,36451,1,0,0:0:0:0:
210,93,36616,1,0,0:0:0:0:
103,102,36781,1,0,0:0:0:0:
339,216,36946,1,0,0:0:0:0:
281,303,37275,6,0,P|240:241|244:191,1,107.999996704102,0|0,0:0|0:0,0:0:0:0:
383,310,37605,1,0,0:0:0:0:
239,209,37770,1,0,0:0:0:0:
449,225,37935,6,0,P|490:287|486:337,1,107.999996704102,0|0,0:0|0:0,0:0:0:0:
239,209,38264,2,0,L|131:199,1,107.999996704102,0|0,0:0|0:0,0:0:0:0:
341,217,38594,2,0,P|349:269|384:310,1,107.999996704102,0|0,0:0|0:0,0:0:0:0:
412,143,38924,1,0,0:0:0:0:
239,209,39089,1,0,0:0:0:0:
491,319,39253,6,0,L|383:309,1,107.999996704102,0|0,0:0|0:0,0:0:0:0:
249,102,39583,2,0,L|239:209,1,107.999996704102,0|0,0:0|0:0,0:0:0:0:
344,91,39913,1,0,0:0:0:0:
305,268,40078,1,0,0:0:0:0:
249,102,40242,2,0,P|257:49|291:9,1,107.999996704102,0|0,0:0|0:0,0:0:0:0:
384,308,40572,2,0,P|345:345|294:356,1,107.999996704102
340,163,40902,2,0,L|349:258,1,53.9999983520508
136,29,41231,2,0,L|145:124,1,53.9999983520508
483,158,41561,6,0,L|429:162,1,53.9999970645905
340,163,41891,6,0,P|301:197|346:217,1,119.999997138977
88,76,42220,6,0,L|183:85,1,53.9999983520508,0|0,0:0|0:0,0:0:0:0:
198,137,42385,1,0,0:0:0:0:
244,0,42550,2,0,L|239:60,1,53.9999983520508,0|0,0:0|0:0,0:0:0:0:
285,119,42715,1,0,0:0:0:0:
215,351,42880,1,0,0:0:0:0:
215,351,43209,6,0,L|322:360,1,107.999996704102,0|0,0:0|0:0,0:0:0:0:
239,53,43539,2,0,P|204:93|197:146,1,107.999996704102,0|0,0:0|0:0,0:0:0:0:
365,239,43869,6,0,L|473:228,1,107.999996704102,0|0,0:0|0:0,0:0:0:0:
258,226,44198,2,0,L|260:252,2,26.9999991760254,0|0|0,0:0|0:0|0:0,0:0:0:0:
111,41,44528,1,0,0:0:0:0:
310,152,44693,1,0,0:0:0:0:
350,186,44775,1,0,0:0:0:0:
364,238,44857,1,0,0:0:0:0:
256,159,45187,6,0,L|309:151,1,53.9999970645905,0|0,0:0|0:0,0:0:0:0:
229,85,45352,2,0,L|175:92,1,53.9999970645905,0|0,0:0|0:0,0:0:0:0:
310,245,45517,2,0,L|363:237,1,53.9999970645905,0|0,0:0|0:0,0:0:0:0:
414,222,45682,1,0,0:0:0:0:
451,183,45764,1,0,0:0:0:0:
463,131,45847,1,0,0:0:0:0:
428,306,46012,1,0,0:0:0:0:
309,151,46176,6,0,P|257:165|223:206,1,107.999996704102,0|0,0:0|0:0,0:0:0:0:
413,52,46506,2,0,L|305:41,1,107.999996704102,0|0,0:0|0:0,0:0:0:0:
119,213,46836,6,0,P|133:264|174:298,1,107.999996704102,0|0,0:0|0:0,0:0:0:0:
20,109,47166,2,0,L|9:217,1,107.999996704102,0|0,0:0|0:0,0:0:0:0:
119,213,47495,2,0,L|124:161,6,26.9999985322953,0|0|0|0|0|0|0,0:0|0:0|0:0|0:0|0:0|0:0|0:0,0:0:0:0:
128,71,47825,1,0,0:0:0:0:
43,353,48155,6,0,L|138:344,1,53.9999983520508,0|0,0:0|0:0,0:0:0:0:
153,292,48320,1,0,0:0:0:0:
297,314,48484,6,0,L|202:323,1,53.9999983520508,0|0,0:0|0:0,0:0:0:0:
187,375,48649,1,0,0:0:0:0:
369,266,48814,1,0,0:0:0:0:
275,99,49144,6,0,L|284:194,1,53.9999983520508,0|0,0:0|0:0,0:0:0:0:
503,173,49308,6,0,L|494:78,1,53.9999983520508,0|0,0:0|0:0,0:0:0:0:
369,266,49473,6,0,P|411:319|403:254,1,167.999990867615
280,152,49803,6,0,L|208:145,2,71.9999960861207
426,125,50133,2,0,L|497:118,2,71.9999960861207,0|0|0,0:0|0:0|0:0,0:0:0:0:
397,221,50462,2,0,L|403:292,2,71.9999960861207,0|0|0,0:0|0:0|0:0,0:0:0:0:
363,72,50792,2,0,L|369:1,2,71.9999960861207,0|0|0,0:0|0:0|0:0,0:0:0:0:
351,143,51122,5,0,0:0:0:0:
328,210,51231,1,0,0:0:0:0:
278,262,51341,1,0,0:0:0:0:
212,287,51451,5,0,0:0:0:0:
189,221,51561,1,0,0:0:0:0:
139,169,51671,1,0,0:0:0:0:
74,144,51781,5,0,0:0:0:0:
61,212,51891,1,0,0:0:0:0:
79,282,52001,1,0,0:0:0:0:
123,336,52111,5,0,0:0:0:0:
177,292,52221,1,0,0:0:0:0:
247,274,52331,1,0,0:0:0:0:
315,287,52440,6,0,L|322:359,2,71.9999960861207,0|0|0,0:0|0:0|0:0,0:0:0:0:
128,100,52770,2,0,L|121:28,2,71.9999960861207,0|0|0,0:0|0:0|0:0,0:0:0:0:
309,207,53100,2,0,L|381:214,2,71.9999960861207,0|0|0,0:0|0:0|0:0,0:0:0:0:
104,167,53429,2,0,L|32:160,2,71.9999960861207,0|0|0,0:0|0:0|0:0,0:0:0:0:
175,176,53759,5,0,0:0:0:0:
244,192,53868,1,0,0:0:0:0:
306,229,53978,1,0,0:0:0:0:
360,283,54089,5,0,0:0:0:0:
292,307,54200,1,0,0:0:0:0:
219,307,54310,1,0,0:0:0:0:
150,286,54419,5,0,0:0:0:0:
174,218,54529,1,0,0:0:0:0:
174,145,54638,1,0,0:0:0:0:
153,76,54748,5,0,0:0:0:0:
224,88,54859,1,0,0:0:0:0:
287,125,54969,1,0,0:0:0:0:
337,179,55078,6,0,L|344:251,2,71.9999960861207,0|0|0,0:0|0:0|0:0,0:0:0:0:
153,76,55407,2,0,L|146:4,2,71.9999960861207,0|0|0,0:0|0:0|0:0,0:0:0:0:
116,274,55737,2,0,L|44:267,1,71.9999960861207,0|0,0:0|0:0,0:0:0:0:
175,176,55957,5,0,0:0:0:0:
175,176,56067,2,0,L|247:183,1,71.9999960861207,0|0,0:0|0:0,0:0:0:0:
411,288,56286,5,0,0:0:0:0:
411,288,56396,2,0,L|339:281,1,71.9999960861207,0|0,0:0|0:0,0:0:0:0:
175,372,56616,5,0,0:0:0:0:
175,372,56726,1,0,0:0:0:0:
256,192,56836,12,0,57715,0:0:0:0:
211,31,68264,6,0,P|152:93|172:180,1,179.999990215302
201,267,68759,6,0,P|259:203|241:119,1,179.999990215302
172,179,69253,2,0,B|136:209|70:219|10:208|-9:173|-12:124|12:87|49:78|83:82|108:95|115:123|108:157|96:177|76:187|76:187|53:209|43:239|47:262|65:281|91:277|160:267,1,539.999970645905
252,202,70572,2,0,P|200:251|131:270,1,143.999992172241
251,202,70902,6,0,P|314:143|399:162,1,179.999990215302
339,237,71396,6,0,P|275:295|190:276,1,179.999990215302
396,162,71891,2,0,B|428:185|443:213|451:250|444:303|424:340|375:372|301:362|275:341|248:313|228:281|214:233|225:186|263:157|308:165|326:173|356:205|354:239|328:263,1,539.999970645905
181,282,73209,6,0,P|178:207|210:147,1,143.999992172241
181,282,73539,6,0,P|86:290|38:198,1,179.999990215302
232,197,74034,6,0,P|286:275|230:362,1,179.999990215302
133,196,74528,6,0,B|121:137|169:69|239:82|280:70|287:115|270:148|240:168|195:157|169:118|171:68|202:3|274:36,1,395.999978473664
313,67,75517,6,0,P|288:41|255:30,1,71.9999960861207
201,221,76012,6,0,L|191:235,2,17.9999990215302
194,325,76176,6,0,P|275:280|282:180,1,179.999990215302
201,221,76671,2,0,P|174:139|223:67,1,179.999990215302
289,199,77165,6,0,B|282:266|282:266|233:324,1,143.999992172241
201,221,77825,2,0,B|208:154|208:154|257:96,1,143.999992172241
376,160,78484,1,0,0:0:0:0:
376,160,78814,6,0,L|285:200,2,95.9999977111816,0|0|0,0:0|0:0|0:0,0:0:0:0:
257,95,79308,2,0,L|166:135,1,95.9999977111816
376,160,79638,1,0,0:0:0:0:
368,37,79803,1,0,0:0:0:0:
104,61,79968,2,0,P|72:118|89:184,1,95.9999977111816
169,133,80297,2,0,L|257:95,1,95.9999977111816
266,238,80627,1,0,0:0:0:0:
266,238,80957,1,0,0:0:0:0:
455,143,81122,2,0,L|364:183,1,95.9999977111816,0|0,0:0|0:0,0:0:0:0:
168,224,81451,5,0,0:0:0:0:
308,344,81781,1,0,0:0:0:0:
241,160,81946,6,0,P|183:128|117:145,1,95.9999977111816
322,102,82275,1,0,0:0:0:0:
377,288,82440,1,0,0:0:0:0:
377,288,82605,2,0,L|337:197,1,95.9999977111816,0|0,0:0|0:0,0:0:0:0:
168,224,82935,1,0,0:0:0:0:
328,84,83100,1,0,0:0:0:0:
238,286,83264,1,0,0:0:0:0:
241,160,83594,5,0,0:0:0:0:
238,286,83759,1,0,0:0:0:0:
328,84,83924,1,0,0:0:0:0:
80,185,84089,6,0,L|167:223,1,95.9999977111816,0|0,0:0|0:0,0:0:0:0:
338,200,84418,1,0,0:0:0:0:
152,128,84583,2,0,P|108:146|79:184,1,95.9999977111816,0|0,0:0|0:0,0:0:0:0:
328,84,84913,1,0,0:0:0:0:
250,146,85078,1,0,0:0:0:0:
387,6,85242,6,0,P|417:42|426:89,1,95.9999977111816,0|0,0:0|0:0,0:0:0:0:
235,49,85572,1,0,0:0:0:0:
435,193,85737,1,0,0:0:0:0:
338,200,85902,2,0,P|351:245|385:278,1,95.9999977111816,0|0,0:0|0:0,0:0:0:0:
260,325,86231,1,0,0:0:0:0:
388,114,86396,1,0,0:0:0:0:
337,199,86561,2,0,L|307:245,1,47.9999988555908,0|0,0:0|0:0,0:0:0:0:
435,193,86726,6,0,P|422:147|388:113,1,95.9999977111816,0|0,0:0|0:0,0:0:0:0:
385,278,87056,1,0,0:0:0:0:
292,110,87220,2,0,P|304:64|338:30,1,95.9999977111816,0|0,0:0|0:0,0:0:0:0:
438,26,87550,1,0,0:0:0:0:
292,110,87715,2,0,L|201:150,1,95.9999977111816,0|0,0:0|0:0,0:0:0:0:
470,119,88045,5,0,0:0:0:0:
338,30,88209,2,0,P|292:18|246:29,2,95.9999977111816,0|0|0,0:0|0:0|0:0,0:0:0:0:
292,110,88704,6,0,P|258:143|212:156,1,95.9999977111816,0|0,0:0|0:0,0:0:0:0:
154,148,88951,1,0,0:0:0:0:
96,150,89033,1,0,0:0:0:0:
55,190,89115,1,0,0:0:0:0:
49,247,89198,1,0,0:0:0:0:
82,293,89280,1,0,0:0:0:0:
99,348,89363,1,0,0:0:0:0:
126,225,89693,6,0,L|228:240,2,71.9999960861207,0|0|0,0:0|0:0|0:0,0:0:0:0:
172,148,90187,1,0,0:0:0:0:
197,235,90352,1,0,0:0:0:0:
252,53,90682,5,0,0:0:0:0:
266,51,91012,1,0,0:0:0:0:
279,53,91341,1,0,0:0:0:0:
197,235,91671,5,0,0:0:0:0:
311,136,92001,6,0,P|276:143|242:134,1,71.9999960861207
279,53,92495,1,0,0:0:0:0:
139,156,92660,2,0,P|122:110|135:61,1,71.9999960861207
197,235,92990,1,0,0:0:0:0:
290,59,93319,5,0,0:0:0:0:
298,68,93649,1,0,0:0:0:0:
302,79,93979,6,0,L|311:157,1,71.9999960861207,0|0,0:0|0:0,0:0:0:0:
220,56,94308,1,0,0:0:0:0:
384,102,94473,1,0,0:0:0:0:
211,140,94638,6,0,P|177:130|150:107,1,71.9999960861207
227,227,95133,6,0,P|260:213|284:188,1,71.9999960861207
212,141,95462,1,0,0:0:0:0:
247,317,95627,1,0,0:0:0:0:
301,90,95957,5,0,0:0:0:0:
300,101,96286,1,0,0:0:0:0:
295,110,96616,1,0,0:0:0:0:
287,116,96946,1,0,0:0:0:0:
277,118,97275,1,0,0:0:0:0:
266,116,97605,6,0,L|194:107,1,71.9999960861207,0|0,0:0|0:0,0:0:0:0:
126,35,97935,1,0,0:0:0:0:
230,202,98100,1,0,0:0:0:0:
99,131,98264,1,0,0:0:0:0:
266,116,98594,6,0,L|337:124,1,71.9999960861207,0|0,0:0|0:0,0:0:0:0:
230,202,98924,2,0,L|158:193,1,71.9999960861207,0|0,0:0|0:0,0:0:0:0:
344,136,99253,1,0,0:0:0:0:
153,183,99418,1,0,0:0:0:0:
347,150,99583,1,0,0:0:0:0:
151,170,99748,1,0,0:0:0:0:
345,164,99913,6,0,P|405:155|435:126,1,95.9999977111816,0|0,0:0|0:0,0:0:0:0:
151,170,100242,2,0,P|159:230|188:260,1,95.9999977111816,0|0,0:0|0:0,0:0:0:0:
216,74,100572,1,0,0:0:0:0:
272,332,100737,1,0,0:0:0:0:
131,84,100902,2,0,P|79:116|64:155,1,95.9999977111816,0|0,0:0|0:0,0:0:0:0:
270,247,101231,6,0,P|322:215|337:176,1,95.9999977111816,0|0,0:0|0:0,0:0:0:0:
272,332,101561,2,0,P|214:311|191:276,1,95.9999977111816,0|0,0:0|0:0,0:0:0:0:
185,237,101808,1,0,0:0:0:0:
174,189,101891,2,0,P|142:153|96:141,1,95.9999977111816,0|0,0:0|0:0,0:0:0:0:
270,247,102220,1,0,0:0:0:0:
130,9,102385,1,0,0:0:0:0:
335,184,102550,6,0,P|359:224|356:271,1,95.9999977111816,0|0,0:0|0:0,0:0:0:0:
253,164,102880,1,0,0:0:0:0:
438,292,103045,1,0,0:0:0:0:
414,334,103127,1,0,0:0:0:0:
371,356,103210,1,0,0:0:0:0:
464,164,103374,1,0,0:0:0:0:
242,331,103539,2,0,P|193:293|182:252,1,95.9999977111816,0|0,0:0|0:0,0:0:0:0:
198,216,103786,1,0,0:0:0:0:
204,168,103869,6,0,P|184:124|144:99,1,95.9999977111816,0|0,0:0|0:0,0:0:0:0:
270,247,104198,2,0,P|313:227|338:187,1,95.9999977111816,0|0,0:0|0:0,0:0:0:0:
120,181,104528,2,0,P|112:227|132:270,1,95.9999977111816,0|0,0:0|0:0,0:0:0:0:
144,99,104858,1,0,0:0:0:0:
216,349,105023,1,0,0:0:0:0:
249,64,105187,5,0,0:0:0:0:
249,64,105352,1,0,0:0:0:0:
198,216,105517,1,0,0:0:0:0:
198,216,105682,1,0,0:0:0:0:
144,99,105847,1,0,0:0:0:0:
144,99,106012,1,0,0:0:0:0:
296,150,106177,1,0,0:0:0:0:
296,150,106342,1,0,0:0:0:0:
144,201,106506,5,0,0:0:0:0:
144,201,106671,1,0,0:0:0:0:
296,252,106836,1,0,0:0:0:0:
296,252,107001,1,0,0:0:0:0:
245,100,107165,1,0,0:0:0:0:
245,100,107330,1,0,0:0:0:0:
194,252,107495,1,0,0:0:0:0:
194,252,107660,1,0,0:0:0:0:
395,253,107825,5,0,0:0:0:0:
383,299,107907,1,0,0:0:0:0:
353,335,107989,1,0,0:0:0:0:
309,353,108072,1,0,0:0:0:0:
262,350,108155,1,0,0:0:0:0:
265,302,108237,1,0,0:0:0:0:
247,258,108320,1,0,0:0:0:0:
211,228,108402,1,0,0:0:0:0:
164,217,108484,2,0,L|128:218,4,23.9999994277954,0|0|0|0|0,0:0|0:0|0:0|0:0|0:0,0:0:0:0:
168,318,108731,5,0,0:0:0:0:
120,319,108813,1,0,0:0:0:0:
77,300,108895,1,0,0:0:0:0:
46,263,108978,1,0,0:0:0:0:
36,217,109060,1,0,0:0:0:0:
47,171,109144,2,0,L|60:132,10,23.9999994277954,0|0|0|0|0|0|0|0|0|0|0,0:0|0:0|0:0|0:0|0:0|0:0|0:0|0:0|0:0|0:0|0:0,0:0:0:0:
157,108,109638,6,0,L|164:130,10,23.9999994277954,0|0|0|0|0|0|0|0|0|0|0,0:0|0:0|0:0|0:0|0:0|0:0|0:0|0:0|0:0|0:0|0:0,0:0:0:0:
140,217,110133,6,0,L|132:238,12,11.9999997138977,0|0|0|0|0|0|0|0|0|0|0|0|0,0:0|0:0|0:0|0:0|0:0|0:0|0:0|0:0|0:0|0:0|0:0|0:0|0:0,0:0:0:0:
208,148,110462,6,0,B|228:177|267:149|267:149|205:69|145:45|104:91|109:131|141:148|175:126|156:107,1,305.999983366013,0|0,0:0|0:0,0:0:0:0:
146,200,111946,6,0,B|66:187|39:130|39:80|66:33|102:9|149:-7|193:-6|226:31|234:93|149:109,1,431.999976516724,0|0,0:0|0:0,0:0:0:0:
240,138,112770,6,0,L|153:106,1,90.0000012874603,0|0,0:0|0:0,0:0:0:0:
297,183,113100,6,0,P|345:192|293:170,1,143.999992172241,0|0,0:0|0:0,0:0:0:0:
276,254,113429,2,0,P|228:205|241:137,1,143.999992172241,0|0,0:0|0:0,0:0:0:0:
360,130,113759,2,0,L|432:124,2,71.9999960861207,0|0|0,0:0|0:0|0:0,0:0:0:0:
75,108,114089,2,0,L|146:114,1,71.9999960861207,0|0,0:0|0:0,0:0:0:0:
68,33,114253,6,0,P|22:52|3:93,1,71.9999960861207,0|0,0:0|0:0,0:0:0:0:
0,126,114418,1,0,0:0:0:0:
32,173,114501,1,0,0:0:0:0:
87,186,114583,1,0,0:0:0:0:
136,157,114665,1,0,0:0:0:0:
146,99,114748,2,0,P|126:61|77:120,1,143.999992172241,0|0,0:0|0:0,0:0:0:0:
217,92,115078,6,0,L|121:100,1,71.9999960861207,0|0,0:0|0:0,0:0:0:0:
0,106,115242,2,0,L|95:114,1,71.9999960861207,0|0,0:0|0:0,0:0:0:0:
243,165,115407,2,0,P|296:102|272:40,1,143.999992172241,0|0,0:0|0:0,0:0:0:0:
85,193,115737,6,0,L|180:201,1,71.9999960861207,0|0,0:0|0:0,0:0:0:0:
200,236,115902,1,0,0:0:0:0:
256,247,115984,1,0,0:0:0:0:
306,218,116067,1,0,0:0:0:0:
361,205,116149,1,0,0:0:0:0:
414,226,116231,1,0,0:0:0:0:
444,275,116314,1,0,0:0:0:0:
354,297,116396,6,0,P|328:322|318:356,2,71.9999960861207
476,357,116726,6,0,L|404:362,1,71.9999960861207
109,329,116891,2,0,L|204:337,1,71.9999960861207,0|0,0:0|0:0,0:0:0:0:
238,327,117056,1,0,0:0:0:0:
274,283,117138,1,0,0:0:0:0:
272,225,117220,2,0,P|250:188|211:171,1,71.9999960861207,0|0,0:0|0:0,0:0:0:0:
138,226,117385,5,0,0:0:0:0:
123,169,117468,1,0,0:0:0:0:
143,115,117550,2,0,P|175:86|210:75,1,71.9999960861207,0|0,0:0|0:0,0:0:0:0:
225,174,117715,5,0,0:0:0:0:
228,231,117797,1,0,0:0:0:0:
272,267,117880,1,0,0:0:0:0:
329,265,117963,1,0,0:0:0:0:
364,219,118045,6,0,P|344:160|298:210,1,143.999996566772
437,239,118374,6,0,P|396:320|337:342,1,143.999992172241,0|0,0:0|0:0,0:0:0:0:
291,338,118622,1,0,0:0:0:0:
243,307,118704,1,0,0:0:0:0:
219,253,118786,1,0,0:0:0:0:
224,192,118869,1,0,0:0:0:0:
263,147,118951,1,0,0:0:0:0:
315,238,119034,6,0,P|368:162|353:94,1,143.999992172241,0|0,0:0|0:0,0:0:0:0:
220,91,119363,2,0,P|243:131|279:155,1,71.9999960861207,0|0,0:0|0:0,0:0:0:0:
300,68,119528,2,0,P|247:11|175:19,1,143.999992172241,0|0,0:0|0:0,0:0:0:0:
144,54,119775,1,0,0:0:0:0:
137,111,119858,2,0,P|158:150|198:173,1,71.9999960861207,0|0,0:0|0:0,0:0:0:0:
220,91,120023,5,0,0:0:0:0:
172,59,120105,1,0,0:0:0:0:
114,65,120188,1,0,0:0:0:0:
72,105,120271,1,0,0:0:0:0:
59,160,120352,2,0,P|77:202|110:229,1,71.9999960861207,0|0,0:0|0:0,0:0:0:0:
262,146,120517,2,0,P|239:106|203:81,1,71.9999960861207,0|0,0:0|0:0,0:0:0:0:
179,166,120682,5,0,0:0:0:0:
209,214,120764,1,0,0:0:0:0:
263,232,120847,1,0,0:0:0:0:
317,212,120929,1,0,0:0:0:0:
346,162,121012,6,0,L|394:115,4,35.9999980430603
262,146,121424,6,0,L|214:99,4,35.9999980430603
434,237,122001,6,0,L|465:209,4,35.9999980430603
358,330,122495,2,0,L|319:373,4,35.9999980430603,0|0|0|0|0,0:0|0:0|0:0|0:0|0:0,0:0:0:0:
496,287,122990,6,0,L|470:315,1,35.9999980430603,0|0,0:0|0:0,0:0:0:0:
470,206,123155,2,0,L|481:192,2,17.9999990215302,0|0|0,0:0|0:0|0:0,0:0:0:0:
414,271,123319,6,0,P|384:217|405:153,1,107.999994129181
333,356,123649,6,0,P|260:384|202:348,1,143.999992172241,0|0,0:0|0:0,0:0:0:0:
163,315,123896,1,0,0:0:0:0:
137,262,123979,2,0,B|196:226|229:305|292:272,1,143.999992172241,0|0,0:0|0:0,0:0:0:0:
137,262,124308,6,0,P|92:269|138:237,1,143.999992172241,0|0,0:0|0:0,0:0:0:0:
185,256,124556,1,0,0:0:0:0:
238,277,124638,2,0,L|317:283,1,71.9999960861207,0|0,0:0|0:0,0:0:0:0:
197,161,124803,6,0,P|152:152|206:137,1,143.999992172241,0|0,0:0|0:0,0:0:0:0:
239,174,125050,1,0,0:0:0:0:
296,180,125133,1,0,0:0:0:0:
345,150,125215,1,0,0:0:0:0:
277,104,125297,6,0,P|303:79|346:68,1,71.9999960861207,0|0,0:0|0:0,0:0:0:0:
393,81,125462,1,0,0:0:0:0:
428,127,125545,1,0,0:0:0:0:
380,209,125627,6,0,P|355:184|345:150,1,71.9999960861207,0|0,0:0|0:0,0:0:0:0:
477,58,125792,2,0,P|502:83|512:117,1,71.9999960861207,0|0,0:0|0:0,0:0:0:0:
428,127,125957,6,0,P|397:81|398:25,1,107.999994129181
380,209,126286,6,0,L|300:215,1,71.9999960861207,0|0,0:0|0:0,0:0:0:0:
253,235,126451,1,0,0:0:0:0:
227,287,126534,1,0,0:0:0:0:
202,338,126616,1,0,0:0:0:0:
148,359,126698,1,0,0:0:0:0:
93,339,126781,2,0,P|69:301|85:244,1,71.9999960861207
142,208,126946,2,0,L|148:287,1,71.9999960861207,0|0,0:0|0:0,0:0:0:0:
300,362,127193,6,0,L|306:290,1,71.9999960861207,0|0,0:0|0:0,0:0:0:0:
217,64,127440,2,0,L|223:135,1,71.9999960861207,0|0,0:0|0:0,0:0:0:0:
407,51,127687,2,0,L|335:57,1,71.9999960861207,0|0,0:0|0:0,0:0:0:0:
38,109,127935,2,0,L|109:115,1,71.9999960861207,0|0,0:0|0:0,0:0:0:0:
366,201,128182,5,0,0:0:0:0:
366,201,128264,2,0,B|300:165|300:165|369:172,1,143.999992172241,0|0,0:0|0:0,0:0:0:0:
0,279,128594,6,0,B|78:285|78:285|174:277,1,161.999991193772,0|0,0:0|0:0,0:0:0:0:
366,201,128924,6,0,B|432:237|432:237|363:230,1,143.999992172241,0|0,0:0|0:0,0:0:0:0:
109,115,129418,2,0,L|156:119,1,35.9999980430603,0|0,0:0|0:0,0:0:0:0:
102,34,129583,6,0,P|66:46|34:87,1,71.9999960861207
29,126,129748,1,0,0:0:0:0:
55,176,129830,1,0,0:0:0:0:
109,196,129913,1,0,0:0:0:0:
150,236,129995,1,0,0:0:0:0:
166,291,130078,2,0,L|159:370,1,71.9999960861207
261,105,130242,6,0,L|254:33,1,71.9999960861207,0|0,0:0|0:0,0:0:0:0:
109,115,130407,1,0,0:0:0:0:
109,115,130490,2,0,P|137:123|192:112,1,71.9999960861207,0|0,0:0|0:0,0:0:0:0:
511,296,130737,5,0,0:0:0:0:
458,274,130819,1,0,0:0:0:0:
401,288,130902,2,0,P|365:293|330:285,1,71.9999960861207,0|0,0:0|0:0,0:0:0:0:
95,288,131067,6,0,P|130:296|166:290,1,71.9999960861207
212,257,131231,1,0,0:0:0:0:
245,209,131314,1,0,0:0:0:0:
295,182,131396,2,0,P|330:176|364:185,1,71.9999960861207
134,197,131561,6,0,P|98:193|59:171,2,71.9999960861207
330,285,132056,6,0,P|365:292|409:283,1,71.9999960861207,0|0,0:0|0:0,0:0:0:0:
128,106,132385,1,0,0:0:0:0:
152,292,132550,1,0,0:0:0:0:
206,136,132715,2,0,P|207:66|170:24,1,107.999994129181
137,186,133045,2,0,P|195:220|261:201,1,135.00000193119
128,106,133374,6,0,P|69:139|56:197,1,107.999994129181
60,217,133622,1,0,0:0:0:0:
85,251,133704,1,0,0:0:0:0:
124,268,133786,1,0,0:0:0:0:
167,265,133869,1,0,0:0:0:0:
203,242,133951,1,0,0:0:0:0:
244,230,134034,1,0,0:0:0:0:
286,238,134116,1,0,0:0:0:0:
318,267,134198,1,0,0:0:0:0:
246,315,134363,5,0,0:0:0:0:
358,335,134528,2,0,P|406:312|428:265,1,107.999994129181
120,204,134858,2,0,P|89:206|65:198,2,53.9999970645905,0|0|0,0:0|0:0|0:0,0:0:0:0:
335,161,135187,2,0,P|366:163|390:155,1,53.9999970645905,0|0,0:0|0:0,0:0:0:0:
208,59,135352,2,0,P|177:57|153:65,1,53.9999970645905,0|0,0:0|0:0,0:0:0:0:
209,141,135517,6,0,P|258:122|287:77,1,107.999994129181,0|0,0:0|0:0,0:0:0:0:
335,161,135847,2,0,P|337:192|329:216,2,53.9999970645905,0|0|0,0:0|0:0|0:0,0:0:0:0:
243,221,136176,2,0,P|262:271|307:300,1,107.999994129181,0|0,0:0|0:0,0:0:0:0:
441,65,136506,2,0,P|410:63|386:71,1,53.9999970645905,0|0,0:0|0:0,0:0:0:0:
335,161,136671,2,0,P|366:163|390:155,1,53.9999970645905,0|0,0:0|0:0,0:0:0:0:
308,84,136836,6,0,P|231:76|272:152,1,180.000002574921
335,161,137165,2,0,P|315:210|269:238,1,107.999994129181,0|0,0:0|0:0,0:0:0:0:
143,265,137495,2,0,P|112:267|88:259,2,53.9999970645905,0|0|0,0:0|0:0|0:0,0:0:0:0:
397,237,137825,2,0,P|428:239|452:231,1,53.9999970645905,0|0,0:0|0:0,0:0:0:0:
250,149,137990,2,0,P|219:147|195:155,1,53.9999970645905
335,161,138154,6,0,P|325:109|287:72,1,107.999994129181,0|0,0:0|0:0,0:0:0:0:
284,230,138484,2,0,P|280:256|287:282,2,53.9999970645905,0|0|0,0:0|0:0|0:0,0:0:0:0:
377,314,138813,2,0,P|347:358|298:377,1,107.999994129181,0|0,0:0|0:0,0:0:0:0:
284,230,139143,2,0,P|282:199|290:175,1,53.9999970645905,0|0,0:0|0:0,0:0:0:0:
388,80,139308,2,0,P|390:111|382:135,1,53.9999970645905,0|0,0:0|0:0,0:0:0:0:
192,85,139473,6,0,L|299:98,1,107.999994129181,0|0,0:0|0:0,0:0:0:0:
212,169,139803,2,0,P|185:171|159:164,2,53.9999970645905,0|0|0,0:0|0:0|0:0,0:0:0:0:
383,132,140133,1,0,0:0:0:0:
232,252,140297,2,0,P|201:254|177:246,2,53.9999970645905,0|0|0,0:0|0:0|0:0,0:0:0:0:
284,230,140545,1,0,0:0:0:0:
335,214,140627,2,0,P|361:211|387:218,1,53.9999970645905,0|0,0:0|0:0,0:0:0:0:
369,24,140792,6,0,L|382:131,1,107.999994129181,0|0,0:0|0:0,0:0:0:0:
456,344,141122,1,0,0:0:0:0:
471,293,141204,1,0,0:0:0:0:
472,239,141286,2,0,P|474:212|467:186,2,53.9999970645905,0|0|0,0:0|0:0|0:0,0:0:0:0:
374,316,141616,1,0,0:0:0:0:
322,330,141698,1,0,0:0:0:0:
274,303,141781,1,0,0:0:0:0:
246,257,141863,1,0,0:0:0:0:
201,225,141946,1,0,0:0:0:0:
147,231,142028,1,0,0:0:0:0:
181,326,142111,6,0,L|185:279,14,26.9999985322953,0|0|0|0|0|0|0|0|0|0|0|0|0|0|0,0:0|0:0|0:0|0:0|0:0|0:0|0:0|0:0|0:0|0:0|0:0|0:0|0:0|0:0|0:0,0:0:0:0:
147,231,142770,6,0,L|142:184,14,26.9999985322953,0|0|0|0|0|0|0|0|0|0|0|0|0|0|0,0:0|0:0|0:0|0:0|0:0|0:0|0:0|0:0|0:0|0:0|0:0|0:0|0:0|0:0|0:0,0:0:0:0:
221,135,143429,5,0,0:0:0:0:
221,135,143512,1,0,0:0:0:0:
221,135,143594,2,0,L|274:139,1,53.9999970645905,0|0,0:0|0:0,0:0:0:0:
449,93,143759,2,0,L|395:97,1,53.9999970645905,0|0,0:0|0:0,0:0:0:0:
93,226,143924,2,0,L|146:230,1,53.9999970645905,0|0,0:0|0:0,0:0:0:0:
470,214,144089,2,0,L|416:209,1,53.9999970645905,0|0,0:0|0:0,0:0:0:0:
90,121,144253,2,0,L|143:116,1,53.9999970645905,0|0,0:0|0:0,0:0:0:0:
395,96,144418,6,0,P|425:75|437:47,1,53.9999970645905,0|0,0:0|0:0,0:0:0:0:
303,131,144748,6,0,P|253:181|323:180,1,180.000002574921,0|0,0:0|0:0,0:0:0:0:
158,313,145078,2,0,B|203:338|242:316|242:316|283:328|331:305,1,180.000002574921,0|0,0:0|0:0,0:0:0:0:
203,247,145324,1,0,0:0:0:0:
179,198,145406,1,0,0:0:0:0:
181,143,145489,1,0,0:0:0:0:
191,91,145572,2,0,P|178:47|151:11,1,90.0000012874603,0|0,0:0|0:0,0:0:0:0:
58,173,145737,2,0,P|70:216|97:252,1,90.0000012874603
350,137,145902,2,0,P|337:94|310:58,1,90.0000012874603
97,252,146067,6,0,P|89:322|142:276,1,180.000002574921
181,143,146396,2,0,B|153:227|243:233|206:330,1,180.000002574921
253,172,146644,1,0,0:0:0:0:
296,139,146726,1,0,0:0:0:0:
350,137,146809,1,0,0:0:0:0:
402,157,146892,2,0,P|447:156|489:139,1,90.0000012874603
109,249,147056,2,0,P|64:240|26:218,1,90.0000012874603,0|0,0:0|0:0,0:0:0:0:
312,367,147220,2,0,P|356:367|398:350,1,90.0000012874603,0|0,0:0|0:0,0:0:0:0:
321,217,147385,6,0,P|370:267|300:265,1,180.000002574921,0|0,0:0|0:0,0:0:0:0:
296,139,147715,2,0,B|370:126|418:171|418:171|464:144,1,180.000002574921
306,52,147962,1,0,0:0:0:0:
254,63,148044,1,0,0:0:0:0:
218,104,148127,1,0,0:0:0:0:
180,143,148209,2,0,P|136:150|92:142,1,90.0000012874603
226,271,148374,2,0,P|200:307|163:332,1,90.0000012874603,0|0,0:0|0:0,0:0:0:0:
360,273,148539,2,0,P|368:318|358:361,1,90.0000012874603,0|0,0:0|0:0,0:0:0:0:
296,139,148704,6,0,P|365:136|317:186,1,180.000002574921
439,85,149034,2,0,B|462:133|450:174|450:174|472:213|447:258,1,180.000002574921,0|0,0:0|0:0,0:0:0:0:
296,139,149281,1,0,0:0:0:0:
314,185,149363,1,0,0:0:0:0:
305,238,149446,1,0,0:0:0:0:
302,292,149528,2,0,P|323:331|357:360,1,90.0000012874603
494,153,149693,2,0,P|472:114|439:84,1,90.0000012874603
234,194,149858,2,0,P|204:228|189:269,1,90.0000012874603,0|0,0:0|0:0,0:0:0:0:
455,334,150023,6,0,P|477:268|416:302,1,180.000002574921,0|0,0:0|0:0,0:0:0:0:
272,272,150352,2,0,B|354:292|350:178|453:183,1,180.000002574921
234,194,150600,1,0,0:0:0:0:
180,196,150682,1,0,0:0:0:0:
134,225,150765,1,0,0:0:0:0:
87,253,150848,2,0,P|43:259|-1:248,1,90.0000012874603,0|0,0:0|0:0,0:0:0:0:
141,108,151012,2,0,P|186:101|230:112,1,90.0000012874603,0|0,0:0|0:0,0:0:0:0:
129,363,151176,2,0,P|85:369|41:358,1,90.0000012874603,0|0,0:0|0:0,0:0:0:0:
193,274,151341,6,0,P|258:295|195:325,1,180.000002574921,0|0,0:0|0:0,0:0:0:0:
180,196,151671,2,0,B|256:175|305:226|305:226|351:199,1,180.000002574921,0|0,0:0|0:0,0:0:0:0:
193,274,151918,1,0,0:0:0:0:
139,263,152001,1,0,0:0:0:0:
105,220,152083,1,0,0:0:0:0:
95,167,152165,2,0,P|102:122|126:83,1,90.0000012874603,0|0,0:0|0:0,0:0:0:0:
193,274,152330,2,0,P|200:318|224:357,1,90.0000012874603,0|0,0:0|0:0,0:0:0:0:
265,124,152495,2,0,P|272:79|296:40,1,90.0000012874603,0|0,0:0|0:0,0:0:0:0:
328,250,152660,6,0,P|305:315|281:251,1,180.000002574921,0|0,0:0|0:0,0:0:0:0:
410,162,152990,2,0,B|435:207|413:246|413:246|425:287|402:335,1,180.000002574921,0|0,0:0|0:0,0:0:0:0:
313,161,153237,1,0,0:0:0:0:
258,164,153319,1,0,0:0:0:0:
211,194,153402,1,0,0:0:0:0:
171,228,153485,2,0,P|130:247|85:251,1,90.0000012874603,0|0,0:0|0:0,0:0:0:0:
172,51,153649,2,0,P|212:31|257:27,1,90.0000012874603,0|0,0:0|0:0,0:0:0:0:
399,138,153814,2,0,P|358:157|313:161,1,90.0000012874603
134,120,153979,6,0,P|64:130|123:169,1,180.000002574921,0|0,0:0|0:0,0:0:0:0:
85,251,154308,2,0,P|130:246|171:228,1,90.0000012874603,0|0,0:0|0:0,0:0:0:0:
399,138,154473,2,0,B|480:92|480:92|383:85,1,180.000002574921,0|0,0:0|0:0,0:0:0:0:
147,142,154803,2,0,P|151:186|170:227,1,90.0000012874603,0|0,0:0|0:0,0:0:0:0:
241,169,154968,1,0,0:0:0:0:
261,218,155050,1,0,0:0:0:0:
251,271,155133,1,0,0:0:0:0:
213,309,155215,1,0,0:0:0:0:
160,318,155297,6,0,P|103:264|190:244,1,180.000002574921,0|0,0:0|0:0,0:0:0:0:
322,264,155627,2,0,B|347:219|325:180|325:180|337:139|314:91,1,180.000002574921,0|0,0:0|0:0,0:0:0:0:
261,218,155874,1,0,0:0:0:0:
251,271,155957,1,0,0:0:0:0:
275,318,156039,1,0,0:0:0:0:
326,336,156122,2,0,P|369:327|408:304,1,90.0000012874603,0|0,0:0|0:0,0:0:0:0:
206,137,156286,2,0,P|162:145|123:168,1,90.0000012874603,0|0,0:0|0:0,0:0:0:0:
325,178,156451,2,0,P|327:128|311:88,1,90.0000012874603,0|0,0:0|0:0,0:0:0:0:
251,271,156616,6,0,P|297:323|298:253,1,180.000002574921,0|0,0:0|0:0,0:0:0:0:
124,259,156946,2,0,B|120:266|142:287|178:291|178:291|179:318|191:360|237:384,1,180.000002574921,0|0,0:0|0:0,0:0:0:0:
183,204,157193,1,0,0:0:0:0:
135,179,157275,1,0,0:0:0:0:
81,190,157358,1,0,0:0:0:0:
48,233,157440,2,0,P|40:276|48:321,1,90.0000012874603,0|0,0:0|0:0,0:0:0:0:
297,252,157605,2,0,P|310:209|308:163,1,90.0000012874603,0|0,0:0|0:0,0:0:0:0:
144,90,157770,2,0,P|131:134|134:178,1,90.0000012874603,0|0,0:0|0:0,0:0:0:0:
312,91,157935,6,0,P|267:36|262:106,1,180.000002574921,0|0,0:0|0:0,0:0:0:0:
380,175,158264,2,0,B|391:170|376:132|376:132|410:64|370:3,1,180.000002574921,0|0,0:0|0:0,0:0:0:0:
308,164,158512,1,0,0:0:0:0:
319,216,158594,1,0,0:0:0:0:
362,247,158676,1,0,0:0:0:0:
416,240,158759,2,0,P|457:255|503:253,1,90.0000012874603,0|0,0:0|0:0,0:0:0:0:
262,106,158924,2,0,P|220:90|174:92,1,90.0000012874603,0|0,0:0|0:0,0:0:0:0:
380,175,159089,2,0,P|395:133|393:87,1,90.0000012874603,0|0,0:0|0:0,0:0:0:0:
174,181,159253,6,0,P|204:244|224:178,1,180.000002574921,0|0,0:0|0:0,0:0:0:0:
102,64,159583,2,0,B|90:103|111:136|111:136|69:190|100:263,1,180.000002574921,0|0,0:0|0:0,0:0:0:0:
175,92,159830,1,0,0:0:0:0:
227,79,159912,1,0,0:0:0:0:
278,95,159995,1,0,0:0:0:0:
314,135,160078,2,0,P|347:164|391:179,1,90.0000012874603,0|0,0:0|0:0,0:0:0:0:
194,246,160242,2,0,P|208:288|238:321,1,90.0000012874603,0|0,0:0|0:0,0:0:0:0:
79,148,160407,2,0,P|36:162|3:192,1,90.0000012874603,0|0,0:0|0:0,0:0:0:0:
373,89,160572,6,0,P|442:77|382:41,1,180.000002574921,0|0,0:0|0:0,0:0:0:0:
305,176,160902,2,0,B|350:201|389:179|389:179|431:187|477:158,1,180.000002574921,0|0,0:0|0:0,0:0:0:0:
300,101,161149,1,0,0:0:0:0:
251,124,161231,1,0,0:0:0:0:
231,174,161314,1,0,0:0:0:0:
248,224,161396,2,0,P|284:250|329:260,1,90.0000012874603,0|0,0:0|0:0,0:0:0:0:
246,48,161561,2,0,P|202:58|166:84,1,90.0000012874603,0|0,0:0|0:0,0:0:0:0:
305,176,161726,2,0,P|348:165|384:139,1,90.0000012874603,0|0,0:0|0:0,0:0:0:0:
94,98,161891,6,0,P|48:150|117:141,1,180.000002574921,0|0,0:0|0:0,0:0:0:0:
211,248,162220,2,0,B|220:196|185:166|185:166|201:117|166:84,1,180.000002574921,0|0,0:0|0:0,0:0:0:0:
140,226,162468,1,0,0:0:0:0:
143,279,162550,1,0,0:0:0:0:
180,317,162633,1,0,0:0:0:0:
233,321,162715,1,0,0:0:0:0:
117,141,162880,2,0,P|90:104|80:61,1,90.0000012874603,0|0,0:0|0:0,0:0:0:0:
415,276,163127,1,0,0:0:0:0:
415,276,163209,6,0,P|441:239|451:196,1,90.0000012874603,0|0,0:0|0:0,0:0:0:0:
460,52,163704,1,0,0:0:0:0:
320,182,163869,2,0,P|283:208|240:218,1,90.0000012874603,0|0,0:0|0:0,0:0:0:0:
96,227,164364,1,0,0:0:0:0:
451,196,164528,5,0,0:0:0:0:
256,192,164611,12,0,165682,0:0:0:0:
281,2,165847,6,0,B|274:41|274:41|214:113|214:113|207:160,1,180.000002574921,0|0,0:0|0:0,0:0:0:0:
363,78,166176,1,0,0:0:0:0:
224,254,166341,1,0,0:0:0:0:
170,246,166424,1,0,0:0:0:0:
130,209,166506,1,0,0:0:0:0:
117,156,166589,1,0,0:0:0:0:
134,105,166671,2,0,P|171:76|229:72,1,90.0000012874603,0|0,0:0|0:0,0:0:0:0:
287,124,166836,2,0,P|250:153|192:157,1,90.0000012874603,0|0,0:0|0:0,0:0:0:0:
291,30,167001,2,0,P|333:44|362:77,1,90.0000012874603,0|0,0:0|0:0,0:0:0:0:
208,159,167165,2,0,B|171:129|171:129|139:41|139:41|108:16,1,180.000002574921,0|0,0:0|0:0,0:0:0:0:
287,124,167495,5,0,0:0:0:0:
115,184,167660,1,0,0:0:0:0:
142,231,167742,1,0,0:0:0:0:
190,256,167824,1,0,0:0:0:0:
244,247,167907,1,0,0:0:0:0:
291,217,167990,2,0,P|334:207|367:177,1,90.0000012874603,0|0,0:0|0:0,0:0:0:0:
212,69,168155,2,0,P|168:78|135:107,1,90.0000012874603,0|0,0:0|0:0,0:0:0:0:
287,124,168319,2,0,P|304:83|299:39,1,90.0000012874603,0|0,0:0|0:0,0:0:0:0:
208,159,168484,6,0,B|230:191|230:191|316:229|316:229|342:268,1,180.000002574921,0|0,0:0|0:0,0:0:0:0:
287,124,168814,1,0,0:0:0:0:
259,293,168979,1,0,0:0:0:0:
289,337,169061,1,0,0:0:0:0:
339,356,169144,1,0,0:0:0:0:
390,341,169226,1,0,0:0:0:0:
424,300,169308,2,0,P|428:256|410:215,1,90.0000012874603
324,185,169473,2,0,P|321:229|342:269,1,90.0000012874603
392,132,169638,5,0,0:0:0:0:
347,102,169720,1,0,0:0:0:0:
292,105,169803,1,0,0:0:0:0:
251,140,169885,1,0,0:0:0:0:
237,192,169968,1,0,0:0:0:0:
316,29,170133,5,0,0:0:0:0:
324,185,170297,1,0,0:0:0:0:
325,198,170380,1,0,0:0:0:0:
322,215,170462,1,0,0:0:0:0:
313,236,170545,1,0,0:0:0:0:
296,257,170627,1,0,0:0:0:0:
270,274,170709,1,0,0:0:0:0:
234,281,170792,1,0,0:0:0:0:
194,270,170874,1,0,0:0:0:0:
161,238,170957,1,0,0:0:0:0:
149,190,171039,1,0,0:0:0:0:
166,138,171122,6,0,B|199:117|199:117|293:117|293:117|332:92,1,180.000002574921,0|0,0:0|0:0,0:0:0:0:
237,192,171451,1,0,0:0:0:0:
375,169,171616,1,0,0:0:0:0:
411,130,171698,1,0,0:0:0:0:
419,77,171781,1,0,0:0:0:0:
394,30,171863,1,0,0:0:0:0:
347,7,171945,2,0,P|303:12|267:38,1,90.0000012874603,0|0,0:0|0:0,0:0:0:0:
252,122,172111,2,0,P|296:118|332:92,1,90.0000012874603,0|0,0:0|0:0,0:0:0:0:
267,39,172275,2,0,P|222:43|186:69,1,90.0000012874603,0|0,0:0|0:0,0:0:0:0:
168,149,172440,6,0,B|195:187|195:187|282:222|282:222|305:253,1,180.000002574921,0|0,0:0|0:0,0:0:0:0:
252,122,172770,1,0,0:0:0:0:
383,225,172935,1,0,0:0:0:0:
384,278,173017,1,0,0:0:0:0:
352,320,173099,1,0,0:0:0:0:
301,335,173182,1,0,0:0:0:0:
252,316,173264,1,0,0:0:0:0:
469,307,173429,5,0,0:0:0:0:
305,253,173594,1,0,0:0:0:0:
254,233,173676,1,0,0:0:0:0:
203,213,173759,2,0,B|181:180|181:180|95:143|95:143|69:104,1,180.000002574921,0|0,0:0|0:0,0:0:0:0:
252,122,174089,5,0,0:0:0:0:
123,242,174253,1,0,0:0:0:0:
155,284,174335,1,0,0:0:0:0:
205,300,174417,1,0,0:0:0:0:
255,281,174500,1,0,0:0:0:0:
284,237,174582,1,0,0:0:0:0:
103,358,174748,5,0,0:0:0:0:
203,213,174913,1,0,0:0:0:0:
235,168,174995,1,0,0:0:0:0:
268,123,175078,2,0,B|297:96|297:96|390:83|390:83|425:52,1,180.000002574921,0|0,0:0|0:0,0:0:0:0:
336,180,175407,5,0,0:0:0:0:
139,149,175572,2,0,L|45:135,2,90.0000012874603
354,89,175902,5,0,0:0:0:0:
235,168,176067,1,0,0:0:0:0:
243,221,176149,1,0,0:0:0:0:
275,263,176231,1,0,0:0:0:0:
325,283,176314,1,0,0:0:0:0:
378,275,176396,2,0,B|410:251|410:251|444:164|444:164|482:137,1,180.000002574921
336,180,176726,5,0,0:0:0:0:
429,26,176891,1,0,0:0:0:0:
381,0,176973,1,0,0:0:0:0:
327,2,177055,1,0,0:0:0:0:
282,30,177138,1,0,0:0:0:0:
258,76,177220,2,0,P|259:120|283:158,1,90.0000012874603,0|0,0:0|0:0,0:0:0:0:
438,108,177385,2,0,P|398:87|354:88,1,90.0000012874603,0|0,0:0|0:0,0:0:0:0:
318,250,177550,2,0,P|355:226|376:187,1,90.0000012874603,0|0,0:0|0:0,0:0:0:0:
257,75,177715,2,0,B|218:101|218:101|181:187|181:187|148:209,1,180.000002574921,0|0,0:0|0:0,0:0:0:0:
283,158,178045,5,0,0:0:0:0:
110,131,178209,1,0,0:0:0:0:
71,169,178292,1,0,0:0:0:0:
62,222,178374,1,0,0:0:0:0:
86,270,178457,1,0,0:0:0:0:
134,295,178539,2,0,P|178:291|215:267,1,90.0000012874603,0|0,0:0|0:0,0:0:0:0:
189,97,178704,2,0,P|145:103|109:130,1,90.0000012874603,0|0,0:0|0:0,0:0:0:0:
291,125,178869,2,0,P|296:80|279:39,1,90.0000012874603,0|0,0:0|0:0,0:0:0:0:
189,97,179034,2,0,B|182:143|182:143|221:228|221:228|215:267,1,180.000002574921,0|0,0:0|0:0,0:0:0:0:
291,125,179363,5,0,0:0:0:0:
301,268,179528,1,0,0:0:0:0:
284,318,179610,1,0,0:0:0:0:
241,349,179692,1,0,0:0:0:0:
188,349,179775,1,0,0:0:0:0:
145,317,179857,1,0,0:0:0:0:
291,125,180023,5,0,0:0:0:0:
252,201,180187,1,0,0:0:0:0:
214,162,180269,1,0,0:0:0:0:
206,110,180351,1,0,0:0:0:0:
231,62,180434,1,0,0:0:0:0:
278,39,180516,1,0,0:0:0:0:
383,255,180682,5,0,0:0:0:0:
299,283,180846,5,0,0:0:0:0:
302,293,180929,1,0,0:0:0:0:
311,308,181011,1,0,0:0:0:0:
328,324,181094,1,0,0:0:0:0:
352,336,181176,1,0,0:0:0:0:
383,341,181258,1,0,0:0:0:0:
418,333,181341,1,0,0:0:0:0:
451,307,181423,1,0,0:0:0:0:
467,264,181506,1,0,0:0:0:0:
459,215,181588,1,0,0:0:0:0:
422,175,181671,5,0,0:0:0:0:
282,145,181836,1,0,0:0:0:0:
383,255,182001,1,0,0:0:0:0:
363,109,182165,1,0,0:0:0:0:
290,234,182330,1,0,0:0:0:0:
422,175,182495,1,0,0:0:0:0:
282,145,182660,1,0,0:0:0:0:
450,91,182825,2,0,L|546:61,2,59.9999985694885,0|0|0,0:0|0:0|0:0,0:0:0:0:
213,269,183155,5,0,0:0:0:0:
422,175,183320,1,0,0:0:0:0:
300,384,183485,1,0,0:0:0:0:
282,145,183649,1,0,0:0:0:0:
438,316,183814,1,0,0:0:0:0:
213,269,183979,1,0,0:0:0:0:
422,175,184144,1,0,0:0:0:0:
332,231,184308,6,0,P|324:282|361:256,1,119.999997138977,0|0,0:0|0:0,0:0:0:0:
282,145,184638,1,0,0:0:0:0:
438,316,184803,1,0,0:0:0:0:
460,243,184968,2,0,P|499:185|481:128,1,119.999997138977,0|0,0:0|0:0,0:0:0:0:
213,269,185297,1,0,0:0:0:0:
384,51,185462,1,0,0:0:0:0:
363,281,185627,6,0,P|317:297|304:232,1,119.999997138977,0|0,0:0|0:0,0:0:0:0:
317,211,185874,1,0,0:0:0:0:
351,198,185957,1,0,0:0:0:0:
386,201,186039,1,0,0:0:0:0:
417,218,186122,1,0,0:0:0:0:
438,246,186204,1,0,0:0:0:0:
445,281,186286,1,0,0:0:0:0:
439,316,186369,1,0,0:0:0:0:
417,344,186451,1,0,0:0:0:0:
385,362,186534,1,0,0:0:0:0:
349,362,186616,6,0,P|325:328|358:289,1,89.9999978542327
161,364,186946,5,0,0:0:0:0:
256,192,187028,12,0,189418,0:0:0:0:
