osu file format v14

[General]
AudioFilename: audio.mp3
AudioLeadIn: 0
PreviewTime: 3232
Countdown: 0
SampleSet: Normal
StackLeniency: 0.7
Mode: 3
LetterboxInBreaks: 0
SpecialStyle: 0
WidescreenStoryboard: 1

[Editor]
DistanceSpacing: 0.8
BeatDivisor: 4
GridSize: 4
TimelineZoom: 2.1

[Metadata]
Title:Midnight Musing
TitleUnicode:Midnight Musing
Artist:Jinjin
ArtistUnicode:Jinjin
Creator:SurfChu85
Version:normal
Source:
Tags:instrumental classical piano slow calm ln long notes jinjin ijinjin
BeatmapID:4111790
BeatmapSetID:1980200

[Difficulty]
HPDrainRate:7
CircleSize:7
OverallDifficulty:6
ApproachRate:5
SliderMultiplier:1.4
SliderTickRate:1

[Events]
//Background and Video events
0,0,"bg.jpg",0,0
//Break Periods
//Storyboard Layer 0 (Background)
//Storyboard Layer 1 (Fail)
//Storyboard Layer 2 (Pass)
//Storyboard Layer 3 (Foreground)
//Storyboard Layer 4 (Overlay)
//Storyboard Sound Samples

[TimingPoints]
3233,535.714285714286,4,1,1,30,1,0

[HitObjects]
182,192,3232,128,0,3768:0:0:0:0:
256,192,3768,128,0,4304:0:0:0:0:
36,192,4304,128,0,5911:0:0:0:0:
329,192,4304,128,0,5911:0:0:0:0:
182,192,5911,128,0,6447:0:0:0:0:
402,192,6447,128,0,7518:0:0:0:0:
36,192,6447,128,0,6983:0:0:0:0:
109,192,6983,128,0,7518:0:0:0:0:
182,192,7518,128,0,8054:0:0:0:0:
475,192,7518,128,0,8590:0:0:0:0:
109,192,8054,128,0,8590:0:0:0:0:
36,192,8590,128,0,9125:0:0:0:0:
109,192,9125,128,0,9661:0:0:0:0:
475,192,9125,128,0,9661:0:0:0:0:
182,192,9661,128,0,10197:0:0:0:0:
402,192,9661,128,0,10197:0:0:0:0:
329,192,10197,128,0,10733:0:0:0:0:
256,192,10197,128,0,10733:0:0:0:0:
36,192,10733,128,0,11804:0:0:0:0:
182,192,10733,128,0,11804:0:0:0:0:
475,192,11804,128,0,12875:0:0:0:0:
36,192,12875,128,0,13411:0:0:0:0:
109,192,13411,128,0,13947:0:0:0:0:
402,192,13411,128,0,13947:0:0:0:0:
475,192,13947,128,0,14483:0:0:0:0:
256,192,13947,128,0,14483:0:0:0:0:
182,192,14483,128,0,15018:0:0:0:0:
402,192,14483,128,0,15018:0:0:0:0:
109,192,15018,128,0,16090:0:0:0:0:
329,192,15018,128,0,15554:0:0:0:0:
182,192,15554,128,0,16090:0:0:0:0:
36,192,16090,128,0,17161:0:0:0:0:
402,192,16090,128,0,17161:0:0:0:0:
109,192,17161,128,0,19304:0:0:0:0:
182,192,17161,128,0,17697:0:0:0:0:
256,192,17697,128,0,18233:0:0:0:0:
329,192,18233,128,0,18768:0:0:0:0:
402,192,18768,128,0,19304:0:0:0:0:
36,192,19304,128,0,20375:0:0:0:0:
475,192,19304,128,0,19840:0:0:0:0:
182,192,19840,128,0,20375:0:0:0:0:
256,192,20375,128,0,20911:0:0:0:0:
475,192,20375,128,0,21447:0:0:0:0:
109,192,20911,128,0,21447:0:0:0:0:
402,192,21447,128,0,22518:0:0:0:0:
256,192,21447,128,0,21983:0:0:0:0:
36,192,21983,128,0,22518:0:0:0:0:
256,192,22518,128,0,23054:0:0:0:0:
402,192,23054,128,0,23590:0:0:0:0:
329,192,23590,128,0,24125:0:0:0:0:
36,192,23590,128,0,24661:0:0:0:0:
256,192,24125,128,0,24661:0:0:0:0:
329,192,24661,128,0,25197:0:0:0:0:
109,192,24661,128,0,25197:0:0:0:0:
402,192,25197,128,0,25733:0:0:0:0:
182,192,25197,128,0,25733:0:0:0:0:
475,192,25733,128,0,26268:0:0:0:0:
36,192,25733,128,0,26268:0:0:0:0:
182,192,26268,128,0,26804:0:0:0:0:
402,192,26268,128,0,26804:0:0:0:0:
109,192,26804,128,0,27340:0:0:0:0:
329,192,26804,128,0,27340:0:0:0:0:
475,192,27340,128,0,27875:0:0:0:0:
256,192,27340,128,0,27875:0:0:0:0:
402,192,27875,128,0,28411:0:0:0:0:
182,192,27875,128,0,28411:0:0:0:0:
109,192,28411,128,0,28947:0:0:0:0:
329,192,28411,128,0,28947:0:0:0:0:
182,192,28947,128,0,29483:0:0:0:0:
475,192,28947,128,0,29483:0:0:0:0:
109,192,29483,128,0,30018:0:0:0:0:
402,192,29483,128,0,30018:0:0:0:0:
475,192,30018,128,0,30554:0:0:0:0:
182,192,30018,128,0,30554:0:0:0:0:
109,192,30554,128,0,31090:0:0:0:0:
329,192,30554,128,0,31090:0:0:0:0:
36,192,31090,128,0,31625:0:0:0:0:
256,192,31090,128,0,31625:0:0:0:0:
329,192,31625,1,0,0:0:0:0:
329,192,32161,128,0,32697:0:0:0:0:
36,192,32161,128,0,33233:0:0:0:0:
256,192,32697,128,0,33233:0:0:0:0:
475,192,33233,128,0,33768:0:0:0:0:
182,192,33233,128,0,34304:0:0:0:0:
402,192,33768,128,0,34304:0:0:0:0:
36,192,34304,128,0,34840:0:0:0:0:
329,192,34304,128,0,35375:0:0:0:0:
109,192,34840,128,0,35375:0:0:0:0:
182,192,35375,128,0,35911:0:0:0:0:
329,192,35911,128,0,36447:0:0:0:0:
475,192,36447,128,0,37518:0:0:0:0:
109,192,36447,128,0,38590:0:0:0:0:
