osu file format v14

[General]
AudioFilename: audio.mp3
AudioLeadIn: 0
PreviewTime: 986
Countdown: 0
SampleSet: Soft
StackLeniency: 0.7
Mode: 3
LetterboxInBreaks: 0
SpecialStyle: 0
WidescreenStoryboard: 0

[Editor]
DistanceSpacing: 1.3
BeatDivisor: 4
GridSize: 8
TimelineZoom: 1.7

[Metadata]
Title:ET Mania Mix
TitleUnicode:ET Mania Mix
Artist:Jinjin
ArtistUnicode:Jinjin
Creator:Jinjin
Version:wew 4K
Source:
Tags:
BeatmapID:1077533
BeatmapSetID:506548

[Difficulty]
HPDrainRate:8
CircleSize:4
OverallDifficulty:8
ApproachRate:5
SliderMultiplier:1.4
SliderTickRate:1

[Events]
//Background and Video events
0,0,"et mania mix bg.png",0,0
//Break Periods
//Storyboard Layer 0 (Background)
//Storyboard Layer 1 (Fail)
//Storyboard Layer 2 (Pass)
//Storyboard Layer 3 (Foreground)
//Storyboard Sound Samples

[TimingPoints]
986,235.294117647059,4,2,0,0,1,0
986,-140.845070422535,4,2,0,0,0,0
8515,240,4,2,0,0,1,0
8515,-138.888888888889,4,2,0,0,0,0
23891,283.018867924528,4,2,0,0,1,0
23891,-117.647058823529,4,2,0,0,0,0
32953,333.333333333333,4,2,0,0,1,0
32953,-100,4,2,0,0,0,0
43625,348.837209302326,4,2,0,0,1,0
43625,-95.2380952380952,4,2,0,0,0,0
54787,375,4,2,0,0,1,0
54787,-88.4955752212389,4,2,0,0,0,0
60787,333.333333333333,4,2,0,0,1,0
60787,-100,4,2,0,0,0,0
71453,234.375,4,2,0,0,1,0
71453,-142.857142857143,4,2,0,0,0,0
78975,372.670807453416,4,2,0,0,1,0
78975,-90.0900900900901,4,2,0,0,0,0
84937,200,4,2,0,0,1,0
84937,-166.666666666667,4,2,0,0,0,0
91337,300,4,2,0,0,1,0
91337,-111.111111111111,4,2,0,0,0,0
110509,230.769230769231,4,2,0,0,1,0
110509,-144.927536231884,4,2,0,0,0,0
125278,288.461538461538,4,2,0,0,1,0
125278,-114.942528735632,4,2,0,0,0,0

[HitObjects]
64,192,986,5,0,0:0:0:0:
192,192,986,1,0,0:0:0:0:
448,192,986,1,0,0:0:0:0:
320,192,1103,1,0,0:0:0:0:
192,192,1221,1,0,0:0:0:0:
64,192,1221,1,0,0:0:0:0:
320,192,1338,1,0,0:0:0:0:
64,192,1456,1,0,0:0:0:0:
448,192,1456,1,0,0:0:0:0:
192,192,1515,1,0,0:0:0:0:
320,192,1574,1,0,0:0:0:0:
192,192,1633,1,0,0:0:0:0:
64,192,1691,1,0,0:0:0:0:
448,192,1691,1,0,0:0:0:0:
192,192,1809,1,0,0:0:0:0:
320,192,1927,1,0,0:0:0:0:
448,192,1927,1,0,0:0:0:0:
192,192,2044,1,0,0:0:0:0:
320,192,2162,1,0,0:0:0:0:
448,192,2162,1,0,0:0:0:0:
192,192,2280,1,0,0:0:0:0:
64,192,2397,1,0,0:0:0:0:
448,192,2397,1,0,0:0:0:0:
192,192,2456,1,0,0:0:0:0:
320,192,2515,1,0,0:0:0:0:
448,192,2574,1,0,0:0:0:0:
64,192,2633,1,0,0:0:0:0:
192,192,2633,1,0,0:0:0:0:
320,192,2691,1,0,0:0:0:0:
448,192,2750,1,0,0:0:0:0:
192,192,2809,1,0,0:0:0:0:
64,192,2868,1,0,0:0:0:0:
320,192,2868,1,0,0:0:0:0:
448,192,2986,1,0,0:0:0:0:
64,192,3103,1,0,0:0:0:0:
320,192,3103,1,0,0:0:0:0:
448,192,3221,1,0,0:0:0:0:
192,192,3338,1,0,0:0:0:0:
64,192,3338,1,0,0:0:0:0:
320,192,3397,1,0,0:0:0:0:
448,192,3456,1,0,0:0:0:0:
192,192,3515,1,0,0:0:0:0:
64,192,3574,1,0,0:0:0:0:
448,192,3574,1,0,0:0:0:0:
320,192,3691,1,0,0:0:0:0:
192,192,3809,1,0,0:0:0:0:
64,192,3809,1,0,0:0:0:0:
320,192,3927,1,0,0:0:0:0:
64,192,4044,1,0,0:0:0:0:
192,192,4044,1,0,0:0:0:0:
448,192,4162,1,0,0:0:0:0:
320,192,4280,128,0,4397:0:0:0:0:
64,192,4515,1,0,0:0:0:0:
192,192,4544,1,0,0:0:0:0:
320,192,4574,1,0,0:0:0:0:
448,192,4603,1,0,0:0:0:0:
64,192,4633,1,0,0:0:0:0:
192,192,4662,1,0,0:0:0:0:
320,192,4691,1,0,0:0:0:0:
448,192,4721,1,0,0:0:0:0:
192,192,4750,1,0,0:0:0:0:
64,192,4750,1,0,0:0:0:0:
320,192,4868,1,0,0:0:0:0:
64,192,4986,1,0,0:0:0:0:
192,192,4986,1,0,0:0:0:0:
320,192,5103,1,0,0:0:0:0:
64,192,5221,1,0,0:0:0:0:
192,192,5221,1,0,0:0:0:0:
448,192,5280,1,0,0:0:0:0:
192,192,5338,1,0,0:0:0:0:
320,192,5397,1,0,0:0:0:0:
64,192,5456,1,0,0:0:0:0:
448,192,5456,1,0,0:0:0:0:
192,192,5515,1,0,0:0:0:0:
64,192,5574,1,0,0:0:0:0:
448,192,5574,1,0,0:0:0:0:
320,192,5633,1,0,0:0:0:0:
192,192,5691,1,0,0:0:0:0:
64,192,5691,1,0,0:0:0:0:
320,192,5809,1,0,0:0:0:0:
64,192,5927,1,0,0:0:0:0:
192,192,5927,1,0,0:0:0:0:
448,192,6044,1,0,0:0:0:0:
64,192,6162,1,0,0:0:0:0:
320,192,6162,1,0,0:0:0:0:
448,192,6221,1,0,0:0:0:0:
192,192,6280,1,0,0:0:0:0:
64,192,6280,1,0,0:0:0:0:
320,192,6338,1,0,0:0:0:0:
192,192,6397,1,0,0:0:0:0:
448,192,6397,1,0,0:0:0:0:
64,192,6456,1,0,0:0:0:0:
448,192,6515,1,0,0:0:0:0:
320,192,6515,1,0,0:0:0:0:
192,192,6574,1,0,0:0:0:0:
64,192,6574,1,0,0:0:0:0:
320,192,6633,1,0,0:0:0:0:
448,192,6633,1,0,0:0:0:0:
192,192,6750,128,0,6868:0:0:0:0:
320,192,6868,128,0,7103:0:0:0:0:
64,192,7103,1,0,0:0:0:0:
192,192,7103,1,0,0:0:0:0:
448,192,7103,1,0,0:0:0:0:
64,192,7221,1,0,0:0:0:0:
192,192,7221,1,0,0:0:0:0:
448,192,7221,1,0,0:0:0:0:
320,192,7338,128,0,7397:0:0:0:0:
192,192,7456,128,0,7515:0:0:0:0:
64,192,7574,1,0,0:0:0:0:
448,192,7574,1,0,0:0:0:0:
320,192,7574,1,0,0:0:0:0:
64,192,7691,1,0,0:0:0:0:
320,192,7691,1,0,0:0:0:0:
448,192,7691,1,0,0:0:0:0:
192,192,7809,1,0,0:0:0:0:
192,192,7927,1,0,0:0:0:0:
64,192,8044,128,0,8162:0:0:0:0:
320,192,8280,128,0,8456:0:0:0:0:
448,192,8280,128,0,8456:0:0:0:0:
64,192,8515,1,0,0:0:0:0:
448,192,8515,1,0,0:0:0:0:
320,192,8515,1,0,0:0:0:0:
192,192,8635,1,0,0:0:0:0:
320,192,8635,1,0,0:0:0:0:
448,192,8755,1,0,0:0:0:0:
192,192,8755,1,0,0:0:0:0:
320,192,8875,1,0,0:0:0:0:
64,192,8875,1,0,0:0:0:0:
192,192,8995,1,0,0:0:0:0:
64,192,8995,1,0,0:0:0:0:
320,192,9115,1,0,0:0:0:0:
448,192,9115,1,0,0:0:0:0:
64,192,9235,1,0,0:0:0:0:
320,192,9235,1,0,0:0:0:0:
192,192,9355,1,0,0:0:0:0:
448,192,9355,1,0,0:0:0:0:
320,192,9475,1,0,0:0:0:0:
192,192,9475,1,0,0:0:0:0:
448,192,9595,1,0,0:0:0:0:
192,192,9715,1,0,0:0:0:0:
320,192,9715,1,0,0:0:0:0:
448,192,9835,1,0,0:0:0:0:
64,192,9955,1,0,0:0:0:0:
320,192,9955,1,0,0:0:0:0:
448,192,10075,1,0,0:0:0:0:
64,192,10195,1,0,0:0:0:0:
192,192,10195,1,0,0:0:0:0:
448,192,10315,1,0,0:0:0:0:
64,192,10435,1,0,0:0:0:0:
320,192,10435,1,0,0:0:0:0:
192,192,10555,1,0,0:0:0:0:
320,192,10555,1,0,0:0:0:0:
192,192,10675,1,0,0:0:0:0:
448,192,10675,1,0,0:0:0:0:
64,192,10795,1,0,0:0:0:0:
320,192,10795,1,0,0:0:0:0:
64,192,10915,1,0,0:0:0:0:
192,192,10915,1,0,0:0:0:0:
320,192,11035,1,0,0:0:0:0:
448,192,11035,1,0,0:0:0:0:
64,192,11155,1,0,0:0:0:0:
320,192,11155,1,0,0:0:0:0:
192,192,11275,1,0,0:0:0:0:
448,192,11275,1,0,0:0:0:0:
320,192,11395,1,0,0:0:0:0:
448,192,11395,1,0,0:0:0:0:
64,192,11515,1,0,0:0:0:0:
320,192,11635,1,0,0:0:0:0:
448,192,11635,1,0,0:0:0:0:
64,192,11755,1,0,0:0:0:0:
192,192,11875,1,0,0:0:0:0:
448,192,11875,1,0,0:0:0:0:
64,192,11995,1,0,0:0:0:0:
192,192,12115,1,0,0:0:0:0:
320,192,12115,1,0,0:0:0:0:
192,192,12235,1,0,0:0:0:0:
64,192,12355,1,0,0:0:0:0:
320,192,12355,1,0,0:0:0:0:
192,192,12475,1,0,0:0:0:0:
320,192,12475,1,0,0:0:0:0:
192,192,12595,1,0,0:0:0:0:
448,192,12595,1,0,0:0:0:0:
320,192,12715,1,0,0:0:0:0:
64,192,12715,1,0,0:0:0:0:
192,192,12835,1,0,0:0:0:0:
320,192,12835,1,0,0:0:0:0:
192,192,12955,1,0,0:0:0:0:
448,192,12955,1,0,0:0:0:0:
64,192,13075,1,0,0:0:0:0:
320,192,13075,1,0,0:0:0:0:
192,192,13195,1,0,0:0:0:0:
448,192,13195,1,0,0:0:0:0:
320,192,13315,1,0,0:0:0:0:
192,192,13315,1,0,0:0:0:0:
64,192,13435,1,0,0:0:0:0:
192,192,13555,1,0,0:0:0:0:
320,192,13555,1,0,0:0:0:0:
448,192,13675,1,0,0:0:0:0:
64,192,13795,1,0,0:0:0:0:
320,192,13795,1,0,0:0:0:0:
448,192,13915,1,0,0:0:0:0:
64,192,14035,1,0,0:0:0:0:
192,192,14035,1,0,0:0:0:0:
320,192,14155,1,0,0:0:0:0:
64,192,14275,1,0,0:0:0:0:
448,192,14275,1,0,0:0:0:0:
192,192,14395,1,0,0:0:0:0:
320,192,14395,1,0,0:0:0:0:
192,192,14515,1,0,0:0:0:0:
448,192,14515,1,0,0:0:0:0:
64,192,14635,1,0,0:0:0:0:
320,192,14635,1,0,0:0:0:0:
192,192,14755,1,0,0:0:0:0:
64,192,14755,1,0,0:0:0:0:
320,192,14875,1,0,0:0:0:0:
448,192,14875,1,0,0:0:0:0:
64,192,14995,1,0,0:0:0:0:
448,192,14995,1,0,0:0:0:0:
192,192,15115,1,0,0:0:0:0:
320,192,15115,1,0,0:0:0:0:
64,192,15235,1,0,0:0:0:0:
320,192,15235,1,0,0:0:0:0:
192,192,15355,1,0,0:0:0:0:
64,192,15475,1,0,0:0:0:0:
320,192,15475,1,0,0:0:0:0:
192,192,15595,1,0,0:0:0:0:
320,192,15715,1,0,0:0:0:0:
448,192,15715,1,0,0:0:0:0:
64,192,15835,1,0,0:0:0:0:
192,192,15955,1,0,0:0:0:0:
320,192,15955,1,0,0:0:0:0:
448,192,16075,1,0,0:0:0:0:
64,192,16195,1,0,0:0:0:0:
192,192,16195,1,0,0:0:0:0:
64,192,16315,1,0,0:0:0:0:
320,192,16315,1,0,0:0:0:0:
192,192,16435,1,0,0:0:0:0:
448,192,16435,1,0,0:0:0:0:
320,192,16555,1,0,0:0:0:0:
192,192,16555,1,0,0:0:0:0:
64,192,16675,1,0,0:0:0:0:
320,192,16675,1,0,0:0:0:0:
192,192,16795,1,0,0:0:0:0:
448,192,16795,1,0,0:0:0:0:
192,192,16915,1,0,0:0:0:0:
64,192,16915,1,0,0:0:0:0:
320,192,17035,1,0,0:0:0:0:
448,192,17035,1,0,0:0:0:0:
192,192,17155,1,0,0:0:0:0:
448,192,17155,1,0,0:0:0:0:
320,192,17275,1,0,0:0:0:0:
192,192,17395,1,0,0:0:0:0:
448,192,17395,1,0,0:0:0:0:
64,192,17515,1,0,0:0:0:0:
320,192,17635,1,0,0:0:0:0:
448,192,17635,1,0,0:0:0:0:
192,192,17755,1,0,0:0:0:0:
64,192,17875,1,0,0:0:0:0:
320,192,17875,1,0,0:0:0:0:
192,192,17995,1,0,0:0:0:0:
64,192,18115,1,0,0:0:0:0:
448,192,18115,1,0,0:0:0:0:
192,192,18235,1,0,0:0:0:0:
448,192,18235,1,0,0:0:0:0:
320,192,18355,1,0,0:0:0:0:
64,192,18355,1,0,0:0:0:0:
192,192,18475,1,0,0:0:0:0:
320,192,18475,1,0,0:0:0:0:
64,192,18595,1,0,0:0:0:0:
192,192,18595,1,0,0:0:0:0:
64,192,18715,1,0,0:0:0:0:
320,192,18715,1,0,0:0:0:0:
192,192,18835,1,0,0:0:0:0:
320,192,18835,1,0,0:0:0:0:
192,192,18955,1,0,0:0:0:0:
448,192,18955,1,0,0:0:0:0:
320,192,19075,1,0,0:0:0:0:
64,192,19075,1,0,0:0:0:0:
448,192,19195,1,0,0:0:0:0:
64,192,19315,1,0,0:0:0:0:
320,192,19315,1,0,0:0:0:0:
192,192,19435,1,0,0:0:0:0:
320,192,19555,1,0,0:0:0:0:
448,192,19555,1,0,0:0:0:0:
64,192,19675,1,0,0:0:0:0:
192,192,19795,1,0,0:0:0:0:
320,192,19795,1,0,0:0:0:0:
320,192,19915,1,0,0:0:0:0:
64,192,20035,1,0,0:0:0:0:
192,192,20035,1,0,0:0:0:0:
192,192,20155,1,0,0:0:0:0:
320,192,20155,1,0,0:0:0:0:
320,192,20275,1,0,0:0:0:0:
448,192,20275,1,0,0:0:0:0:
64,192,20275,1,0,0:0:0:0:
192,192,20395,1,0,0:0:0:0:
320,192,20395,1,0,0:0:0:0:
192,192,20515,1,0,0:0:0:0:
64,192,20515,1,0,0:0:0:0:
320,192,20635,1,0,0:0:0:0:
448,192,20635,1,0,0:0:0:0:
192,192,20755,1,0,0:0:0:0:
64,192,20755,1,0,0:0:0:0:
192,192,20875,1,0,0:0:0:0:
320,192,20875,1,0,0:0:0:0:
320,192,20995,1,0,0:0:0:0:
448,192,20995,1,0,0:0:0:0:
192,192,21115,1,0,0:0:0:0:
320,192,21115,1,0,0:0:0:0:
192,192,21235,1,0,0:0:0:0:
64,192,21235,1,0,0:0:0:0:
448,192,21235,1,0,0:0:0:0:
320,192,21355,1,0,0:0:0:0:
192,192,21355,1,0,0:0:0:0:
320,192,21475,1,0,0:0:0:0:
448,192,21475,1,0,0:0:0:0:
192,192,21595,1,0,0:0:0:0:
320,192,21595,1,0,0:0:0:0:
192,192,21715,1,0,0:0:0:0:
64,192,21715,1,0,0:0:0:0:
448,192,21715,1,0,0:0:0:0:
192,192,21835,1,0,0:0:0:0:
320,192,21835,1,0,0:0:0:0:
320,192,21955,1,0,0:0:0:0:
448,192,21955,1,0,0:0:0:0:
192,192,22075,1,0,0:0:0:0:
448,192,22075,1,0,0:0:0:0:
64,192,22075,1,0,0:0:0:0:
320,192,22195,1,0,0:0:0:0:
192,192,22315,1,0,0:0:0:0:
64,192,22315,1,0,0:0:0:0:
320,192,22435,1,0,0:0:0:0:
448,192,22435,1,0,0:0:0:0:
320,192,22555,1,0,0:0:0:0:
64,192,22675,1,0,0:0:0:0:
192,192,22675,1,0,0:0:0:0:
192,192,22795,1,0,0:0:0:0:
448,192,22795,1,0,0:0:0:0:
64,192,22915,1,0,0:0:0:0:
320,192,22915,1,0,0:0:0:0:
448,192,22975,1,0,0:0:0:0:
192,192,23035,1,0,0:0:0:0:
320,192,23035,1,0,0:0:0:0:
192,192,23155,1,0,0:0:0:0:
448,192,23155,1,0,0:0:0:0:
320,192,23275,1,0,0:0:0:0:
64,192,23275,1,0,0:0:0:0:
448,192,23395,1,0,0:0:0:0:
320,192,23395,1,0,0:0:0:0:
192,192,23455,1,0,0:0:0:0:
64,192,23515,1,0,0:0:0:0:
448,192,23515,1,0,0:0:0:0:
320,192,23575,1,0,0:0:0:0:
192,192,23635,1,0,0:0:0:0:
64,192,23635,1,0,0:0:0:0:
64,192,23755,1,0,0:0:0:0:
192,192,23755,1,0,0:0:0:0:
320,192,23891,1,0,0:0:0:0:
448,192,23891,1,0,0:0:0:0:
192,192,23891,1,0,0:0:0:0:
64,192,24032,1,0,0:0:0:0:
320,192,24103,1,0,0:0:0:0:
192,192,24174,1,0,0:0:0:0:
448,192,24174,1,0,0:0:0:0:
64,192,24315,1,0,0:0:0:0:
320,192,24315,1,0,0:0:0:0:
448,192,24315,1,0,0:0:0:0:
192,192,24457,1,0,0:0:0:0:
64,192,24527,1,0,0:0:0:0:
320,192,24598,1,0,0:0:0:0:
192,192,24598,1,0,0:0:0:0:
64,192,24740,1,0,0:0:0:0:
320,192,24740,1,0,0:0:0:0:
448,192,24740,1,0,0:0:0:0:
192,192,24881,1,0,0:0:0:0:
320,192,24952,1,0,0:0:0:0:
448,192,25023,1,0,0:0:0:0:
64,192,25023,1,0,0:0:0:0:
448,192,25164,1,0,0:0:0:0:
64,192,25164,1,0,0:0:0:0:
192,192,25164,1,0,0:0:0:0:
320,192,25306,1,0,0:0:0:0:
192,192,25376,1,0,0:0:0:0:
64,192,25447,1,0,0:0:0:0:
320,192,25447,1,0,0:0:0:0:
64,192,25589,1,0,0:0:0:0:
192,192,25589,1,0,0:0:0:0:
448,192,25589,1,0,0:0:0:0:
320,192,25730,1,0,0:0:0:0:
192,192,25801,1,0,0:0:0:0:
64,192,25872,1,0,0:0:0:0:
320,192,25872,1,0,0:0:0:0:
448,192,25872,1,0,0:0:0:0:
192,192,26013,1,0,0:0:0:0:
320,192,26013,1,0,0:0:0:0:
192,192,26155,1,0,0:0:0:0:
64,192,26155,1,0,0:0:0:0:
448,192,26155,1,0,0:0:0:0:
320,192,26296,1,0,0:0:0:0:
192,192,26367,1,0,0:0:0:0:
448,192,26438,1,0,0:0:0:0:
320,192,26438,1,0,0:0:0:0:
64,192,26579,1,0,0:0:0:0:
192,192,26579,1,0,0:0:0:0:
448,192,26579,1,0,0:0:0:0:
64,192,26721,1,0,0:0:0:0:
192,192,26862,1,0,0:0:0:0:
320,192,26862,1,0,0:0:0:0:
64,192,27004,1,0,0:0:0:0:
192,192,27004,1,0,0:0:0:0:
448,192,27004,1,0,0:0:0:0:
320,192,27145,1,0,0:0:0:0:
64,192,27287,1,0,0:0:0:0:
192,192,27287,1,0,0:0:0:0:
64,192,27428,1,0,0:0:0:0:
320,192,27428,1,0,0:0:0:0:
448,192,27428,1,0,0:0:0:0:
192,192,27570,1,0,0:0:0:0:
320,192,27640,1,0,0:0:0:0:
448,192,27711,1,0,0:0:0:0:
64,192,27711,1,0,0:0:0:0:
192,192,27853,1,0,0:0:0:0:
448,192,27853,1,0,0:0:0:0:
320,192,27994,1,0,0:0:0:0:
64,192,27994,1,0,0:0:0:0:
192,192,28065,1,0,0:0:0:0:
448,192,28136,1,0,0:0:0:0:
320,192,28136,1,0,0:0:0:0:
192,192,28207,1,0,0:0:0:0:
64,192,28277,1,0,0:0:0:0:
448,192,28277,1,0,0:0:0:0:
320,192,28348,1,0,0:0:0:0:
192,192,28419,1,0,0:0:0:0:
64,192,28419,1,0,0:0:0:0:
448,192,28419,1,0,0:0:0:0:
320,192,28560,1,0,0:0:0:0:
64,192,28702,1,0,0:0:0:0:
448,192,28702,1,0,0:0:0:0:
192,192,28702,1,0,0:0:0:0:
192,192,28843,1,0,0:0:0:0:
64,192,28985,1,0,0:0:0:0:
320,192,28985,1,0,0:0:0:0:
448,192,28985,1,0,0:0:0:0:
192,192,29126,1,0,0:0:0:0:
64,192,29268,1,0,0:0:0:0:
448,192,29268,1,0,0:0:0:0:
320,192,29268,1,0,0:0:0:0:
192,192,29339,1,0,0:0:0:0:
320,192,29409,1,0,0:0:0:0:
448,192,29480,1,0,0:0:0:0:
64,192,29551,1,0,0:0:0:0:
192,192,29551,1,0,0:0:0:0:
64,192,29692,1,0,0:0:0:0:
192,192,29834,1,0,0:0:0:0:
448,192,29834,1,0,0:0:0:0:
320,192,29834,1,0,0:0:0:0:
320,192,29975,1,0,0:0:0:0:
64,192,30117,1,0,0:0:0:0:
448,192,30117,1,0,0:0:0:0:
192,192,30117,1,0,0:0:0:0:
192,192,30258,1,0,0:0:0:0:
320,192,30400,1,0,0:0:0:0:
64,192,30400,1,0,0:0:0:0:
448,192,30400,1,0,0:0:0:0:
320,192,30541,1,0,0:0:0:0:
64,192,30683,1,0,0:0:0:0:
192,192,30683,1,0,0:0:0:0:
448,192,30683,1,0,0:0:0:0:
192,192,30824,1,0,0:0:0:0:
320,192,30895,1,0,0:0:0:0:
64,192,30966,1,0,0:0:0:0:
448,192,30966,1,0,0:0:0:0:
192,192,31107,1,0,0:0:0:0:
320,192,31178,1,0,0:0:0:0:
64,192,31249,1,0,0:0:0:0:
448,192,31249,1,0,0:0:0:0:
320,192,31320,1,0,0:0:0:0:
192,192,31390,1,0,0:0:0:0:
448,192,31461,1,0,0:0:0:0:
320,192,31532,1,0,0:0:0:0:
64,192,31532,1,0,0:0:0:0:
192,192,31603,1,0,0:0:0:0:
64,192,31674,1,0,0:0:0:0:
320,192,31744,1,0,0:0:0:0:
192,192,31815,1,0,0:0:0:0:
64,192,31815,1,0,0:0:0:0:
448,192,31815,1,0,0:0:0:0:
192,192,31957,1,0,0:0:0:0:
64,192,31957,1,0,0:0:0:0:
448,192,31957,1,0,0:0:0:0:
320,192,32027,1,0,0:0:0:0:
448,192,32098,1,0,0:0:0:0:
64,192,32240,1,0,0:0:0:0:
192,192,32240,1,0,0:0:0:0:
320,192,32240,1,0,0:0:0:0:
448,192,32310,1,0,0:0:0:0:
320,192,32381,1,0,0:0:0:0:
192,192,32452,1,0,0:0:0:0:
64,192,32523,1,0,0:0:0:0:
448,192,32523,1,0,0:0:0:0:
320,192,32523,1,0,0:0:0:0:
192,192,32593,1,0,0:0:0:0:
64,192,32664,1,0,0:0:0:0:
448,192,32664,1,0,0:0:0:0:
320,192,32664,1,0,0:0:0:0:
192,192,32735,1,0,0:0:0:0:
320,192,32806,1,0,0:0:0:0:
192,192,32876,1,0,0:0:0:0:
64,192,32953,1,0,0:0:0:0:
448,192,32953,1,0,0:0:0:0:
192,192,33036,1,0,0:0:0:0:
320,192,33119,1,0,0:0:0:0:
448,192,33203,1,0,0:0:0:0:
64,192,33286,1,0,0:0:0:0:
320,192,33286,1,0,0:0:0:0:
192,192,33369,1,0,0:0:0:0:
320,192,33453,1,0,0:0:0:0:
448,192,33536,1,0,0:0:0:0:
64,192,33619,1,0,0:0:0:0:
192,192,33619,1,0,0:0:0:0:
448,192,33703,1,0,0:0:0:0:
192,192,33786,1,0,0:0:0:0:
320,192,33869,1,0,0:0:0:0:
448,192,33953,1,0,0:0:0:0:
64,192,33953,1,0,0:0:0:0:
192,192,34036,1,0,0:0:0:0:
320,192,34119,1,0,0:0:0:0:
448,192,34203,1,0,0:0:0:0:
192,192,34286,1,0,0:0:0:0:
64,192,34286,1,0,0:0:0:0:
320,192,34369,1,0,0:0:0:0:
64,192,34453,1,0,0:0:0:0:
192,192,34536,1,0,0:0:0:0:
320,192,34619,1,0,0:0:0:0:
448,192,34619,1,0,0:0:0:0:
64,192,34703,1,0,0:0:0:0:
192,192,34786,1,0,0:0:0:0:
320,192,34869,1,0,0:0:0:0:
448,192,34953,1,0,0:0:0:0:
192,192,34953,1,0,0:0:0:0:
64,192,35036,1,0,0:0:0:0:
192,192,35119,1,0,0:0:0:0:
320,192,35203,1,0,0:0:0:0:
64,192,35286,1,0,0:0:0:0:
448,192,35286,1,0,0:0:0:0:
192,192,35369,1,0,0:0:0:0:
64,192,35453,1,0,0:0:0:0:
320,192,35453,1,0,0:0:0:0:
448,192,35536,1,0,0:0:0:0:
64,192,35619,1,0,0:0:0:0:
192,192,35619,1,0,0:0:0:0:
320,192,35703,1,0,0:0:0:0:
448,192,35786,1,0,0:0:0:0:
192,192,35869,1,0,0:0:0:0:
320,192,35953,1,0,0:0:0:0:
64,192,35953,1,0,0:0:0:0:
448,192,36036,1,0,0:0:0:0:
64,192,36119,1,0,0:0:0:0:
192,192,36175,1,0,0:0:0:0:
320,192,36230,1,0,0:0:0:0:
448,192,36286,1,0,0:0:0:0:
64,192,36286,1,0,0:0:0:0:
192,192,36369,1,0,0:0:0:0:
320,192,36453,1,0,0:0:0:0:
192,192,36536,1,0,0:0:0:0:
64,192,36619,1,0,0:0:0:0:
448,192,36619,1,0,0:0:0:0:
320,192,36702,1,0,0:0:0:0:
192,192,36786,1,0,0:0:0:0:
64,192,36869,1,0,0:0:0:0:
320,192,36952,1,0,0:0:0:0:
448,192,36952,1,0,0:0:0:0:
192,192,37036,1,0,0:0:0:0:
64,192,37119,1,0,0:0:0:0:
320,192,37175,1,0,0:0:0:0:
192,192,37230,1,0,0:0:0:0:
448,192,37286,1,0,0:0:0:0:
320,192,37341,1,0,0:0:0:0:
64,192,37397,1,0,0:0:0:0:
192,192,37452,1,0,0:0:0:0:
448,192,37508,1,0,0:0:0:0:
64,192,37564,1,0,0:0:0:0:
320,192,37619,1,0,0:0:0:0:
192,192,37675,1,0,0:0:0:0:
64,192,37730,1,0,0:0:0:0:
448,192,37786,1,0,0:0:0:0:
320,192,37841,1,0,0:0:0:0:
192,192,37897,1,0,0:0:0:0:
64,192,37952,1,0,0:0:0:0:
320,192,38008,1,0,0:0:0:0:
448,192,38064,1,0,0:0:0:0:
192,192,38119,1,0,0:0:0:0:
320,192,38175,1,0,0:0:0:0:
448,192,38230,1,0,0:0:0:0:
64,192,38286,1,0,0:0:0:0:
192,192,38369,1,0,0:0:0:0:
320,192,38452,1,0,0:0:0:0:
448,192,38452,1,0,0:0:0:0:
64,192,38536,1,0,0:0:0:0:
192,192,38619,1,0,0:0:0:0:
448,192,38619,1,0,0:0:0:0:
64,192,38702,1,0,0:0:0:0:
320,192,38786,1,0,0:0:0:0:
448,192,38786,1,0,0:0:0:0:
192,192,38869,1,0,0:0:0:0:
64,192,38952,1,0,0:0:0:0:
320,192,38952,1,0,0:0:0:0:
448,192,39036,1,0,0:0:0:0:
192,192,39119,1,0,0:0:0:0:
64,192,39119,1,0,0:0:0:0:
320,192,39202,1,0,0:0:0:0:
448,192,39286,1,0,0:0:0:0:
192,192,39286,1,0,0:0:0:0:
64,192,39369,1,0,0:0:0:0:
320,192,39452,1,0,0:0:0:0:
192,192,39452,1,0,0:0:0:0:
448,192,39536,1,0,0:0:0:0:
64,192,39619,1,0,0:0:0:0:
320,192,39619,1,0,0:0:0:0:
192,192,39702,1,0,0:0:0:0:
64,192,39786,1,0,0:0:0:0:
448,192,39786,1,0,0:0:0:0:
320,192,39869,1,0,0:0:0:0:
192,192,39952,1,0,0:0:0:0:
448,192,39952,1,0,0:0:0:0:
64,192,40036,1,0,0:0:0:0:
192,192,40119,1,0,0:0:0:0:
320,192,40119,1,0,0:0:0:0:
448,192,40202,1,0,0:0:0:0:
64,192,40286,1,0,0:0:0:0:
320,192,40286,1,0,0:0:0:0:
192,192,40369,1,0,0:0:0:0:
448,192,40452,1,0,0:0:0:0:
64,192,40452,1,0,0:0:0:0:
320,192,40508,1,0,0:0:0:0:
192,192,40564,1,0,0:0:0:0:
64,192,40619,1,0,0:0:0:0:
448,192,40619,1,0,0:0:0:0:
320,192,40675,1,0,0:0:0:0:
192,192,40730,1,0,0:0:0:0:
64,192,40786,1,0,0:0:0:0:
192,192,40841,1,0,0:0:0:0:
320,192,40897,1,0,0:0:0:0:
448,192,40952,1,0,0:0:0:0:
192,192,41008,1,0,0:0:0:0:
64,192,41064,1,0,0:0:0:0:
320,192,41119,1,0,0:0:0:0:
192,192,41175,1,0,0:0:0:0:
64,192,41230,1,0,0:0:0:0:
448,192,41286,1,0,0:0:0:0:
320,192,41341,1,0,0:0:0:0:
192,192,41397,1,0,0:0:0:0:
64,192,41452,1,0,0:0:0:0:
448,192,41508,1,0,0:0:0:0:
320,192,41564,1,0,0:0:0:0:
64,192,41619,1,0,0:0:0:0:
448,192,41675,1,0,0:0:0:0:
192,192,41730,1,0,0:0:0:0:
320,192,41786,1,0,0:0:0:0:
64,192,41841,1,0,0:0:0:0:
448,192,41897,1,0,0:0:0:0:
320,192,41952,1,0,0:0:0:0:
192,192,42008,1,0,0:0:0:0:
448,192,42064,1,0,0:0:0:0:
64,192,42119,1,0,0:0:0:0:
320,192,42175,1,0,0:0:0:0:
192,192,42230,1,0,0:0:0:0:
64,192,42286,1,0,0:0:0:0:
448,192,42286,1,0,0:0:0:0:
320,192,42341,1,0,0:0:0:0:
192,192,42397,1,0,0:0:0:0:
320,192,42452,1,0,0:0:0:0:
64,192,42508,1,0,0:0:0:0:
192,192,42564,1,0,0:0:0:0:
448,192,42619,1,0,0:0:0:0:
64,192,42675,1,0,0:0:0:0:
320,192,42730,1,0,0:0:0:0:
192,192,42786,1,0,0:0:0:0:
320,192,42841,1,0,0:0:0:0:
448,192,42897,1,0,0:0:0:0:
64,192,42952,1,0,0:0:0:0:
192,192,43008,1,0,0:0:0:0:
448,192,43064,1,0,0:0:0:0:
320,192,43119,1,0,0:0:0:0:
64,192,43175,1,0,0:0:0:0:
448,192,43230,1,0,0:0:0:0:
192,192,43286,1,0,0:0:0:0:
320,192,43341,1,0,0:0:0:0:
448,192,43397,1,0,0:0:0:0:
64,192,43452,1,0,0:0:0:0:
192,192,43508,1,0,0:0:0:0:
320,192,43564,1,0,0:0:0:0:
64,192,43625,1,0,0:0:0:0:
448,192,43625,1,0,0:0:0:0:
192,192,43625,1,0,0:0:0:0:
320,192,43712,1,0,0:0:0:0:
192,192,43799,1,0,0:0:0:0:
64,192,43886,1,0,0:0:0:0:
320,192,43973,1,0,0:0:0:0:
448,192,43973,1,0,0:0:0:0:
192,192,44061,1,0,0:0:0:0:
448,192,44148,1,0,0:0:0:0:
320,192,44235,1,0,0:0:0:0:
64,192,44322,1,0,0:0:0:0:
192,192,44322,1,0,0:0:0:0:
448,192,44409,1,0,0:0:0:0:
192,192,44497,1,0,0:0:0:0:
64,192,44584,1,0,0:0:0:0:
320,192,44671,1,0,0:0:0:0:
448,192,44671,1,0,0:0:0:0:
192,192,44758,1,0,0:0:0:0:
320,192,44845,1,0,0:0:0:0:
448,192,44933,1,0,0:0:0:0:
64,192,45020,1,0,0:0:0:0:
320,192,45020,1,0,0:0:0:0:
192,192,45194,1,0,0:0:0:0:
320,192,45281,1,0,0:0:0:0:
448,192,45369,1,0,0:0:0:0:
64,192,45456,1,0,0:0:0:0:
192,192,45543,1,0,0:0:0:0:
64,192,45630,1,0,0:0:0:0:
320,192,45718,1,0,0:0:0:0:
64,192,45805,1,0,0:0:0:0:
448,192,45892,1,0,0:0:0:0:
64,192,45979,1,0,0:0:0:0:
192,192,46066,1,0,0:0:0:0:
64,192,46154,1,0,0:0:0:0:
320,192,46241,1,0,0:0:0:0:
64,192,46328,1,0,0:0:0:0:
192,192,46415,1,0,0:0:0:0:
448,192,46415,1,0,0:0:0:0:
320,192,46502,1,0,0:0:0:0:
64,192,46590,1,0,0:0:0:0:
448,192,46590,1,0,0:0:0:0:
192,192,46677,1,0,0:0:0:0:
320,192,46764,1,0,0:0:0:0:
448,192,46764,1,0,0:0:0:0:
64,192,46851,1,0,0:0:0:0:
192,192,46938,1,0,0:0:0:0:
320,192,46938,1,0,0:0:0:0:
448,192,47026,1,0,0:0:0:0:
64,192,47113,1,0,0:0:0:0:
320,192,47113,1,0,0:0:0:0:
192,192,47200,1,0,0:0:0:0:
320,192,47287,1,0,0:0:0:0:
448,192,47287,1,0,0:0:0:0:
64,192,47375,1,0,0:0:0:0:
320,192,47462,1,0,0:0:0:0:
448,192,47462,1,0,0:0:0:0:
192,192,47520,1,0,0:0:0:0:
64,192,47578,1,0,0:0:0:0:
320,192,47636,1,0,0:0:0:0:
192,192,47694,1,0,0:0:0:0:
320,192,47752,1,0,0:0:0:0:
448,192,47811,1,0,0:0:0:0:
64,192,47811,1,0,0:0:0:0:
320,192,48072,1,0,0:0:0:0:
192,192,48334,1,0,0:0:0:0:
64,192,48421,1,0,0:0:0:0:
320,192,48508,1,0,0:0:0:0:
448,192,48508,1,0,0:0:0:0:
64,192,48595,1,0,0:0:0:0:
448,192,48683,1,0,0:0:0:0:
64,192,48770,1,0,0:0:0:0:
320,192,48857,1,0,0:0:0:0:
64,192,48944,1,0,0:0:0:0:
192,192,49031,1,0,0:0:0:0:
64,192,49119,1,0,0:0:0:0:
320,192,49206,1,0,0:0:0:0:
448,192,49206,1,0,0:0:0:0:
192,192,49293,1,0,0:0:0:0:
320,192,49380,1,0,0:0:0:0:
64,192,49468,1,0,0:0:0:0:
192,192,49555,1,0,0:0:0:0:
448,192,49555,1,0,0:0:0:0:
64,192,49642,1,0,0:0:0:0:
320,192,49729,1,0,0:0:0:0:
448,192,49816,1,0,0:0:0:0:
64,192,49904,1,0,0:0:0:0:
320,192,49904,1,0,0:0:0:0:
192,192,50078,1,0,0:0:0:0:
448,192,50078,1,0,0:0:0:0:
64,192,50252,1,0,0:0:0:0:
320,192,50252,1,0,0:0:0:0:
192,192,50427,1,0,0:0:0:0:
64,192,50601,1,0,0:0:0:0:
320,192,50601,1,0,0:0:0:0:
448,192,50601,1,0,0:0:0:0:
192,192,50950,1,0,0:0:0:0:
448,192,50950,1,0,0:0:0:0:
64,192,51037,1,0,0:0:0:0:
320,192,51125,1,0,0:0:0:0:
448,192,51212,1,0,0:0:0:0:
320,192,51299,1,0,0:0:0:0:
64,192,51299,1,0,0:0:0:0:
192,192,51299,1,0,0:0:0:0:
192,192,51473,1,0,0:0:0:0:
320,192,51561,1,0,0:0:0:0:
448,192,51561,1,0,0:0:0:0:
64,192,51648,1,0,0:0:0:0:
192,192,51648,1,0,0:0:0:0:
448,192,51822,1,0,0:0:0:0:
320,192,51822,1,0,0:0:0:0:
320,192,51909,1,0,0:0:0:0:
64,192,51997,1,0,0:0:0:0:
192,192,51997,1,0,0:0:0:0:
448,192,51997,1,0,0:0:0:0:
64,192,52171,1,0,0:0:0:0:
192,192,52215,1,0,0:0:0:0:
320,192,52258,1,0,0:0:0:0:
448,192,52302,1,0,0:0:0:0:
64,192,52345,1,0,0:0:0:0:
192,192,52389,1,0,0:0:0:0:
448,192,52433,1,0,0:0:0:0:
320,192,52476,1,0,0:0:0:0:
192,192,52520,1,0,0:0:0:0:
64,192,52563,1,0,0:0:0:0:
448,192,52607,1,0,0:0:0:0:
320,192,52651,1,0,0:0:0:0:
192,192,52694,1,0,0:0:0:0:
64,192,52694,1,0,0:0:0:0:
448,192,52781,1,0,0:0:0:0:
64,192,52869,1,0,0:0:0:0:
192,192,52912,1,0,0:0:0:0:
320,192,52956,1,0,0:0:0:0:
448,192,53000,1,0,0:0:0:0:
64,192,53043,1,0,0:0:0:0:
192,192,53087,1,0,0:0:0:0:
448,192,53130,1,0,0:0:0:0:
320,192,53174,1,0,0:0:0:0:
192,192,53218,1,0,0:0:0:0:
64,192,53261,1,0,0:0:0:0:
448,192,53305,1,0,0:0:0:0:
320,192,53348,1,0,0:0:0:0:
192,192,53392,1,0,0:0:0:0:
64,192,53392,1,0,0:0:0:0:
320,192,53479,1,0,0:0:0:0:
64,192,53566,1,0,0:0:0:0:
192,192,53610,1,0,0:0:0:0:
320,192,53654,1,0,0:0:0:0:
448,192,53697,1,0,0:0:0:0:
64,192,53741,1,0,0:0:0:0:
192,192,53784,1,0,0:0:0:0:
448,192,53828,1,0,0:0:0:0:
320,192,53872,1,0,0:0:0:0:
192,192,53915,1,0,0:0:0:0:
64,192,53959,1,0,0:0:0:0:
448,192,54002,1,0,0:0:0:0:
320,192,54046,1,0,0:0:0:0:
192,192,54090,1,0,0:0:0:0:
64,192,54090,1,0,0:0:0:0:
320,192,54177,1,0,0:0:0:0:
448,192,54264,1,0,0:0:0:0:
192,192,54264,1,0,0:0:0:0:
64,192,54351,1,0,0:0:0:0:
320,192,54438,1,0,0:0:0:0:
448,192,54438,1,0,0:0:0:0:
192,192,54526,1,0,0:0:0:0:
64,192,54613,1,0,0:0:0:0:
448,192,54613,1,0,0:0:0:0:
320,192,54700,1,0,0:0:0:0:
192,192,54700,1,0,0:0:0:0:
64,192,54787,1,0,0:0:0:0:
448,192,54787,128,0,55068:0:0:0:0:
320,192,54880,1,0,0:0:0:0:
320,192,54974,1,0,0:0:0:0:
192,192,55068,128,0,55349:0:0:0:0:
64,192,55068,1,0,0:0:0:0:
320,192,55162,1,0,0:0:0:0:
448,192,55162,1,0,0:0:0:0:
64,192,55255,1,0,0:0:0:0:
448,192,55349,128,0,55537:0:0:0:0:
320,192,55349,1,0,0:0:0:0:
192,192,55443,1,0,0:0:0:0:
64,192,55443,1,0,0:0:0:0:
64,192,55537,128,0,56099:0:0:0:0:
192,192,55537,1,0,0:0:0:0:
448,192,55630,1,0,0:0:0:0:
320,192,55724,1,0,0:0:0:0:
192,192,55724,1,0,0:0:0:0:
320,192,55818,1,0,0:0:0:0:
192,192,55912,1,0,0:0:0:0:
448,192,55912,1,0,0:0:0:0:
320,192,56099,128,0,56287:0:0:0:0:
192,192,56099,1,0,0:0:0:0:
64,192,56193,1,0,0:0:0:0:
192,192,56287,128,0,56568:0:0:0:0:
448,192,56287,1,0,0:0:0:0:
64,192,56287,1,0,0:0:0:0:
320,192,56380,1,0,0:0:0:0:
448,192,56474,1,0,0:0:0:0:
320,192,56568,128,0,56849:0:0:0:0:
64,192,56568,1,0,0:0:0:0:
192,192,56662,1,0,0:0:0:0:
448,192,56662,1,0,0:0:0:0:
64,192,56755,1,0,0:0:0:0:
448,192,56849,128,0,57224:0:0:0:0:
192,192,56849,1,0,0:0:0:0:
64,192,56943,1,0,0:0:0:0:
320,192,57037,1,0,0:0:0:0:
192,192,57037,1,0,0:0:0:0:
64,192,57130,1,0,0:0:0:0:
320,192,57224,128,0,57599:0:0:0:0:
192,192,57224,1,0,0:0:0:0:
192,192,57318,1,0,0:0:0:0:
64,192,57412,1,0,0:0:0:0:
448,192,57412,1,0,0:0:0:0:
192,192,57599,128,0,57787:0:0:0:0:
448,192,57599,1,0,0:0:0:0:
320,192,57693,1,0,0:0:0:0:
448,192,57787,128,0,58068:0:0:0:0:
64,192,57787,1,0,0:0:0:0:
320,192,57787,1,0,0:0:0:0:
192,192,57880,1,0,0:0:0:0:
64,192,57974,1,0,0:0:0:0:
320,192,58068,128,0,58349:0:0:0:0:
192,192,58068,1,0,0:0:0:0:
448,192,58162,1,0,0:0:0:0:
64,192,58162,1,0,0:0:0:0:
192,192,58255,1,0,0:0:0:0:
448,192,58349,128,0,58537:0:0:0:0:
64,192,58349,1,0,0:0:0:0:
192,192,58443,1,0,0:0:0:0:
320,192,58443,1,0,0:0:0:0:
64,192,58537,128,0,58912:0:0:0:0:
320,192,58537,1,0,0:0:0:0:
192,192,58630,1,0,0:0:0:0:
448,192,58724,1,0,0:0:0:0:
320,192,58818,1,0,0:0:0:0:
192,192,58912,128,0,59849:0:0:0:0:
448,192,58912,1,0,0:0:0:0:
320,192,58912,1,0,0:0:0:0:
64,192,59005,1,0,0:0:0:0:
448,192,59099,1,0,0:0:0:0:
320,192,59193,1,0,0:0:0:0:
64,192,59287,1,0,0:0:0:0:
448,192,59287,1,0,0:0:0:0:
320,192,59380,1,0,0:0:0:0:
448,192,59474,1,0,0:0:0:0:
64,192,59568,1,0,0:0:0:0:
320,192,59662,1,0,0:0:0:0:
448,192,59662,1,0,0:0:0:0:
64,192,59755,1,0,0:0:0:0:
320,192,59849,128,0,60412:0:0:0:0:
448,192,59849,1,0,0:0:0:0:
192,192,59943,1,0,0:0:0:0:
64,192,60037,1,0,0:0:0:0:
448,192,60037,1,0,0:0:0:0:
192,192,60130,1,0,0:0:0:0:
64,192,60224,1,0,0:0:0:0:
448,192,60224,1,0,0:0:0:0:
192,192,60318,1,0,0:0:0:0:
64,192,60412,128,0,60693:0:0:0:0:
448,192,60412,1,0,0:0:0:0:
192,192,60412,1,0,0:0:0:0:
320,192,60505,1,0,0:0:0:0:
192,192,60599,1,0,0:0:0:0:
320,192,60693,1,0,0:0:0:0:
64,192,60787,1,0,0:0:0:0:
192,192,60787,1,0,0:0:0:0:
448,192,60787,1,0,0:0:0:0:
320,192,60787,1,0,0:0:0:0:
192,192,60870,1,0,0:0:0:0:
320,192,60953,1,0,0:0:0:0:
448,192,60953,1,0,0:0:0:0:
64,192,61037,1,0,0:0:0:0:
192,192,61120,1,0,0:0:0:0:
320,192,61120,1,0,0:0:0:0:
448,192,61120,1,0,0:0:0:0:
320,192,61203,1,0,0:0:0:0:
192,192,61287,1,0,0:0:0:0:
64,192,61287,1,0,0:0:0:0:
448,192,61370,1,0,0:0:0:0:
320,192,61370,1,0,0:0:0:0:
448,192,61453,1,0,0:0:0:0:
320,192,61453,1,0,0:0:0:0:
192,192,61453,1,0,0:0:0:0:
64,192,61453,1,0,0:0:0:0:
192,192,61537,1,0,0:0:0:0:
64,192,61620,1,0,0:0:0:0:
448,192,61620,1,0,0:0:0:0:
320,192,61703,1,0,0:0:0:0:
192,192,61787,1,0,0:0:0:0:
64,192,61787,1,0,0:0:0:0:
448,192,61787,1,0,0:0:0:0:
320,192,61870,1,0,0:0:0:0:
320,192,61953,1,0,0:0:0:0:
448,192,61953,1,0,0:0:0:0:
192,192,62037,1,0,0:0:0:0:
64,192,62037,1,0,0:0:0:0:
64,192,62120,1,0,0:0:0:0:
192,192,62120,1,0,0:0:0:0:
320,192,62120,1,0,0:0:0:0:
448,192,62120,1,0,0:0:0:0:
448,192,62203,1,0,0:0:0:0:
64,192,62287,1,0,0:0:0:0:
320,192,62287,1,0,0:0:0:0:
192,192,62370,1,0,0:0:0:0:
320,192,62453,1,0,0:0:0:0:
448,192,62453,1,0,0:0:0:0:
64,192,62453,1,0,0:0:0:0:
192,192,62537,1,0,0:0:0:0:
320,192,62620,1,0,0:0:0:0:
448,192,62620,1,0,0:0:0:0:
192,192,62703,1,0,0:0:0:0:
64,192,62703,1,0,0:0:0:0:
64,192,62787,1,0,0:0:0:0:
192,192,62787,1,0,0:0:0:0:
320,192,62787,1,0,0:0:0:0:
448,192,62787,1,0,0:0:0:0:
320,192,62870,1,0,0:0:0:0:
448,192,62953,1,0,0:0:0:0:
64,192,62953,1,0,0:0:0:0:
192,192,63037,1,0,0:0:0:0:
320,192,63120,1,0,0:0:0:0:
448,192,63120,1,0,0:0:0:0:
64,192,63120,1,0,0:0:0:0:
448,192,63203,1,0,0:0:0:0:
192,192,63287,1,0,0:0:0:0:
64,192,63287,1,0,0:0:0:0:
320,192,63370,1,0,0:0:0:0:
448,192,63370,1,0,0:0:0:0:
64,192,63453,1,0,0:0:0:0:
192,192,63453,1,0,0:0:0:0:
320,192,63453,1,0,0:0:0:0:
448,192,63453,1,0,0:0:0:0:
64,192,63537,1,0,0:0:0:0:
192,192,63620,1,0,0:0:0:0:
448,192,63620,1,0,0:0:0:0:
64,192,63703,1,0,0:0:0:0:
320,192,63787,1,0,0:0:0:0:
448,192,63787,1,0,0:0:0:0:
192,192,63787,1,0,0:0:0:0:
320,192,63870,1,0,0:0:0:0:
64,192,63953,1,0,0:0:0:0:
192,192,63953,1,0,0:0:0:0:
320,192,64037,1,0,0:0:0:0:
448,192,64037,1,0,0:0:0:0:
448,192,64120,1,0,0:0:0:0:
320,192,64120,1,0,0:0:0:0:
192,192,64120,1,0,0:0:0:0:
64,192,64120,1,0,0:0:0:0:
192,192,64203,1,0,0:0:0:0:
320,192,64287,1,0,0:0:0:0:
64,192,64287,1,0,0:0:0:0:
192,192,64370,1,0,0:0:0:0:
320,192,64453,1,0,0:0:0:0:
448,192,64453,1,0,0:0:0:0:
64,192,64453,1,0,0:0:0:0:
64,192,64536,1,0,0:0:0:0:
320,192,64620,1,0,0:0:0:0:
448,192,64620,1,0,0:0:0:0:
192,192,64703,1,0,0:0:0:0:
64,192,64703,1,0,0:0:0:0:
64,192,64786,1,0,0:0:0:0:
192,192,64786,1,0,0:0:0:0:
320,192,64786,1,0,0:0:0:0:
448,192,64786,1,0,0:0:0:0:
320,192,64870,1,0,0:0:0:0:
192,192,64953,1,0,0:0:0:0:
448,192,64953,1,0,0:0:0:0:
64,192,65036,1,0,0:0:0:0:
320,192,65120,1,0,0:0:0:0:
448,192,65120,1,0,0:0:0:0:
192,192,65120,1,0,0:0:0:0:
320,192,65203,1,0,0:0:0:0:
64,192,65286,1,0,0:0:0:0:
192,192,65286,1,0,0:0:0:0:
448,192,65370,1,0,0:0:0:0:
320,192,65370,1,0,0:0:0:0:
64,192,65453,1,0,0:0:0:0:
192,192,65453,1,0,0:0:0:0:
320,192,65453,1,0,0:0:0:0:
448,192,65453,1,0,0:0:0:0:
192,192,65537,1,0,0:0:0:0:
64,192,65620,1,0,0:0:0:0:
448,192,65620,1,0,0:0:0:0:
320,192,65703,1,0,0:0:0:0:
64,192,65787,1,0,0:0:0:0:
448,192,65787,1,0,0:0:0:0:
320,192,65787,1,0,0:0:0:0:
192,192,65870,1,0,0:0:0:0:
320,192,65953,1,0,0:0:0:0:
448,192,65953,1,0,0:0:0:0:
192,192,66037,1,0,0:0:0:0:
64,192,66037,1,0,0:0:0:0:
64,192,66120,1,0,0:0:0:0:
192,192,66120,1,0,0:0:0:0:
320,192,66120,1,0,0:0:0:0:
448,192,66120,1,0,0:0:0:0:
320,192,66203,1,0,0:0:0:0:
192,192,66287,1,0,0:0:0:0:
64,192,66287,1,0,0:0:0:0:
448,192,66370,1,0,0:0:0:0:
320,192,66453,1,0,0:0:0:0:
192,192,66453,1,0,0:0:0:0:
64,192,66453,1,0,0:0:0:0:
320,192,66537,1,0,0:0:0:0:
192,192,66620,1,0,0:0:0:0:
448,192,66620,1,0,0:0:0:0:
64,192,66703,1,0,0:0:0:0:
320,192,66703,1,0,0:0:0:0:
320,192,66787,1,0,0:0:0:0:
192,192,66787,1,0,0:0:0:0:
64,192,66787,1,0,0:0:0:0:
448,192,66787,1,0,0:0:0:0:
192,192,66870,1,0,0:0:0:0:
320,192,66953,1,0,0:0:0:0:
448,192,66953,1,0,0:0:0:0:
64,192,67037,1,0,0:0:0:0:
192,192,67120,1,0,0:0:0:0:
320,192,67120,1,0,0:0:0:0:
448,192,67120,1,0,0:0:0:0:
192,192,67203,1,0,0:0:0:0:
320,192,67287,1,0,0:0:0:0:
448,192,67287,1,0,0:0:0:0:
192,192,67370,1,0,0:0:0:0:
64,192,67370,1,0,0:0:0:0:
64,192,67453,1,0,0:0:0:0:
192,192,67453,1,0,0:0:0:0:
320,192,67453,1,0,0:0:0:0:
448,192,67453,1,0,0:0:0:0:
320,192,67537,1,0,0:0:0:0:
448,192,67620,1,0,0:0:0:0:
64,192,67620,1,0,0:0:0:0:
192,192,67703,1,0,0:0:0:0:
320,192,67787,1,0,0:0:0:0:
448,192,67787,1,0,0:0:0:0:
64,192,67787,1,0,0:0:0:0:
64,192,67870,1,0,0:0:0:0:
320,192,67953,1,0,0:0:0:0:
448,192,67953,1,0,0:0:0:0:
192,192,68036,1,0,0:0:0:0:
64,192,68036,1,0,0:0:0:0:
64,192,68120,1,0,0:0:0:0:
192,192,68120,1,0,0:0:0:0:
320,192,68120,1,0,0:0:0:0:
448,192,68120,1,0,0:0:0:0:
448,192,68203,1,0,0:0:0:0:
64,192,68286,1,0,0:0:0:0:
192,192,68286,1,0,0:0:0:0:
320,192,68370,1,0,0:0:0:0:
192,192,68453,1,0,0:0:0:0:
64,192,68453,1,0,0:0:0:0:
448,192,68453,1,0,0:0:0:0:
448,192,68536,1,0,0:0:0:0:
64,192,68620,1,0,0:0:0:0:
192,192,68620,1,0,0:0:0:0:
320,192,68703,1,0,0:0:0:0:
448,192,68703,1,0,0:0:0:0:
448,192,68786,1,0,0:0:0:0:
320,192,68786,1,0,0:0:0:0:
192,192,68786,1,0,0:0:0:0:
64,192,68786,1,0,0:0:0:0:
192,192,68870,1,0,0:0:0:0:
320,192,68953,1,0,0:0:0:0:
448,192,68953,1,0,0:0:0:0:
64,192,69036,1,0,0:0:0:0:
192,192,69120,1,0,0:0:0:0:
320,192,69120,1,0,0:0:0:0:
448,192,69120,1,0,0:0:0:0:
192,192,69203,1,0,0:0:0:0:
64,192,69286,1,0,0:0:0:0:
320,192,69286,1,0,0:0:0:0:
192,192,69370,1,0,0:0:0:0:
448,192,69370,1,0,0:0:0:0:
448,192,69453,1,0,0:0:0:0:
320,192,69453,1,0,0:0:0:0:
192,192,69453,1,0,0:0:0:0:
64,192,69453,1,0,0:0:0:0:
320,192,69536,1,0,0:0:0:0:
64,192,69620,1,0,0:0:0:0:
192,192,69620,1,0,0:0:0:0:
320,192,69703,1,0,0:0:0:0:
448,192,69786,1,0,0:0:0:0:
192,192,69786,1,0,0:0:0:0:
64,192,69786,1,0,0:0:0:0:
320,192,69870,1,0,0:0:0:0:
448,192,69953,1,0,0:0:0:0:
320,192,69953,1,0,0:0:0:0:
192,192,70036,1,0,0:0:0:0:
64,192,70036,1,0,0:0:0:0:
64,192,70120,1,0,0:0:0:0:
192,192,70120,1,0,0:0:0:0:
320,192,70120,1,0,0:0:0:0:
448,192,70120,1,0,0:0:0:0:
320,192,70203,1,0,0:0:0:0:
192,192,70286,1,0,0:0:0:0:
64,192,70286,1,0,0:0:0:0:
320,192,70370,1,0,0:0:0:0:
448,192,70370,1,0,0:0:0:0:
64,192,70453,1,0,0:0:0:0:
192,192,70453,1,0,0:0:0:0:
320,192,70453,1,0,0:0:0:0:
448,192,70453,1,0,0:0:0:0:
192,192,70536,1,0,0:0:0:0:
320,192,70620,1,0,0:0:0:0:
448,192,70620,1,0,0:0:0:0:
192,192,70703,1,0,0:0:0:0:
64,192,70703,1,0,0:0:0:0:
192,192,70786,1,0,0:0:0:0:
64,192,70786,1,0,0:0:0:0:
320,192,70786,1,0,0:0:0:0:
448,192,70786,1,0,0:0:0:0:
320,192,70870,1,0,0:0:0:0:
192,192,70953,1,0,0:0:0:0:
64,192,70953,1,0,0:0:0:0:
320,192,71036,1,0,0:0:0:0:
448,192,71036,1,0,0:0:0:0:
320,192,71120,1,0,0:0:0:0:
192,192,71120,1,0,0:0:0:0:
64,192,71120,1,0,0:0:0:0:
448,192,71120,1,0,0:0:0:0:
192,192,71203,1,0,0:0:0:0:
64,192,71203,1,0,0:0:0:0:
448,192,71203,1,0,0:0:0:0:
64,192,71286,1,0,0:0:0:0:
192,192,71286,1,0,0:0:0:0:
448,192,71286,1,0,0:0:0:0:
192,192,71370,1,0,0:0:0:0:
64,192,71370,1,0,0:0:0:0:
448,192,71370,1,0,0:0:0:0:
64,192,71453,1,0,0:0:0:0:
192,192,71453,1,0,0:0:0:0:
448,192,71453,1,0,0:0:0:0:
320,192,71570,1,0,0:0:0:0:
192,192,71628,1,0,0:0:0:0:
64,192,71687,1,0,0:0:0:0:
320,192,71687,1,0,0:0:0:0:
448,192,71687,1,0,0:0:0:0:
192,192,71804,1,0,0:0:0:0:
64,192,71804,1,0,0:0:0:0:
448,192,71804,1,0,0:0:0:0:
320,192,71921,1,0,0:0:0:0:
192,192,71980,1,0,0:0:0:0:
320,192,72038,1,0,0:0:0:0:
64,192,72038,1,0,0:0:0:0:
192,192,72156,1,0,0:0:0:0:
448,192,72156,1,0,0:0:0:0:
64,192,72273,1,0,0:0:0:0:
192,192,72273,1,0,0:0:0:0:
320,192,72331,1,0,0:0:0:0:
448,192,72390,1,0,0:0:0:0:
64,192,72390,1,0,0:0:0:0:
192,192,72449,1,0,0:0:0:0:
320,192,72507,1,0,0:0:0:0:
448,192,72507,1,0,0:0:0:0:
192,192,72566,1,0,0:0:0:0:
64,192,72624,1,0,0:0:0:0:
320,192,72624,1,0,0:0:0:0:
192,192,72742,1,0,0:0:0:0:
448,192,72742,1,0,0:0:0:0:
64,192,72800,1,0,0:0:0:0:
320,192,72859,1,0,0:0:0:0:
192,192,72859,1,0,0:0:0:0:
320,192,72976,1,0,0:0:0:0:
448,192,72976,1,0,0:0:0:0:
64,192,73035,1,0,0:0:0:0:
192,192,73093,1,0,0:0:0:0:
448,192,73093,1,0,0:0:0:0:
320,192,73152,1,0,0:0:0:0:
64,192,73210,1,0,0:0:0:0:
192,192,73210,1,0,0:0:0:0:
320,192,73269,1,0,0:0:0:0:
448,192,73328,1,0,0:0:0:0:
64,192,73328,1,0,0:0:0:0:
192,192,73445,1,0,0:0:0:0:
64,192,73503,1,0,0:0:0:0:
192,192,73562,1,0,0:0:0:0:
320,192,73562,1,0,0:0:0:0:
448,192,73562,1,0,0:0:0:0:
320,192,73679,1,0,0:0:0:0:
448,192,73679,1,0,0:0:0:0:
64,192,73679,1,0,0:0:0:0:
192,192,73796,1,0,0:0:0:0:
64,192,73855,1,0,0:0:0:0:
192,192,73913,1,0,0:0:0:0:
320,192,73913,1,0,0:0:0:0:
448,192,74031,1,0,0:0:0:0:
320,192,74031,1,0,0:0:0:0:
192,192,74148,1,0,0:0:0:0:
448,192,74148,1,0,0:0:0:0:
64,192,74206,1,0,0:0:0:0:
192,192,74265,1,0,0:0:0:0:
320,192,74265,1,0,0:0:0:0:
448,192,74324,1,0,0:0:0:0:
64,192,74382,1,0,0:0:0:0:
320,192,74382,1,0,0:0:0:0:
448,192,74441,1,0,0:0:0:0:
192,192,74499,1,0,0:0:0:0:
64,192,74499,1,0,0:0:0:0:
320,192,74558,1,0,0:0:0:0:
448,192,74617,1,0,0:0:0:0:
192,192,74617,1,0,0:0:0:0:
64,192,74675,1,0,0:0:0:0:
320,192,74734,1,0,0:0:0:0:
448,192,74734,1,0,0:0:0:0:
192,192,74851,1,0,0:0:0:0:
64,192,74851,1,0,0:0:0:0:
320,192,74968,1,0,0:0:0:0:
448,192,74968,1,0,0:0:0:0:
192,192,75027,1,0,0:0:0:0:
320,192,75085,1,0,0:0:0:0:
192,192,75144,1,0,0:0:0:0:
64,192,75203,1,0,0:0:0:0:
448,192,75203,1,0,0:0:0:0:
320,192,75320,1,0,0:0:0:0:
192,192,75378,1,0,0:0:0:0:
64,192,75437,1,0,0:0:0:0:
320,192,75437,1,0,0:0:0:0:
448,192,75437,1,0,0:0:0:0:
192,192,75554,1,0,0:0:0:0:
64,192,75554,1,0,0:0:0:0:
448,192,75554,1,0,0:0:0:0:
320,192,75671,1,0,0:0:0:0:
192,192,75730,1,0,0:0:0:0:
64,192,75788,1,0,0:0:0:0:
448,192,75788,1,0,0:0:0:0:
192,192,75906,1,0,0:0:0:0:
320,192,75906,1,0,0:0:0:0:
64,192,76023,1,0,0:0:0:0:
448,192,76023,1,0,0:0:0:0:
320,192,76081,1,0,0:0:0:0:
192,192,76140,1,0,0:0:0:0:
64,192,76140,1,0,0:0:0:0:
448,192,76199,1,0,0:0:0:0:
320,192,76257,1,0,0:0:0:0:
192,192,76257,1,0,0:0:0:0:
448,192,76316,1,0,0:0:0:0:
64,192,76374,1,0,0:0:0:0:
320,192,76374,1,0,0:0:0:0:
448,192,76492,1,0,0:0:0:0:
192,192,76492,1,0,0:0:0:0:
64,192,76550,1,0,0:0:0:0:
320,192,76609,1,0,0:0:0:0:
448,192,76609,1,0,0:0:0:0:
192,192,76667,1,0,0:0:0:0:
64,192,76726,1,0,0:0:0:0:
320,192,76726,1,0,0:0:0:0:
448,192,76785,1,0,0:0:0:0:
192,192,76843,1,0,0:0:0:0:
64,192,76843,1,0,0:0:0:0:
320,192,76902,1,0,0:0:0:0:
192,192,76960,1,0,0:0:0:0:
320,192,77019,1,0,0:0:0:0:
64,192,77078,1,0,0:0:0:0:
448,192,77078,1,0,0:0:0:0:
64,192,77253,1,0,0:0:0:0:
448,192,77253,1,0,0:0:0:0:
64,192,77429,1,0,0:0:0:0:
448,192,77429,1,0,0:0:0:0:
192,192,77546,1,0,0:0:0:0:
320,192,77546,1,0,0:0:0:0:
192,192,77722,1,0,0:0:0:0:
320,192,77722,1,0,0:0:0:0:
192,192,77898,1,0,0:0:0:0:
320,192,77898,1,0,0:0:0:0:
448,192,78015,1,0,0:0:0:0:
320,192,78015,1,0,0:0:0:0:
192,192,78074,1,0,0:0:0:0:
64,192,78074,1,0,0:0:0:0:
448,192,78132,1,0,0:0:0:0:
64,192,78191,1,0,0:0:0:0:
192,192,78191,1,0,0:0:0:0:
320,192,78249,1,0,0:0:0:0:
448,192,78249,1,0,0:0:0:0:
64,192,78308,1,0,0:0:0:0:
320,192,78367,1,0,0:0:0:0:
448,192,78367,1,0,0:0:0:0:
192,192,78425,1,0,0:0:0:0:
64,192,78425,1,0,0:0:0:0:
320,192,78484,1,0,0:0:0:0:
64,192,78542,1,0,0:0:0:0:
192,192,78542,1,0,0:0:0:0:
320,192,78601,1,0,0:0:0:0:
448,192,78601,1,0,0:0:0:0:
192,192,78660,1,0,0:0:0:0:
320,192,78718,1,0,0:0:0:0:
448,192,78718,1,0,0:0:0:0:
64,192,78777,1,0,0:0:0:0:
192,192,78835,1,0,0:0:0:0:
320,192,78894,1,0,0:0:0:0:
64,192,78975,1,0,0:0:0:0:
192,192,78975,1,0,0:0:0:0:
448,192,78975,1,0,0:0:0:0:
320,192,79068,1,0,0:0:0:0:
64,192,79161,1,0,0:0:0:0:
448,192,79161,1,0,0:0:0:0:
192,192,79254,1,0,0:0:0:0:
320,192,79347,1,0,0:0:0:0:
448,192,79347,1,0,0:0:0:0:
192,192,79440,1,0,0:0:0:0:
64,192,79534,1,0,0:0:0:0:
448,192,79534,1,0,0:0:0:0:
192,192,79627,1,0,0:0:0:0:
320,192,79720,1,0,0:0:0:0:
448,192,79766,1,0,0:0:0:0:
192,192,79813,1,0,0:0:0:0:
64,192,79860,1,0,0:0:0:0:
320,192,79906,1,0,0:0:0:0:
448,192,79953,1,0,0:0:0:0:
320,192,79999,1,0,0:0:0:0:
192,192,80046,1,0,0:0:0:0:
64,192,80093,1,0,0:0:0:0:
448,192,80093,1,0,0:0:0:0:
192,192,80186,1,0,0:0:0:0:
320,192,80279,1,0,0:0:0:0:
448,192,80279,1,0,0:0:0:0:
64,192,80372,1,0,0:0:0:0:
192,192,80465,1,0,0:0:0:0:
320,192,80465,1,0,0:0:0:0:
64,192,80558,1,0,0:0:0:0:
192,192,80652,1,0,0:0:0:0:
448,192,80652,1,0,0:0:0:0:
320,192,80745,1,0,0:0:0:0:
64,192,80838,1,0,0:0:0:0:
192,192,80838,1,0,0:0:0:0:
448,192,80931,1,0,0:0:0:0:
320,192,81024,1,0,0:0:0:0:
64,192,81024,1,0,0:0:0:0:
192,192,81117,1,0,0:0:0:0:
64,192,81211,1,0,0:0:0:0:
448,192,81211,1,0,0:0:0:0:
192,192,81304,1,0,0:0:0:0:
320,192,81350,1,0,0:0:0:0:
448,192,81397,1,0,0:0:0:0:
192,192,81443,1,0,0:0:0:0:
64,192,81490,1,0,0:0:0:0:
320,192,81537,1,0,0:0:0:0:
448,192,81583,1,0,0:0:0:0:
192,192,81630,1,0,0:0:0:0:
320,192,81676,1,0,0:0:0:0:
64,192,81723,1,0,0:0:0:0:
192,192,81770,1,0,0:0:0:0:
448,192,81770,1,0,0:0:0:0:
320,192,81863,1,0,0:0:0:0:
64,192,81956,1,0,0:0:0:0:
192,192,81956,1,0,0:0:0:0:
448,192,82049,1,0,0:0:0:0:
64,192,82142,1,0,0:0:0:0:
320,192,82142,1,0,0:0:0:0:
192,192,82235,1,0,0:0:0:0:
320,192,82329,1,0,0:0:0:0:
448,192,82329,1,0,0:0:0:0:
64,192,82422,1,0,0:0:0:0:
192,192,82515,1,0,0:0:0:0:
448,192,82515,1,0,0:0:0:0:
320,192,82608,1,0,0:0:0:0:
192,192,82655,1,0,0:0:0:0:
64,192,82701,1,0,0:0:0:0:
448,192,82701,1,0,0:0:0:0:
320,192,82748,1,0,0:0:0:0:
192,192,82794,1,0,0:0:0:0:
448,192,82841,1,0,0:0:0:0:
64,192,82888,1,0,0:0:0:0:
320,192,82934,1,0,0:0:0:0:
192,192,82981,1,0,0:0:0:0:
64,192,83027,1,0,0:0:0:0:
320,192,83074,1,0,0:0:0:0:
448,192,83074,1,0,0:0:0:0:
192,192,83167,1,0,0:0:0:0:
64,192,83260,1,0,0:0:0:0:
448,192,83260,1,0,0:0:0:0:
320,192,83353,1,0,0:0:0:0:
192,192,83447,1,0,0:0:0:0:
64,192,83447,1,0,0:0:0:0:
320,192,83540,1,0,0:0:0:0:
64,192,83633,1,0,0:0:0:0:
448,192,83633,1,0,0:0:0:0:
192,192,83726,1,0,0:0:0:0:
320,192,83819,1,0,0:0:0:0:
448,192,83819,1,0,0:0:0:0:
192,192,83912,1,0,0:0:0:0:
64,192,84006,1,0,0:0:0:0:
448,192,84006,1,0,0:0:0:0:
320,192,84099,1,0,0:0:0:0:
64,192,84192,1,0,0:0:0:0:
192,192,84192,1,0,0:0:0:0:
448,192,84285,1,0,0:0:0:0:
320,192,84378,1,0,0:0:0:0:
64,192,84378,1,0,0:0:0:0:
192,192,84471,1,0,0:0:0:0:
448,192,84518,1,0,0:0:0:0:
320,192,84565,1,0,0:0:0:0:
64,192,84611,1,0,0:0:0:0:
448,192,84658,1,0,0:0:0:0:
192,192,84704,1,0,0:0:0:0:
320,192,84751,1,0,0:0:0:0:
64,192,84797,1,0,0:0:0:0:
192,192,84844,1,0,0:0:0:0:
448,192,84891,1,0,0:0:0:0:
64,192,84937,1,0,0:0:0:0:
320,192,84937,1,0,0:0:0:0:
320,192,85037,1,0,0:0:0:0:
192,192,85137,1,0,0:0:0:0:
64,192,85137,1,0,0:0:0:0:
448,192,85137,1,0,0:0:0:0:
192,192,85237,1,0,0:0:0:0:
64,192,85337,1,0,0:0:0:0:
320,192,85337,1,0,0:0:0:0:
448,192,85337,1,0,0:0:0:0:
64,192,85437,1,0,0:0:0:0:
192,192,85537,1,0,0:0:0:0:
320,192,85537,1,0,0:0:0:0:
448,192,85537,1,0,0:0:0:0:
448,192,85637,1,0,0:0:0:0:
64,192,85737,1,0,0:0:0:0:
192,192,85737,1,0,0:0:0:0:
320,192,85737,1,0,0:0:0:0:
192,192,85837,1,0,0:0:0:0:
320,192,85937,1,0,0:0:0:0:
448,192,85937,1,0,0:0:0:0:
64,192,85937,1,0,0:0:0:0:
320,192,86037,1,0,0:0:0:0:
64,192,86137,1,0,0:0:0:0:
192,192,86137,1,0,0:0:0:0:
448,192,86137,1,0,0:0:0:0:
64,192,86237,1,0,0:0:0:0:
192,192,86337,1,0,0:0:0:0:
320,192,86337,1,0,0:0:0:0:
448,192,86337,1,0,0:0:0:0:
320,192,86437,1,0,0:0:0:0:
448,192,86437,1,0,0:0:0:0:
64,192,86537,1,0,0:0:0:0:
192,192,86537,1,0,0:0:0:0:
448,192,86537,1,0,0:0:0:0:
192,192,86637,1,0,0:0:0:0:
320,192,86737,1,0,0:0:0:0:
448,192,86737,1,0,0:0:0:0:
64,192,86737,1,0,0:0:0:0:
320,192,86837,1,0,0:0:0:0:
192,192,86937,1,0,0:0:0:0:
448,192,86937,1,0,0:0:0:0:
64,192,86937,1,0,0:0:0:0:
192,192,87037,1,0,0:0:0:0:
64,192,87137,1,0,0:0:0:0:
320,192,87137,1,0,0:0:0:0:
448,192,87137,1,0,0:0:0:0:
448,192,87237,1,0,0:0:0:0:
64,192,87337,1,0,0:0:0:0:
192,192,87337,1,0,0:0:0:0:
320,192,87337,1,0,0:0:0:0:
64,192,87437,1,0,0:0:0:0:
192,192,87537,1,0,0:0:0:0:
320,192,87537,1,0,0:0:0:0:
448,192,87537,1,0,0:0:0:0:
192,192,87637,1,0,0:0:0:0:
64,192,87737,1,0,0:0:0:0:
320,192,87737,1,0,0:0:0:0:
448,192,87737,1,0,0:0:0:0:
320,192,87837,1,0,0:0:0:0:
192,192,87937,1,0,0:0:0:0:
64,192,87937,1,0,0:0:0:0:
448,192,87937,1,0,0:0:0:0:
192,192,88037,1,0,0:0:0:0:
64,192,88037,1,0,0:0:0:0:
64,192,88137,1,0,0:0:0:0:
448,192,88137,1,0,0:0:0:0:
320,192,88137,1,0,0:0:0:0:
320,192,88237,1,0,0:0:0:0:
192,192,88337,1,0,0:0:0:0:
64,192,88337,1,0,0:0:0:0:
448,192,88337,1,0,0:0:0:0:
192,192,88437,1,0,0:0:0:0:
320,192,88537,1,0,0:0:0:0:
448,192,88537,1,0,0:0:0:0:
64,192,88537,1,0,0:0:0:0:
448,192,88637,1,0,0:0:0:0:
64,192,88737,1,0,0:0:0:0:
192,192,88737,1,0,0:0:0:0:
320,192,88737,1,0,0:0:0:0:
64,192,88837,1,0,0:0:0:0:
192,192,88937,1,0,0:0:0:0:
320,192,88937,1,0,0:0:0:0:
448,192,88937,1,0,0:0:0:0:
320,192,89037,1,0,0:0:0:0:
64,192,89137,1,0,0:0:0:0:
192,192,89137,1,0,0:0:0:0:
448,192,89137,1,0,0:0:0:0:
64,192,89237,1,0,0:0:0:0:
192,192,89337,1,0,0:0:0:0:
320,192,89337,1,0,0:0:0:0:
448,192,89337,1,0,0:0:0:0:
448,192,89437,1,0,0:0:0:0:
64,192,89537,1,0,0:0:0:0:
192,192,89537,1,0,0:0:0:0:
320,192,89537,1,0,0:0:0:0:
320,192,89637,1,0,0:0:0:0:
192,192,89637,1,0,0:0:0:0:
64,192,89737,1,0,0:0:0:0:
448,192,89737,1,0,0:0:0:0:
320,192,89737,1,0,0:0:0:0:
64,192,89837,1,0,0:0:0:0:
192,192,89937,1,0,0:0:0:0:
448,192,89937,1,0,0:0:0:0:
320,192,89937,1,0,0:0:0:0:
64,192,90037,1,0,0:0:0:0:
320,192,90037,1,0,0:0:0:0:
192,192,90137,1,0,0:0:0:0:
448,192,90137,1,0,0:0:0:0:
64,192,90237,1,0,0:0:0:0:
320,192,90237,1,0,0:0:0:0:
448,192,90237,1,0,0:0:0:0:
192,192,90337,1,0,0:0:0:0:
320,192,90337,1,0,0:0:0:0:
64,192,90437,1,0,0:0:0:0:
192,192,90437,1,0,0:0:0:0:
320,192,90537,1,0,0:0:0:0:
64,192,90537,1,0,0:0:0:0:
448,192,90537,1,0,0:0:0:0:
320,192,90637,1,0,0:0:0:0:
448,192,90637,1,0,0:0:0:0:
192,192,90737,1,0,0:0:0:0:
64,192,90737,1,0,0:0:0:0:
64,192,90837,1,0,0:0:0:0:
192,192,90837,1,0,0:0:0:0:
320,192,90937,1,0,0:0:0:0:
448,192,90937,1,0,0:0:0:0:
192,192,90987,1,0,0:0:0:0:
64,192,90987,1,0,0:0:0:0:
320,192,91037,1,0,0:0:0:0:
448,192,91037,1,0,0:0:0:0:
64,192,91087,1,0,0:0:0:0:
192,192,91087,1,0,0:0:0:0:
320,192,91137,1,0,0:0:0:0:
448,192,91137,1,0,0:0:0:0:
192,192,91187,1,0,0:0:0:0:
64,192,91187,1,0,0:0:0:0:
320,192,91237,1,0,0:0:0:0:
448,192,91237,1,0,0:0:0:0:
192,192,91287,1,0,0:0:0:0:
64,192,91287,1,0,0:0:0:0:
448,192,91337,1,0,0:0:0:0:
320,192,91337,1,0,0:0:0:0:
192,192,91412,1,0,0:0:0:0:
64,192,91487,1,0,0:0:0:0:
448,192,91487,1,0,0:0:0:0:
320,192,91562,1,0,0:0:0:0:
448,192,91637,1,0,0:0:0:0:
64,192,91637,1,0,0:0:0:0:
192,192,91712,1,0,0:0:0:0:
320,192,91787,1,0,0:0:0:0:
448,192,91787,1,0,0:0:0:0:
64,192,91862,1,0,0:0:0:0:
192,192,91937,1,0,0:0:0:0:
320,192,91937,1,0,0:0:0:0:
64,192,92012,1,0,0:0:0:0:
320,192,92087,1,0,0:0:0:0:
448,192,92087,1,0,0:0:0:0:
192,192,92162,1,0,0:0:0:0:
64,192,92237,1,0,0:0:0:0:
320,192,92237,1,0,0:0:0:0:
448,192,92312,1,0,0:0:0:0:
192,192,92387,1,0,0:0:0:0:
64,192,92387,1,0,0:0:0:0:
320,192,92462,1,0,0:0:0:0:
64,192,92537,1,0,0:0:0:0:
448,192,92537,1,0,0:0:0:0:
320,192,92612,1,0,0:0:0:0:
192,192,92687,1,0,0:0:0:0:
448,192,92687,1,0,0:0:0:0:
64,192,92762,1,0,0:0:0:0:
320,192,92837,1,0,0:0:0:0:
192,192,92837,1,0,0:0:0:0:
448,192,92912,1,0,0:0:0:0:
64,192,92987,1,0,0:0:0:0:
320,192,92987,1,0,0:0:0:0:
192,192,93062,1,0,0:0:0:0:
320,192,93137,1,0,0:0:0:0:
448,192,93137,1,0,0:0:0:0:
64,192,93212,1,0,0:0:0:0:
192,192,93287,1,0,0:0:0:0:
448,192,93287,1,0,0:0:0:0:
64,192,93362,1,0,0:0:0:0:
320,192,93437,1,0,0:0:0:0:
448,192,93437,1,0,0:0:0:0:
192,192,93512,1,0,0:0:0:0:
64,192,93587,1,0,0:0:0:0:
320,192,93587,1,0,0:0:0:0:
192,192,93662,1,0,0:0:0:0:
320,192,93737,1,0,0:0:0:0:
448,192,93737,1,0,0:0:0:0:
64,192,93812,1,0,0:0:0:0:
192,192,93887,1,0,0:0:0:0:
448,192,93887,1,0,0:0:0:0:
320,192,93962,1,0,0:0:0:0:
64,192,94037,1,0,0:0:0:0:
448,192,94037,1,0,0:0:0:0:
192,192,94112,1,0,0:0:0:0:
320,192,94187,1,0,0:0:0:0:
448,192,94187,1,0,0:0:0:0:
192,192,94262,1,0,0:0:0:0:
64,192,94337,1,0,0:0:0:0:
320,192,94337,1,0,0:0:0:0:
192,192,94412,1,0,0:0:0:0:
320,192,94487,1,0,0:0:0:0:
448,192,94487,1,0,0:0:0:0:
192,192,94562,1,0,0:0:0:0:
64,192,94637,1,0,0:0:0:0:
448,192,94637,1,0,0:0:0:0:
320,192,94712,1,0,0:0:0:0:
192,192,94787,1,0,0:0:0:0:
64,192,94787,1,0,0:0:0:0:
448,192,94862,1,0,0:0:0:0:
320,192,94937,1,0,0:0:0:0:
64,192,94937,1,0,0:0:0:0:
192,192,95012,1,0,0:0:0:0:
320,192,95087,1,0,0:0:0:0:
448,192,95087,1,0,0:0:0:0:
64,192,95162,1,0,0:0:0:0:
192,192,95237,1,0,0:0:0:0:
448,192,95237,1,0,0:0:0:0:
64,192,95312,1,0,0:0:0:0:
320,192,95387,1,0,0:0:0:0:
448,192,95387,1,0,0:0:0:0:
192,192,95462,1,0,0:0:0:0:
64,192,95537,1,0,0:0:0:0:
320,192,95537,1,0,0:0:0:0:
448,192,95612,1,0,0:0:0:0:
192,192,95687,1,0,0:0:0:0:
320,192,95687,1,0,0:0:0:0:
448,192,95762,1,0,0:0:0:0:
64,192,95837,1,0,0:0:0:0:
192,192,95837,1,0,0:0:0:0:
320,192,95912,1,0,0:0:0:0:
448,192,95987,1,0,0:0:0:0:
192,192,95987,1,0,0:0:0:0:
64,192,96062,1,0,0:0:0:0:
320,192,96137,1,0,0:0:0:0:
448,192,96137,1,0,0:0:0:0:
64,192,96212,1,0,0:0:0:0:
192,192,96287,1,0,0:0:0:0:
320,192,96287,1,0,0:0:0:0:
448,192,96362,1,0,0:0:0:0:
64,192,96437,1,0,0:0:0:0:
192,192,96437,1,0,0:0:0:0:
320,192,96512,1,0,0:0:0:0:
448,192,96587,1,0,0:0:0:0:
64,192,96587,1,0,0:0:0:0:
320,192,96662,1,0,0:0:0:0:
192,192,96737,1,0,0:0:0:0:
64,192,96737,1,0,0:0:0:0:
448,192,96812,1,0,0:0:0:0:
192,192,96887,1,0,0:0:0:0:
320,192,96887,1,0,0:0:0:0:
448,192,96962,1,0,0:0:0:0:
64,192,97037,1,0,0:0:0:0:
320,192,97037,1,0,0:0:0:0:
192,192,97112,1,0,0:0:0:0:
320,192,97187,1,0,0:0:0:0:
448,192,97187,1,0,0:0:0:0:
64,192,97262,1,0,0:0:0:0:
192,192,97337,1,0,0:0:0:0:
320,192,97337,1,0,0:0:0:0:
448,192,97412,1,0,0:0:0:0:
64,192,97487,1,0,0:0:0:0:
192,192,97487,1,0,0:0:0:0:
320,192,97562,1,0,0:0:0:0:
448,192,97637,1,0,0:0:0:0:
64,192,97637,1,0,0:0:0:0:
320,192,97712,1,0,0:0:0:0:
192,192,97787,1,0,0:0:0:0:
448,192,97787,1,0,0:0:0:0:
64,192,97862,1,0,0:0:0:0:
320,192,97937,1,0,0:0:0:0:
448,192,97937,1,0,0:0:0:0:
192,192,98012,1,0,0:0:0:0:
320,192,98087,1,0,0:0:0:0:
64,192,98087,1,0,0:0:0:0:
448,192,98162,1,0,0:0:0:0:
192,192,98237,1,0,0:0:0:0:
64,192,98237,1,0,0:0:0:0:
320,192,98312,1,0,0:0:0:0:
448,192,98387,1,0,0:0:0:0:
192,192,98387,1,0,0:0:0:0:
64,192,98462,1,0,0:0:0:0:
320,192,98537,1,0,0:0:0:0:
448,192,98537,1,0,0:0:0:0:
192,192,98612,1,0,0:0:0:0:
64,192,98612,1,0,0:0:0:0:
320,192,98687,1,0,0:0:0:0:
448,192,98687,1,0,0:0:0:0:
192,192,98762,1,0,0:0:0:0:
64,192,98837,1,0,0:0:0:0:
448,192,98837,1,0,0:0:0:0:
192,192,98912,1,0,0:0:0:0:
320,192,98912,1,0,0:0:0:0:
64,192,98987,1,0,0:0:0:0:
448,192,98987,1,0,0:0:0:0:
320,192,99062,1,0,0:0:0:0:
192,192,99137,1,0,0:0:0:0:
64,192,99137,1,0,0:0:0:0:
320,192,99212,1,0,0:0:0:0:
448,192,99212,1,0,0:0:0:0:
192,192,99287,1,0,0:0:0:0:
64,192,99287,1,0,0:0:0:0:
448,192,99362,1,0,0:0:0:0:
320,192,99437,1,0,0:0:0:0:
192,192,99437,1,0,0:0:0:0:
64,192,99512,1,0,0:0:0:0:
448,192,99512,1,0,0:0:0:0:
192,192,99587,1,0,0:0:0:0:
320,192,99587,1,0,0:0:0:0:
64,192,99662,1,0,0:0:0:0:
320,192,99737,1,0,0:0:0:0:
448,192,99737,1,0,0:0:0:0:
64,192,99812,1,0,0:0:0:0:
192,192,99887,1,0,0:0:0:0:
448,192,99887,1,0,0:0:0:0:
320,192,99962,1,0,0:0:0:0:
64,192,100037,1,0,0:0:0:0:
192,192,100037,1,0,0:0:0:0:
448,192,100112,1,0,0:0:0:0:
64,192,100187,1,0,0:0:0:0:
320,192,100187,1,0,0:0:0:0:
448,192,100262,1,0,0:0:0:0:
192,192,100337,1,0,0:0:0:0:
320,192,100337,1,0,0:0:0:0:
64,192,100412,1,0,0:0:0:0:
192,192,100487,1,0,0:0:0:0:
448,192,100487,1,0,0:0:0:0:
320,192,100562,1,0,0:0:0:0:
64,192,100637,1,0,0:0:0:0:
448,192,100637,1,0,0:0:0:0:
192,192,100712,1,0,0:0:0:0:
320,192,100787,1,0,0:0:0:0:
64,192,100787,1,0,0:0:0:0:
448,192,100862,1,0,0:0:0:0:
64,192,100937,1,0,0:0:0:0:
320,192,100937,1,0,0:0:0:0:
192,192,101012,1,0,0:0:0:0:
448,192,101087,1,0,0:0:0:0:
320,192,101087,1,0,0:0:0:0:
192,192,101162,1,0,0:0:0:0:
64,192,101237,1,0,0:0:0:0:
448,192,101237,1,0,0:0:0:0:
192,192,101312,1,0,0:0:0:0:
320,192,101387,1,0,0:0:0:0:
64,192,101387,1,0,0:0:0:0:
448,192,101462,1,0,0:0:0:0:
192,192,101537,1,0,0:0:0:0:
320,192,101537,1,0,0:0:0:0:
64,192,101612,1,0,0:0:0:0:
320,192,101687,1,0,0:0:0:0:
448,192,101687,1,0,0:0:0:0:
192,192,101762,1,0,0:0:0:0:
64,192,101837,1,0,0:0:0:0:
448,192,101837,1,0,0:0:0:0:
192,192,101912,1,0,0:0:0:0:
320,192,101987,1,0,0:0:0:0:
64,192,101987,1,0,0:0:0:0:
448,192,102062,1,0,0:0:0:0:
192,192,102137,1,0,0:0:0:0:
320,192,102137,1,0,0:0:0:0:
64,192,102212,1,0,0:0:0:0:
448,192,102287,1,0,0:0:0:0:
320,192,102287,1,0,0:0:0:0:
192,192,102362,1,0,0:0:0:0:
64,192,102437,1,0,0:0:0:0:
448,192,102437,1,0,0:0:0:0:
320,192,102512,1,0,0:0:0:0:
192,192,102587,1,0,0:0:0:0:
64,192,102587,1,0,0:0:0:0:
320,192,102662,1,0,0:0:0:0:
448,192,102737,1,0,0:0:0:0:
192,192,102737,1,0,0:0:0:0:
64,192,102812,1,0,0:0:0:0:
320,192,102887,1,0,0:0:0:0:
448,192,102887,1,0,0:0:0:0:
192,192,102962,1,0,0:0:0:0:
64,192,103037,1,0,0:0:0:0:
448,192,103037,1,0,0:0:0:0:
320,192,103112,1,0,0:0:0:0:
192,192,103187,1,0,0:0:0:0:
64,192,103187,1,0,0:0:0:0:
448,192,103262,1,0,0:0:0:0:
320,192,103337,1,0,0:0:0:0:
64,192,103337,1,0,0:0:0:0:
448,192,103412,1,0,0:0:0:0:
192,192,103487,1,0,0:0:0:0:
320,192,103487,1,0,0:0:0:0:
64,192,103562,1,0,0:0:0:0:
448,192,103637,1,0,0:0:0:0:
192,192,103637,1,0,0:0:0:0:
64,192,103712,1,0,0:0:0:0:
320,192,103787,1,0,0:0:0:0:
448,192,103787,1,0,0:0:0:0:
192,192,103862,1,0,0:0:0:0:
64,192,103937,1,0,0:0:0:0:
320,192,103937,1,0,0:0:0:0:
448,192,104012,1,0,0:0:0:0:
192,192,104087,1,0,0:0:0:0:
320,192,104087,1,0,0:0:0:0:
448,192,104162,1,0,0:0:0:0:
64,192,104237,1,0,0:0:0:0:
192,192,104237,1,0,0:0:0:0:
320,192,104312,1,0,0:0:0:0:
64,192,104387,1,0,0:0:0:0:
448,192,104387,1,0,0:0:0:0:
192,192,104462,1,0,0:0:0:0:
320,192,104537,1,0,0:0:0:0:
448,192,104537,1,0,0:0:0:0:
64,192,104612,1,0,0:0:0:0:
192,192,104687,1,0,0:0:0:0:
448,192,104687,1,0,0:0:0:0:
320,192,104762,1,0,0:0:0:0:
64,192,104837,1,0,0:0:0:0:
192,192,104837,1,0,0:0:0:0:
448,192,104912,1,0,0:0:0:0:
320,192,104987,1,0,0:0:0:0:
64,192,104987,1,0,0:0:0:0:
192,192,105062,1,0,0:0:0:0:
448,192,105137,1,0,0:0:0:0:
320,192,105137,1,0,0:0:0:0:
64,192,105212,1,0,0:0:0:0:
320,192,105287,1,0,0:0:0:0:
192,192,105287,1,0,0:0:0:0:
64,192,105362,1,0,0:0:0:0:
448,192,105437,1,0,0:0:0:0:
320,192,105437,1,0,0:0:0:0:
192,192,105512,1,0,0:0:0:0:
320,192,105587,1,0,0:0:0:0:
448,192,105587,1,0,0:0:0:0:
192,192,105662,1,0,0:0:0:0:
64,192,105737,1,0,0:0:0:0:
448,192,105737,1,0,0:0:0:0:
320,192,105812,1,0,0:0:0:0:
192,192,105887,1,0,0:0:0:0:
64,192,105887,1,0,0:0:0:0:
448,192,105962,1,0,0:0:0:0:
320,192,106037,1,0,0:0:0:0:
192,192,106037,1,0,0:0:0:0:
448,192,106112,1,0,0:0:0:0:
64,192,106187,1,0,0:0:0:0:
320,192,106187,1,0,0:0:0:0:
192,192,106262,1,0,0:0:0:0:
320,192,106337,1,0,0:0:0:0:
448,192,106337,1,0,0:0:0:0:
64,192,106412,1,0,0:0:0:0:
192,192,106487,1,0,0:0:0:0:
448,192,106487,1,0,0:0:0:0:
320,192,106562,1,0,0:0:0:0:
64,192,106637,1,0,0:0:0:0:
192,192,106637,1,0,0:0:0:0:
320,192,106712,1,0,0:0:0:0:
448,192,106787,1,0,0:0:0:0:
64,192,106787,1,0,0:0:0:0:
192,192,106862,1,0,0:0:0:0:
320,192,106937,1,0,0:0:0:0:
448,192,106937,1,0,0:0:0:0:
64,192,107012,1,0,0:0:0:0:
320,192,107087,1,0,0:0:0:0:
192,192,107087,1,0,0:0:0:0:
448,192,107162,1,0,0:0:0:0:
64,192,107237,1,0,0:0:0:0:
320,192,107237,1,0,0:0:0:0:
192,192,107312,1,0,0:0:0:0:
320,192,107387,1,0,0:0:0:0:
448,192,107387,1,0,0:0:0:0:
64,192,107462,1,0,0:0:0:0:
192,192,107537,1,0,0:0:0:0:
320,192,107537,1,0,0:0:0:0:
448,192,107612,1,0,0:0:0:0:
192,192,107687,1,0,0:0:0:0:
320,192,107687,1,0,0:0:0:0:
64,192,107762,1,0,0:0:0:0:
320,192,107837,1,0,0:0:0:0:
448,192,107837,1,0,0:0:0:0:
192,192,107912,1,0,0:0:0:0:
64,192,107987,1,0,0:0:0:0:
448,192,107987,1,0,0:0:0:0:
320,192,108062,1,0,0:0:0:0:
192,192,108137,1,0,0:0:0:0:
64,192,108137,1,0,0:0:0:0:
320,192,108212,1,0,0:0:0:0:
448,192,108212,1,0,0:0:0:0:
192,192,108287,1,0,0:0:0:0:
64,192,108287,1,0,0:0:0:0:
320,192,108362,1,0,0:0:0:0:
448,192,108437,1,0,0:0:0:0:
64,192,108437,1,0,0:0:0:0:
192,192,108512,1,0,0:0:0:0:
320,192,108512,1,0,0:0:0:0:
64,192,108587,1,0,0:0:0:0:
448,192,108587,1,0,0:0:0:0:
192,192,108662,1,0,0:0:0:0:
320,192,108737,1,0,0:0:0:0:
448,192,108737,1,0,0:0:0:0:
192,192,108812,1,0,0:0:0:0:
64,192,108812,1,0,0:0:0:0:
320,192,108887,1,0,0:0:0:0:
448,192,108887,1,0,0:0:0:0:
64,192,108962,1,0,0:0:0:0:
192,192,109037,1,0,0:0:0:0:
320,192,109037,1,0,0:0:0:0:
448,192,109112,1,0,0:0:0:0:
64,192,109112,1,0,0:0:0:0:
192,192,109187,1,0,0:0:0:0:
320,192,109187,1,0,0:0:0:0:
448,192,109262,1,0,0:0:0:0:
64,192,109337,1,0,0:0:0:0:
192,192,109337,1,0,0:0:0:0:
320,192,109412,1,0,0:0:0:0:
448,192,109412,1,0,0:0:0:0:
64,192,109487,1,0,0:0:0:0:
192,192,109487,1,0,0:0:0:0:
320,192,109562,1,0,0:0:0:0:
448,192,109637,1,0,0:0:0:0:
64,192,109637,1,0,0:0:0:0:
320,192,109712,1,0,0:0:0:0:
192,192,109712,1,0,0:0:0:0:
64,192,109787,1,0,0:0:0:0:
448,192,109787,1,0,0:0:0:0:
192,192,109862,1,0,0:0:0:0:
320,192,109937,1,0,0:0:0:0:
448,192,109937,1,0,0:0:0:0:
192,192,110012,1,0,0:0:0:0:
64,192,110012,1,0,0:0:0:0:
448,192,110087,1,0,0:0:0:0:
320,192,110124,1,0,0:0:0:0:
192,192,110162,1,0,0:0:0:0:
64,192,110199,1,0,0:0:0:0:
320,192,110237,1,0,0:0:0:0:
448,192,110237,1,0,0:0:0:0:
192,192,110312,1,0,0:0:0:0:
64,192,110312,1,0,0:0:0:0:
320,192,110387,1,0,0:0:0:0:
448,192,110387,1,0,0:0:0:0:
192,192,110462,1,0,0:0:0:0:
64,192,110462,1,0,0:0:0:0:
320,192,110509,1,0,0:0:0:0:
448,192,110509,1,0,0:0:0:0:
192,192,110566,1,0,0:0:0:0:
64,192,110624,1,0,0:0:0:0:
320,192,110682,1,0,0:0:0:0:
192,192,110739,1,0,0:0:0:0:
448,192,110739,1,0,0:0:0:0:
64,192,110797,1,0,0:0:0:0:
320,192,110855,1,0,0:0:0:0:
192,192,110912,1,0,0:0:0:0:
448,192,110970,1,0,0:0:0:0:
320,192,111028,1,0,0:0:0:0:
192,192,111085,1,0,0:0:0:0:
64,192,111085,1,0,0:0:0:0:
320,192,111143,1,0,0:0:0:0:
448,192,111201,1,0,0:0:0:0:
64,192,111201,1,0,0:0:0:0:
192,192,111259,1,0,0:0:0:0:
320,192,111316,1,0,0:0:0:0:
64,192,111374,1,0,0:0:0:0:
192,192,111432,1,0,0:0:0:0:
448,192,111432,1,0,0:0:0:0:
320,192,111489,1,0,0:0:0:0:
192,192,111547,1,0,0:0:0:0:
64,192,111605,1,0,0:0:0:0:
448,192,111662,1,0,0:0:0:0:
320,192,111662,1,0,0:0:0:0:
192,192,111720,1,0,0:0:0:0:
64,192,111778,1,0,0:0:0:0:
320,192,111835,1,0,0:0:0:0:
192,192,111893,1,0,0:0:0:0:
448,192,111951,1,0,0:0:0:0:
64,192,112009,1,0,0:0:0:0:
320,192,112009,1,0,0:0:0:0:
192,192,112066,1,0,0:0:0:0:
320,192,112124,1,0,0:0:0:0:
448,192,112124,1,0,0:0:0:0:
64,192,112182,1,0,0:0:0:0:
192,192,112239,1,0,0:0:0:0:
448,192,112297,1,0,0:0:0:0:
320,192,112355,1,0,0:0:0:0:
64,192,112355,1,0,0:0:0:0:
192,192,112412,1,0,0:0:0:0:
448,192,112470,1,0,0:0:0:0:
320,192,112528,1,0,0:0:0:0:
192,192,112585,1,0,0:0:0:0:
64,192,112585,1,0,0:0:0:0:
448,192,112643,1,0,0:0:0:0:
320,192,112701,1,0,0:0:0:0:
192,192,112759,1,0,0:0:0:0:
64,192,112816,1,0,0:0:0:0:
320,192,112874,1,0,0:0:0:0:
192,192,112932,1,0,0:0:0:0:
448,192,112932,1,0,0:0:0:0:
64,192,112989,1,0,0:0:0:0:
320,192,113047,1,0,0:0:0:0:
448,192,113047,1,0,0:0:0:0:
192,192,113105,1,0,0:0:0:0:
64,192,113162,1,0,0:0:0:0:
448,192,113220,1,0,0:0:0:0:
192,192,113278,1,0,0:0:0:0:
320,192,113278,1,0,0:0:0:0:
64,192,113335,1,0,0:0:0:0:
448,192,113393,1,0,0:0:0:0:
320,192,113451,1,0,0:0:0:0:
192,192,113509,1,0,0:0:0:0:
64,192,113509,1,0,0:0:0:0:
320,192,113566,1,0,0:0:0:0:
448,192,113624,1,0,0:0:0:0:
64,192,113624,1,0,0:0:0:0:
192,192,113682,1,0,0:0:0:0:
320,192,113739,1,0,0:0:0:0:
64,192,113797,1,0,0:0:0:0:
192,192,113855,1,0,0:0:0:0:
448,192,113855,1,0,0:0:0:0:
320,192,113912,1,0,0:0:0:0:
64,192,113970,1,0,0:0:0:0:
192,192,113970,1,0,0:0:0:0:
448,192,114028,1,0,0:0:0:0:
192,192,114085,1,0,0:0:0:0:
64,192,114085,1,0,0:0:0:0:
320,192,114143,1,0,0:0:0:0:
448,192,114201,1,0,0:0:0:0:
64,192,114201,1,0,0:0:0:0:
192,192,114259,1,0,0:0:0:0:
320,192,114316,1,0,0:0:0:0:
64,192,114374,1,0,0:0:0:0:
192,192,114432,1,0,0:0:0:0:
448,192,114432,1,0,0:0:0:0:
320,192,114489,1,0,0:0:0:0:
192,192,114547,1,0,0:0:0:0:
64,192,114605,1,0,0:0:0:0:
320,192,114662,1,0,0:0:0:0:
192,192,114720,1,0,0:0:0:0:
320,192,114778,1,0,0:0:0:0:
448,192,114778,1,0,0:0:0:0:
64,192,114835,1,0,0:0:0:0:
192,192,114893,1,0,0:0:0:0:
448,192,114893,1,0,0:0:0:0:
320,192,114951,1,0,0:0:0:0:
64,192,115009,1,0,0:0:0:0:
192,192,115066,1,0,0:0:0:0:
320,192,115124,1,0,0:0:0:0:
448,192,115124,1,0,0:0:0:0:
192,192,115182,1,0,0:0:0:0:
64,192,115239,1,0,0:0:0:0:
320,192,115297,1,0,0:0:0:0:
192,192,115355,1,0,0:0:0:0:
448,192,115355,1,0,0:0:0:0:
64,192,115412,1,0,0:0:0:0:
320,192,115470,1,0,0:0:0:0:
192,192,115528,1,0,0:0:0:0:
448,192,115585,1,0,0:0:0:0:
320,192,115643,1,0,0:0:0:0:
64,192,115701,1,0,0:0:0:0:
192,192,115701,1,0,0:0:0:0:
448,192,115759,1,0,0:0:0:0:
320,192,115816,1,0,0:0:0:0:
64,192,115816,1,0,0:0:0:0:
192,192,115874,1,0,0:0:0:0:
448,192,115932,1,0,0:0:0:0:
320,192,115989,1,0,0:0:0:0:
64,192,116047,1,0,0:0:0:0:
192,192,116047,1,0,0:0:0:0:
448,192,116105,1,0,0:0:0:0:
320,192,116162,1,0,0:0:0:0:
192,192,116220,1,0,0:0:0:0:
64,192,116278,1,0,0:0:0:0:
448,192,116278,1,0,0:0:0:0:
320,192,116335,1,0,0:0:0:0:
64,192,116393,1,0,0:0:0:0:
448,192,116451,1,0,0:0:0:0:
192,192,116509,1,0,0:0:0:0:
64,192,116566,1,0,0:0:0:0:
320,192,116624,1,0,0:0:0:0:
448,192,116624,1,0,0:0:0:0:
192,192,116682,1,0,0:0:0:0:
64,192,116739,1,0,0:0:0:0:
448,192,116739,1,0,0:0:0:0:
320,192,116797,1,0,0:0:0:0:
192,192,116855,1,0,0:0:0:0:
448,192,116912,1,0,0:0:0:0:
64,192,116970,1,0,0:0:0:0:
320,192,116970,1,0,0:0:0:0:
192,192,117028,1,0,0:0:0:0:
448,192,117085,1,0,0:0:0:0:
320,192,117143,1,0,0:0:0:0:
192,192,117201,1,0,0:0:0:0:
64,192,117201,1,0,0:0:0:0:
448,192,117259,1,0,0:0:0:0:
320,192,117316,1,0,0:0:0:0:
64,192,117316,1,0,0:0:0:0:
192,192,117374,1,0,0:0:0:0:
320,192,117432,1,0,0:0:0:0:
448,192,117489,1,0,0:0:0:0:
64,192,117547,1,0,0:0:0:0:
192,192,117547,1,0,0:0:0:0:
320,192,117605,1,0,0:0:0:0:
448,192,117662,1,0,0:0:0:0:
64,192,117662,1,0,0:0:0:0:
192,192,117720,1,0,0:0:0:0:
320,192,117778,1,0,0:0:0:0:
448,192,117778,1,0,0:0:0:0:
64,192,117835,1,0,0:0:0:0:
192,192,117893,1,0,0:0:0:0:
448,192,117893,1,0,0:0:0:0:
320,192,117951,1,0,0:0:0:0:
64,192,118009,1,0,0:0:0:0:
192,192,118066,1,0,0:0:0:0:
320,192,118124,1,0,0:0:0:0:
448,192,118124,1,0,0:0:0:0:
64,192,118182,1,0,0:0:0:0:
320,192,118239,1,0,0:0:0:0:
192,192,118297,1,0,0:0:0:0:
448,192,118355,1,0,0:0:0:0:
320,192,118412,1,0,0:0:0:0:
192,192,118470,1,0,0:0:0:0:
64,192,118470,1,0,0:0:0:0:
448,192,118528,1,0,0:0:0:0:
320,192,118585,1,0,0:0:0:0:
64,192,118585,1,0,0:0:0:0:
192,192,118643,1,0,0:0:0:0:
448,192,118701,1,0,0:0:0:0:
320,192,118759,1,0,0:0:0:0:
64,192,118816,1,0,0:0:0:0:
192,192,118816,1,0,0:0:0:0:
448,192,118874,1,0,0:0:0:0:
320,192,118932,1,0,0:0:0:0:
64,192,118989,1,0,0:0:0:0:
192,192,119047,1,0,0:0:0:0:
448,192,119047,1,0,0:0:0:0:
320,192,119105,1,0,0:0:0:0:
64,192,119162,1,0,0:0:0:0:
192,192,119220,1,0,0:0:0:0:
320,192,119278,1,0,0:0:0:0:
64,192,119335,1,0,0:0:0:0:
320,192,119393,1,0,0:0:0:0:
448,192,119393,1,0,0:0:0:0:
192,192,119451,1,0,0:0:0:0:
64,192,119509,1,0,0:0:0:0:
320,192,119509,1,0,0:0:0:0:
448,192,119566,1,0,0:0:0:0:
192,192,119624,1,0,0:0:0:0:
320,192,119682,1,0,0:0:0:0:
64,192,119739,1,0,0:0:0:0:
448,192,119739,1,0,0:0:0:0:
192,192,119797,1,0,0:0:0:0:
320,192,119855,1,0,0:0:0:0:
64,192,119912,1,0,0:0:0:0:
448,192,119970,1,0,0:0:0:0:
192,192,119970,1,0,0:0:0:0:
320,192,120028,1,0,0:0:0:0:
192,192,120085,1,0,0:0:0:0:
64,192,120143,1,0,0:0:0:0:
448,192,120201,1,0,0:0:0:0:
320,192,120259,1,0,0:0:0:0:
64,192,120316,1,0,0:0:0:0:
192,192,120316,1,0,0:0:0:0:
448,192,120374,1,0,0:0:0:0:
64,192,120432,1,0,0:0:0:0:
320,192,120432,1,0,0:0:0:0:
192,192,120489,1,0,0:0:0:0:
448,192,120547,1,0,0:0:0:0:
320,192,120605,1,0,0:0:0:0:
192,192,120662,1,0,0:0:0:0:
64,192,120662,1,0,0:0:0:0:
320,192,120720,1,0,0:0:0:0:
448,192,120778,1,0,0:0:0:0:
192,192,120835,1,0,0:0:0:0:
64,192,120893,1,0,0:0:0:0:
320,192,120893,1,0,0:0:0:0:
448,192,120951,1,0,0:0:0:0:
192,192,121009,1,0,0:0:0:0:
64,192,121009,1,0,0:0:0:0:
320,192,121066,1,0,0:0:0:0:
448,192,121124,1,0,0:0:0:0:
192,192,121182,1,0,0:0:0:0:
64,192,121239,1,0,0:0:0:0:
320,192,121239,1,0,0:0:0:0:
448,192,121297,1,0,0:0:0:0:
192,192,121355,1,0,0:0:0:0:
64,192,121355,1,0,0:0:0:0:
320,192,121412,1,0,0:0:0:0:
448,192,121470,1,0,0:0:0:0:
192,192,121470,1,0,0:0:0:0:
64,192,121528,1,0,0:0:0:0:
320,192,121585,1,0,0:0:0:0:
448,192,121585,1,0,0:0:0:0:
192,192,121643,1,0,0:0:0:0:
320,192,121701,1,0,0:0:0:0:
448,192,121759,1,0,0:0:0:0:
192,192,121816,1,0,0:0:0:0:
64,192,121816,1,0,0:0:0:0:
320,192,121874,1,0,0:0:0:0:
448,192,121932,1,0,0:0:0:0:
192,192,121989,1,0,0:0:0:0:
320,192,122047,1,0,0:0:0:0:
64,192,122105,1,0,0:0:0:0:
192,192,122162,1,0,0:0:0:0:
448,192,122162,1,0,0:0:0:0:
64,192,122220,1,0,0:0:0:0:
320,192,122278,1,0,0:0:0:0:
448,192,122278,1,0,0:0:0:0:
192,192,122335,1,0,0:0:0:0:
64,192,122393,1,0,0:0:0:0:
320,192,122451,1,0,0:0:0:0:
192,192,122509,1,0,0:0:0:0:
448,192,122509,1,0,0:0:0:0:
64,192,122566,1,0,0:0:0:0:
320,192,122624,1,0,0:0:0:0:
192,192,122682,1,0,0:0:0:0:
320,192,122739,1,0,0:0:0:0:
448,192,122739,1,0,0:0:0:0:
64,192,122797,1,0,0:0:0:0:
192,192,122855,1,0,0:0:0:0:
320,192,122912,1,0,0:0:0:0:
192,192,122970,1,0,0:0:0:0:
448,192,123028,1,0,0:0:0:0:
64,192,123085,1,0,0:0:0:0:
320,192,123085,1,0,0:0:0:0:
192,192,123143,1,0,0:0:0:0:
320,192,123201,1,0,0:0:0:0:
448,192,123201,1,0,0:0:0:0:
64,192,123259,1,0,0:0:0:0:
192,192,123316,1,0,0:0:0:0:
320,192,123374,1,0,0:0:0:0:
448,192,123432,1,0,0:0:0:0:
64,192,123432,1,0,0:0:0:0:
192,192,123489,1,0,0:0:0:0:
320,192,123547,1,0,0:0:0:0:
448,192,123547,1,0,0:0:0:0:
192,192,123605,1,0,0:0:0:0:
64,192,123662,1,0,0:0:0:0:
320,192,123662,1,0,0:0:0:0:
448,192,123720,1,0,0:0:0:0:
192,192,123778,1,0,0:0:0:0:
320,192,123835,1,0,0:0:0:0:
448,192,123893,1,0,0:0:0:0:
192,192,123951,1,0,0:0:0:0:
64,192,124009,1,0,0:0:0:0:
320,192,124009,1,0,0:0:0:0:
448,192,124066,1,0,0:0:0:0:
192,192,124124,5,0,0:0:0:0:
64,192,124124,1,0,0:0:0:0:
320,192,124182,1,0,0:0:0:0:
192,192,124239,1,0,0:0:0:0:
64,192,124297,1,0,0:0:0:0:
320,192,124355,1,0,0:0:0:0:
448,192,124355,1,0,0:0:0:0:
192,192,124412,1,0,0:0:0:0:
64,192,124470,1,0,0:0:0:0:
320,192,124470,1,0,0:0:0:0:
448,192,124528,1,0,0:0:0:0:
192,192,124585,1,0,0:0:0:0:
64,192,124585,1,0,0:0:0:0:
320,192,124643,1,0,0:0:0:0:
192,192,124701,1,0,0:0:0:0:
448,192,124701,1,0,0:0:0:0:
64,192,124759,1,0,0:0:0:0:
320,192,124816,1,0,0:0:0:0:
448,192,124816,1,0,0:0:0:0:
192,192,124874,1,0,0:0:0:0:
64,192,124932,1,0,0:0:0:0:
448,192,124932,1,0,0:0:0:0:
320,192,124989,1,0,0:0:0:0:
192,192,125047,1,0,0:0:0:0:
64,192,125047,1,0,0:0:0:0:
448,192,125105,1,0,0:0:0:0:
320,192,125105,1,0,0:0:0:0:
192,192,125162,1,0,0:0:0:0:
64,192,125162,1,0,0:0:0:0:
320,192,125220,1,0,0:0:0:0:
448,192,125220,1,0,0:0:0:0:
448,192,125278,1,0,0:0:0:0:
64,192,125278,1,0,0:0:0:0:
192,192,125278,1,0,0:0:0:0:
320,192,125374,1,0,0:0:0:0:
320,192,125470,1,0,0:0:0:0:
320,192,125566,1,0,0:0:0:0:
64,192,125566,1,0,0:0:0:0:
448,192,125566,1,0,0:0:0:0:
192,192,125662,1,0,0:0:0:0:
192,192,125758,1,0,0:0:0:0:
192,192,125854,1,0,0:0:0:0:
192,192,125951,1,0,0:0:0:0:
192,192,126047,1,0,0:0:0:0:
64,192,126143,1,0,0:0:0:0:
448,192,126143,1,0,0:0:0:0:
320,192,126143,1,0,0:0:0:0:
320,192,126239,1,0,0:0:0:0:
320,192,126335,1,0,0:0:0:0:
64,192,126431,1,0,0:0:0:0:
320,192,126431,1,0,0:0:0:0:
320,192,126528,1,0,0:0:0:0:
320,192,126624,1,0,0:0:0:0:
192,192,126720,1,0,0:0:0:0:
448,192,126720,1,0,0:0:0:0:
64,192,126720,1,0,0:0:0:0:
192,192,126816,1,0,0:0:0:0:
192,192,126912,1,0,0:0:0:0:
192,192,127008,1,0,0:0:0:0:
192,192,127104,1,0,0:0:0:0:
192,192,127201,1,0,0:0:0:0:
320,192,127297,1,0,0:0:0:0:
448,192,127297,1,0,0:0:0:0:
64,192,127297,1,0,0:0:0:0:
448,192,127393,1,0,0:0:0:0:
448,192,127489,1,0,0:0:0:0:
64,192,127585,1,0,0:0:0:0:
192,192,127585,1,0,0:0:0:0:
320,192,127585,1,0,0:0:0:0:
64,192,127681,1,0,0:0:0:0:
64,192,127778,1,0,0:0:0:0:
448,192,127874,1,0,0:0:0:0:
320,192,127874,1,0,0:0:0:0:
64,192,127874,1,0,0:0:0:0:
64,192,127970,1,0,0:0:0:0:
64,192,128066,1,0,0:0:0:0:
448,192,128162,1,0,0:0:0:0:
320,192,128162,1,0,0:0:0:0:
320,192,128258,1,0,0:0:0:0:
320,192,128354,1,0,0:0:0:0:
448,192,128451,1,0,0:0:0:0:
448,192,128547,1,0,0:0:0:0:
192,192,128595,1,0,0:0:0:0:
64,192,128595,1,0,0:0:0:0:
448,192,128643,1,0,0:0:0:0:
448,192,128739,1,0,0:0:0:0:
448,192,128835,1,0,0:0:0:0:
448,192,128931,1,0,0:0:0:0:
64,192,129028,1,0,0:0:0:0:
192,192,129028,1,0,0:0:0:0:
320,192,129028,1,0,0:0:0:0:
320,192,129124,1,0,0:0:0:0:
320,192,129220,1,0,0:0:0:0:
192,192,129316,1,0,0:0:0:0:
448,192,129316,1,0,0:0:0:0:
192,192,129412,1,0,0:0:0:0:
192,192,129508,1,0,0:0:0:0:
64,192,129604,1,0,0:0:0:0:
320,192,129604,1,0,0:0:0:0:
448,192,129604,1,0,0:0:0:0:
64,192,129701,1,0,0:0:0:0:
64,192,129797,1,0,0:0:0:0:
192,192,129893,1,0,0:0:0:0:
448,192,129893,1,0,0:0:0:0:
320,192,129989,1,0,0:0:0:0:
64,192,130085,1,0,0:0:0:0:
192,192,130085,1,0,0:0:0:0:
320,192,130181,1,0,0:0:0:0:
448,192,130181,1,0,0:0:0:0:
192,192,130277,1,0,0:0:0:0:
192,192,130374,1,0,0:0:0:0:
64,192,130470,1,0,0:0:0:0:
448,192,130470,1,0,0:0:0:0:
320,192,130566,1,0,0:0:0:0:
192,192,130662,1,0,0:0:0:0:
64,192,130662,1,0,0:0:0:0:
320,192,130758,1,0,0:0:0:0:
448,192,130758,1,0,0:0:0:0:
64,192,130854,1,0,0:0:0:0:
64,192,130951,1,0,0:0:0:0:
192,192,131047,1,0,0:0:0:0:
448,192,131047,1,0,0:0:0:0:
320,192,131143,1,0,0:0:0:0:
192,192,131239,1,0,0:0:0:0:
64,192,131239,1,0,0:0:0:0:
320,192,131335,1,0,0:0:0:0:
448,192,131335,1,0,0:0:0:0:
192,192,131431,1,0,0:0:0:0:
192,192,131528,1,0,0:0:0:0:
64,192,131624,1,0,0:0:0:0:
320,192,131624,1,0,0:0:0:0:
448,192,131624,1,0,0:0:0:0:
192,192,131720,1,0,0:0:0:0:
320,192,131816,1,0,0:0:0:0:
64,192,131912,1,0,0:0:0:0:
448,192,131912,1,0,0:0:0:0:
192,192,132008,1,0,0:0:0:0:
320,192,132104,1,0,0:0:0:0:
64,192,132201,1,0,0:0:0:0:
448,192,132201,1,0,0:0:0:0:
192,192,132201,1,0,0:0:0:0:
320,192,132201,1,0,0:0:0:0:
192,192,132345,1,0,0:0:0:0:
320,192,132417,1,0,0:0:0:0:
64,192,132489,1,0,0:0:0:0:
192,192,132561,1,0,0:0:0:0:
320,192,132633,1,0,0:0:0:0:
64,192,132705,1,0,0:0:0:0:
192,192,132778,1,0,0:0:0:0:
320,192,132850,1,0,0:0:0:0:
448,192,132922,1,0,0:0:0:0:
192,192,132994,1,0,0:0:0:0:
320,192,133066,1,0,0:0:0:0:
448,192,133138,1,0,0:0:0:0:
64,192,133210,1,0,0:0:0:0:
64,192,133354,1,0,0:0:0:0:
192,192,133354,1,0,0:0:0:0:
320,192,133354,1,0,0:0:0:0:
448,192,133354,1,0,0:0:0:0:
320,192,133499,1,0,0:0:0:0:
192,192,133571,1,0,0:0:0:0:
64,192,133643,1,0,0:0:0:0:
320,192,133715,1,0,0:0:0:0:
192,192,133787,1,0,0:0:0:0:
64,192,133859,1,0,0:0:0:0:
448,192,133931,1,0,0:0:0:0:
320,192,134003,1,0,0:0:0:0:
192,192,134076,1,0,0:0:0:0:
448,192,134148,1,0,0:0:0:0:
320,192,134220,1,0,0:0:0:0:
192,192,134292,1,0,0:0:0:0:
64,192,134364,1,0,0:0:0:0:
64,192,134508,1,0,0:0:0:0:
192,192,134508,1,0,0:0:0:0:
320,192,134508,1,0,0:0:0:0:
448,192,134508,1,0,0:0:0:0:
64,192,134653,1,0,0:0:0:0:
192,192,134725,1,0,0:0:0:0:
320,192,134797,1,0,0:0:0:0:
64,192,134869,1,0,0:0:0:0:
192,192,134941,1,0,0:0:0:0:
320,192,135013,1,0,0:0:0:0:
64,192,135085,1,0,0:0:0:0:
192,192,135157,1,0,0:0:0:0:
320,192,135229,1,0,0:0:0:0:
448,192,135302,1,0,0:0:0:0:
192,192,135374,1,0,0:0:0:0:
320,192,135446,1,0,0:0:0:0:
448,192,135518,1,0,0:0:0:0:
64,192,135590,1,0,0:0:0:0:
192,192,135662,1,0,0:0:0:0:
448,192,135662,1,0,0:0:0:0:
320,192,135662,1,0,0:0:0:0:
64,192,135734,1,0,0:0:0:0:
192,192,135806,1,0,0:0:0:0:
320,192,135854,1,0,0:0:0:0:
448,192,135902,1,0,0:0:0:0:
64,192,135951,1,0,0:0:0:0:
192,192,135999,1,0,0:0:0:0:
320,192,136047,1,0,0:0:0:0:
448,192,136095,1,0,0:0:0:0:
64,192,136143,1,0,0:0:0:0:
192,192,136191,1,0,0:0:0:0:
320,192,136239,1,0,0:0:0:0:
448,192,136287,1,0,0:0:0:0:
192,192,136335,1,0,0:0:0:0:
320,192,136383,1,0,0:0:0:0:
64,192,136431,1,0,0:0:0:0:
192,192,136479,1,0,0:0:0:0:
320,192,136527,1,0,0:0:0:0:
448,192,136576,1,0,0:0:0:0:
64,192,136624,1,0,0:0:0:0:
192,192,136672,1,0,0:0:0:0:
64,192,136816,1,0,0:0:0:0:
320,192,136816,1,0,0:0:0:0:
448,192,136816,1,0,0:0:0:0:
192,192,136888,1,0,0:0:0:0:
320,192,136960,1,0,0:0:0:0:
448,192,136960,1,0,0:0:0:0:
64,192,137032,1,0,0:0:0:0:
192,192,137104,1,0,0:0:0:0:
320,192,137104,1,0,0:0:0:0:
448,192,137177,1,0,0:0:0:0:
64,192,137249,1,0,0:0:0:0:
192,192,137249,1,0,0:0:0:0:
320,192,137321,1,0,0:0:0:0:
448,192,137393,1,0,0:0:0:0:
64,192,137393,1,0,0:0:0:0:
320,192,137465,1,0,0:0:0:0:
192,192,137537,1,0,0:0:0:0:
448,192,137537,1,0,0:0:0:0:
64,192,137609,1,0,0:0:0:0:
320,192,137681,1,0,0:0:0:0:
192,192,137681,1,0,0:0:0:0:
448,192,137753,1,0,0:0:0:0:
64,192,137826,1,0,0:0:0:0:
192,192,137826,1,0,0:0:0:0:
320,192,137898,1,0,0:0:0:0:
64,192,137970,1,0,0:0:0:0:
192,192,137970,1,0,0:0:0:0:
448,192,137970,1,0,0:0:0:0:
320,192,138042,1,0,0:0:0:0:
64,192,138114,1,0,0:0:0:0:
448,192,138114,1,0,0:0:0:0:
192,192,138186,1,0,0:0:0:0:
320,192,138258,1,0,0:0:0:0:
448,192,138258,1,0,0:0:0:0:
192,192,138330,1,0,0:0:0:0:
64,192,138402,1,0,0:0:0:0:
448,192,138402,1,0,0:0:0:0:
320,192,138475,1,0,0:0:0:0:
192,192,138547,1,0,0:0:0:0:
448,192,138547,1,0,0:0:0:0:
64,192,138619,1,0,0:0:0:0:
320,192,138691,1,0,0:0:0:0:
448,192,138691,1,0,0:0:0:0:
192,192,138763,1,0,0:0:0:0:
64,192,138835,1,0,0:0:0:0:
320,192,138835,1,0,0:0:0:0:
448,192,138907,1,0,0:0:0:0:
192,192,138979,1,0,0:0:0:0:
64,192,138979,1,0,0:0:0:0:
320,192,139052,1,0,0:0:0:0:
448,192,139124,1,0,0:0:0:0:
192,192,139124,1,0,0:0:0:0:
64,192,139124,1,0,0:0:0:0:
320,192,139268,1,0,0:0:0:0:
448,192,139268,1,0,0:0:0:0:
64,192,139268,1,0,0:0:0:0:
192,192,139412,1,0,0:0:0:0:
64,192,139412,1,0,0:0:0:0:
320,192,139412,1,0,0:0:0:0:
192,192,139556,1,0,0:0:0:0:
448,192,139556,1,0,0:0:0:0:
320,192,139556,1,0,0:0:0:0:
64,192,139701,1,0,0:0:0:0:
192,192,139701,1,0,0:0:0:0:
448,192,139701,1,0,0:0:0:0:
320,192,139845,1,0,0:0:0:0:
64,192,139845,1,0,0:0:0:0:
448,192,139845,1,0,0:0:0:0:
192,192,139989,1,0,0:0:0:0:
320,192,139989,1,0,0:0:0:0:
448,192,139989,1,0,0:0:0:0:
64,192,140133,1,0,0:0:0:0:
192,192,140133,1,0,0:0:0:0:
320,192,140133,1,0,0:0:0:0:
64,192,140277,1,0,0:0:0:0:
192,192,140277,1,0,0:0:0:0:
448,192,140277,1,0,0:0:0:0:
320,192,140422,1,0,0:0:0:0:
448,192,140422,1,0,0:0:0:0:
192,192,140494,1,0,0:0:0:0:
64,192,140566,1,0,0:0:0:0:
448,192,140566,1,0,0:0:0:0:
320,192,140638,1,0,0:0:0:0:
192,192,140638,1,0,0:0:0:0:
448,192,140710,1,0,0:0:0:0:
64,192,140710,1,0,0:0:0:0:
320,192,140782,1,0,0:0:0:0:
64,192,140854,1,0,0:0:0:0:
192,192,140854,1,0,0:0:0:0:
448,192,140890,1,0,0:0:0:0:
320,192,140951,1,0,0:0:0:0:
192,192,140999,1,0,0:0:0:0:
448,192,141035,1,0,0:0:0:0:
320,192,141095,1,0,0:0:0:0:
64,192,141143,1,0,0:0:0:0:
448,192,141191,1,0,0:0:0:0:
192,192,141215,1,0,0:0:0:0:
64,192,141287,1,0,0:0:0:0:
320,192,141287,1,0,0:0:0:0:
448,192,141431,1,0,0:0:0:0:
64,192,141431,1,0,0:0:0:0:
192,192,141431,1,0,0:0:0:0:
320,192,141503,1,0,0:0:0:0:
64,192,141576,1,0,0:0:0:0:
192,192,141576,1,0,0:0:0:0:
320,192,141648,1,0,0:0:0:0:
448,192,141720,1,0,0:0:0:0:
64,192,141738,1,0,0:0:0:0:
192,192,141756,1,0,0:0:0:0:
320,192,141774,1,0,0:0:0:0:
64,192,142062,1,0,0:0:0:0:
320,192,142062,1,0,0:0:0:0:
448,192,142062,1,0,0:0:0:0:
192,192,142152,1,0,0:0:0:0:
64,192,142225,1,0,0:0:0:0:
448,192,142225,1,0,0:0:0:0:
320,192,142315,1,0,0:0:0:0:
64,192,142369,1,0,0:0:0:0:
192,192,142387,1,0,0:0:0:0:
320,192,142423,1,0,0:0:0:0:
448,192,142441,1,0,0:0:0:0:
64,192,142765,1,0,0:0:0:0:
448,192,142765,1,0,0:0:0:0:
192,192,142765,1,0,0:0:0:0:
320,192,142784,1,0,0:0:0:0:
64,192,142946,1,0,0:0:0:0:
192,192,142946,1,0,0:0:0:0:
64,192,143054,1,0,0:0:0:0:
192,192,143054,1,0,0:0:0:0:
64,192,143162,1,0,0:0:0:0:
192,192,143162,1,0,0:0:0:0:
64,192,143360,1,0,0:0:0:0:
192,192,143360,1,0,0:0:0:0:
64,192,143631,1,0,0:0:0:0:
192,192,143631,1,0,0:0:0:0:
320,192,143649,1,0,0:0:0:0:
448,192,143649,1,0,0:0:0:0:
