osu file format v14

[General]
AudioFilename: audio.mp3
AudioLeadIn: 0
PreviewTime: 210459
Countdown: 0
SampleSet: None
StackLeniency: 0.2
Mode: 0
LetterboxInBreaks: 0
WidescreenStoryboard: 1

[Editor]
Bookmarks: 171031,179602,188174,210459,223316,236173,262744,269601,276458,300458
DistanceSpacing: 0.2
BeatDivisor: 4
GridSize: 4
TimelineZoom: 2.2

[Metadata]
Title:Pisces (Live Session)
TitleUnicode:Pisces (Live Session)
Artist:Jinjer
ArtistUnicode:Jinjer
Creator:GoldenWolf
Version:Dyad
Source:
Tags:King of Everything Tatiana Shmailyuk Roman Ibramkhalilov Eugene Abdiukhanov Vladislav Ulasevich Metalcore Screams woof
BeatmapID:1848830
BeatmapSetID:884526

[Difficulty]
HPDrainRate:6
CircleSize:5
OverallDifficulty:9
ApproachRate:9
SliderMultiplier:1.4
SliderTickRate:1

[Events]
//Background and Video events
Video,250,"PISCES LIVE SESSION.avi"
0,0,"orz224.jpg",0,0
//Break Periods
//Storyboard Layer 0 (Background)
//Storyboard Layer 1 (Fail)
//Storyboard Layer 2 (Pass)
//Storyboard Layer 3 (Foreground)
//Storyboard Sound Samples

[TimingPoints]
461,428.571428571429,7,2,1,55,1,0
461,-200,7,2,1,55,0,0
11603,-200,7,3,4,85,0,0
11711,-200,7,3,1,5,0,0
12032,-200,7,3,11,85,0,0
12461,-133.333333333333,7,3,2,70,0,0
12568,-133.333333333333,7,3,2,70,0,0
13746,-133.333333333333,7,3,1,70,0,0
13853,-133.333333333333,7,3,2,70,0,0
15461,-133.333333333333,7,3,1,70,0,0
15568,-133.333333333333,7,3,2,70,0,0
16746,-133.333333333333,7,3,1,70,0,0
16853,-133.333333333333,7,3,2,70,0,0
18461,-133.333333333333,7,3,1,70,0,0
18568,-133.333333333333,7,3,2,70,0,0
19746,-133.333333333333,7,3,1,70,0,0
19853,-133.333333333333,7,3,2,70,0,0
21461,-133.333333333333,7,3,1,70,0,0
21568,-133.333333333333,7,3,2,70,0,0
22746,-133.333333333333,7,3,1,70,0,0
22853,-133.333333333333,7,3,2,70,0,0
24032,-133.333333333333,7,3,13,85,0,0
24461,-133.333333333333,7,3,2,70,0,0
25746,-133.333333333333,7,3,1,70,0,0
25853,-133.333333333333,7,3,2,70,0,0
27461,-133.333333333333,7,3,1,70,0,0
27568,-133.333333333333,7,3,2,70,0,0
28746,-133.333333333333,7,3,1,70,0,0
28853,-133.333333333333,7,3,2,70,0,0
30461,-133.333333333333,7,3,1,70,0,0
30568,-133.333333333333,7,3,2,70,0,0
31746,-133.333333333333,7,3,1,70,0,0
31853,-133.333333333333,7,3,2,70,0,0
33461,-133.333333333333,7,3,1,70,0,0
33568,-133.333333333333,7,3,2,70,0,0
34746,-133.333333333333,7,3,1,70,0,0
34853,-133.333333333333,7,3,2,70,0,0
35603,-133.333333333333,7,3,1,70,0,0
36032,-133.333333333333,7,3,13,70,0,0
36461,428.571428571429,6,3,7,70,1,0
36461,-133.333333333333,6,3,7,70,0,0
36568,-133.333333333333,6,3,2,70,0,0
56246,-133.333333333333,6,3,2,55,0,0
56318,-133.333333333333,6,3,2,25,0,0
56603,-133.333333333333,6,3,2,70,0,0
56675,-133.333333333333,6,3,2,55,0,0
56747,-133.333333333333,6,3,2,25,0,0
57032,428.571428571429,8,2,7,70,1,0
57032,-200,8,2,7,70,0,0
57246,-200,8,2,2,40,0,0
60460,-153.846153846154,8,2,2,50,0,0
63889,-125,8,2,2,60,0,0
67317,-105.263157894737,8,2,2,70,0,0
70317,-105.263157894737,8,2,4,70,0,0
70746,428.571428571429,5,3,3,85,1,1
70746,-50,5,3,3,85,0,1
70960,-50,5,3,1,85,0,1
71603,-200,5,3,2,85,0,1
72031,-50,5,3,5,85,0,1
72888,-100,5,3,5,85,0,1
73746,-200,5,3,5,85,0,1
74174,-40,5,3,5,85,0,1
75031,-50,5,3,5,85,0,1
75888,-200,5,3,5,85,0,1
76317,-50,5,3,5,85,0,1
78460,-100,5,3,5,85,0,1
78567,-100,5,3,5,5,0,1
79103,-100,5,3,10,85,0,1
79317,-50,5,3,3,85,0,1
79531,-50,5,3,1,85,0,1
80174,-200,5,3,2,85,0,1
80602,-50,5,3,5,85,0,1
81459,-100,5,3,5,85,0,1
82317,-200,5,3,5,85,0,1
82745,-33.3333333333333,5,3,5,85,0,1
83602,-50,5,3,5,85,0,1
84031,-50,5,3,4,85,0,1
84459,-200,5,3,6,85,0,1
84888,-50,5,3,5,85,0,1
85317,-50,5,3,4,85,0,1
85746,-50,5,3,5,85,0,1
87031,-100,5,3,5,85,0,1
87138,-100,5,3,5,5,0,1
87674,-100,5,3,10,85,0,1
87888,-50,5,3,3,85,0,1
88102,-50,5,3,1,85,0,1
88745,-200,5,3,2,85,0,1
89173,-50,5,3,5,85,0,1
90030,-100,5,3,5,85,0,1
90888,-200,5,3,5,85,0,1
91316,-33.3333333333333,5,3,5,85,0,1
92173,-50,5,3,13,85,0,1
92281,-50,5,3,11,85,0,1
92603,-50,5,3,10,85,0,1
93030,-200,5,3,4,85,0,1
93460,-50,5,3,13,85,0,1
93567,-50,5,3,11,85,0,1
93890,-50,5,3,10,85,0,1
94317,-50,5,3,3,85,0,1
94746,-50,5,3,5,85,0,1
95602,-100,5,3,5,85,0,1
95709,-100,5,3,5,5,0,1
96245,-100,5,3,10,85,0,1
96460,-50,5,3,3,85,0,1
96674,-50,5,3,3,85,0,1
96888,-50,5,3,1,85,0,1
97317,-200,5,3,2,85,0,1
97745,-50,5,3,5,85,0,1
98602,-100,5,3,5,85,0,1
99460,-200,5,3,5,85,0,1
99888,-33.3333333333333,5,3,5,85,0,1
100745,-50,5,3,5,85,0,1
101602,-200,5,3,5,85,0,1
102031,-50,5,3,5,85,0,1
104174,-100,5,3,5,85,0,1
104281,-100,5,3,5,5,0,1
104817,-100,5,3,10,85,0,1
105031,-50,5,3,3,85,0,1
105245,-50,5,3,1,85,0,1
105889,428.571428571429,7,3,1,100,1,0
105996,-133.333333333333,7,3,2,70,0,0
107174,-133.333333333333,7,3,3,70,0,0
107281,-133.333333333333,7,3,2,70,0,0
108889,-133.333333333333,7,3,3,70,0,0
108996,-133.333333333333,7,3,2,70,0,0
110174,-133.333333333333,7,3,3,70,0,0
110281,-133.333333333333,7,3,2,70,0,0
111889,-133.333333333333,7,3,3,70,0,0
111996,-133.333333333333,7,3,2,70,0,0
113174,-133.333333333333,7,3,3,70,0,0
113281,-133.333333333333,7,3,2,70,0,0
114889,-133.333333333333,7,3,3,70,0,0
114996,-133.333333333333,7,3,2,70,0,0
116174,-133.333333333333,7,3,3,70,0,0
116281,-133.333333333333,7,3,2,70,0,0
117139,-133.333333333333,7,3,2,25,0,0
117246,-133.333333333333,7,3,2,40,0,0
117353,-133.333333333333,7,3,2,25,0,0
117460,-133.333333333333,7,3,2,70,0,0
117567,-133.333333333333,7,3,2,40,0,0
117674,-133.333333333333,7,3,2,55,0,0
117781,-133.333333333333,7,3,2,40,0,0
117889,-133.333333333333,7,3,6,70,0,0
117996,-133.333333333333,7,3,2,70,0,0
119174,-133.333333333333,7,3,1,70,0,0
119281,-133.333333333333,7,3,2,70,0,0
120889,-133.333333333333,7,3,1,70,0,0
120996,-133.333333333333,7,3,2,70,0,0
122174,-133.333333333333,7,3,1,70,0,0
122281,-133.333333333333,7,3,2,70,0,0
123889,-133.333333333333,7,3,1,70,0,0
123996,-133.333333333333,7,3,2,70,0,0
125174,-133.333333333333,7,3,1,70,0,0
125281,-133.333333333333,7,3,2,70,0,0
126889,-133.333333333333,7,3,1,70,0,0
126996,-133.333333333333,7,3,2,70,0,0
128174,-133.333333333333,7,3,1,70,0,0
128281,-133.333333333333,7,3,2,70,0,0
129031,-133.333333333333,7,3,1,70,0,0
129460,-133.333333333333,7,3,13,85,0,0
129889,-133.333333333333,7,3,7,70,0,0
129996,-133.333333333333,7,3,2,70,0,0
131174,-133.333333333333,7,3,1,70,0,0
131281,-133.333333333333,7,3,2,70,0,0
132889,-133.333333333333,7,3,1,70,0,0
132996,-133.333333333333,7,3,2,70,0,0
134174,-133.333333333333,7,3,1,70,0,0
134281,-133.333333333333,7,3,2,70,0,0
135889,-133.333333333333,7,3,1,70,0,0
135996,-133.333333333333,7,3,2,70,0,0
137174,-133.333333333333,7,3,1,70,0,0
137281,-133.333333333333,7,3,2,70,0,0
138889,-133.333333333333,7,3,1,70,0,0
138996,-133.333333333333,7,3,2,70,0,0
140174,-133.333333333333,7,3,1,70,0,0
141460,-133.333333333333,7,3,13,85,0,0
141889,428.571428571429,6,3,7,70,1,0
141889,-133.333333333333,6,3,7,70,0,0
141996,-133.333333333333,6,3,2,70,0,0
159889,-100,6,3,3,70,0,0
159996,-100,6,3,2,70,0,0
160317,-90.9090909090909,6,3,2,70,0,0
160746,-83.3333333333333,6,3,2,70,0,0
161174,-71.4285714285714,6,3,1,70,0,0
161603,-62.5,6,3,1,70,0,0
162031,-333.333333333333,6,3,1,85,0,0
162460,428.571428571429,5,3,3,85,1,1
162460,-50,5,3,3,85,0,1
162674,-50,5,3,1,85,0,1
163317,-200,5,3,2,85,0,1
163745,-50,5,3,5,85,0,1
164602,-100,5,3,5,85,0,1
165460,-200,5,3,5,85,0,1
165888,-40,5,3,5,85,0,1
166745,-50,5,3,5,85,0,1
167602,-200,5,3,5,85,0,1
168031,-50,5,3,5,85,0,1
170174,-100,5,3,5,85,0,1
170281,-100,5,3,5,5,0,1
170817,-100,5,3,10,85,0,1
171031,-50,5,3,3,85,0,1
171245,-50,5,3,1,85,0,1
171888,-200,5,3,2,85,0,1
172316,-50,5,3,5,85,0,1
173173,-100,5,3,5,85,0,1
174031,-200,5,3,5,85,0,1
174459,-33.3333333333333,5,3,5,85,0,1
175316,-50,5,3,4,85,0,1
176173,-200,5,3,6,85,0,1
176602,-50,5,3,5,85,0,1
177031,-50,5,3,4,85,0,1
177460,-50,5,3,5,85,0,1
178745,-100,5,3,5,85,0,1
178852,-100,5,3,5,5,0,1
179388,-100,5,3,10,85,0,1
179602,-50,5,3,3,85,0,1
179816,-50,5,3,1,85,0,1
180459,-200,5,3,2,85,0,1
180887,-50,5,3,5,85,0,1
181744,-100,5,3,5,85,0,1
182602,-200,5,3,5,85,0,1
183030,-33.3333333333333,5,3,5,85,0,1
183887,-50,5,3,13,85,0,1
183995,-50,5,3,11,85,0,1
184317,-50,5,3,10,85,0,1
184744,-200,5,3,4,85,0,1
185174,-50,5,3,13,85,0,1
185281,-50,5,3,11,85,0,1
185604,-50,5,3,10,85,0,1
186031,-50,5,3,3,85,0,1
186460,-50,5,3,5,85,0,1
187316,-100,5,3,5,85,0,1
187423,-100,5,3,5,5,0,1
187959,-100,5,3,10,85,0,1
188174,-50,5,3,3,85,0,1
188388,-50,5,3,3,85,0,1
188602,-50,5,3,1,85,0,1
189031,-200,5,3,2,85,0,1
189459,-50,5,3,5,85,0,1
190316,-100,5,3,5,85,0,1
191174,-200,5,3,5,85,0,1
191602,-33.3333333333333,5,3,5,85,0,1
192459,-50,5,3,1,85,0,1
192888,-50,5,3,5,85,0,1
193316,-200,5,3,5,85,0,1
193745,-50,5,3,1,85,0,1
193817,-50,5,3,1,40,0,1
194174,-50,5,3,1,85,0,1
194245,-50,5,3,1,40,0,1
194602,-50,5,3,12,85,0,1
194674,-50,5,3,12,70,0,1
194745,-50,5,3,12,55,0,1
194817,-50,5,3,11,85,0,1
194888,-50,5,3,11,70,0,1
194960,-50,5,3,11,55,0,1
195031,-50,5,3,1,85,0,1
195174,-50,5,3,1,55,0,1
195317,-50,5,3,1,85,0,1
195460,-50,5,3,1,55,0,1
195602,-50,5,3,1,85,0,1
196460,-50,5,3,1,70,0,1
196745,-50,5,3,12,85,0,1
196817,-50,5,3,12,70,0,1
196888,-50,5,3,12,55,0,1
196960,-50,5,3,11,85,0,1
197031,-50,5,3,11,70,0,1
197103,-50,5,3,11,55,0,1
197174,-50,5,3,10,85,0,1
197245,-50,5,3,10,70,0,1
197317,-50,5,3,10,85,0,1
197388,-50,5,3,10,55,0,1
197460,-50,5,3,10,85,0,1
197531,-50,5,3,10,40,0,1
197602,428.571428571429,6,3,1,85,1,0
197602,-277.777777777778,6,3,1,85,0,0
197816,-277.777777777778,6,3,3,5,0,0
199959,-277.777777777778,6,3,3,40,0,0
200173,-277.777777777778,6,3,3,85,0,0
200280,-277.777777777778,6,3,3,5,0,0
201405,-277.777777777778,6,3,3,25,0,0
201459,-277.777777777778,6,3,3,70,0,0
201673,-277.777777777778,6,3,3,55,0,0
201887,-277.777777777778,6,3,3,40,0,0
202102,-277.777777777778,6,3,3,25,0,0
202316,-277.777777777778,6,3,3,70,0,0
202530,-277.777777777778,6,3,3,55,0,0
202744,-277.777777777778,6,3,3,85,0,0
202852,-277.777777777778,6,3,3,5,0,0
205102,-277.777777777778,6,3,3,40,0,0
205316,-277.777777777778,6,3,3,85,0,0
205423,-277.777777777778,6,3,3,5,0,0
206548,-277.777777777778,6,3,3,25,0,0
206602,-277.777777777778,6,3,3,70,0,0
206816,-277.777777777778,6,3,3,55,0,0
207030,-277.777777777778,6,3,3,40,0,0
207245,-277.777777777778,6,3,3,25,0,0
207459,-277.777777777778,6,3,3,70,0,0
207673,-277.777777777778,6,3,3,55,0,0
207887,-277.777777777778,6,3,3,85,0,0
208316,-277.777777777778,6,3,3,25,0,0
208530,-277.777777777778,6,3,3,10,0,0
208744,-277.777777777778,6,3,3,40,0,0
208959,-277.777777777778,6,3,3,25,0,0
209173,-277.777777777778,6,3,3,70,0,0
209602,-277.777777777778,6,3,3,40,0,0
209817,-277.777777777778,6,3,3,25,0,0
210030,-277.777777777778,6,3,3,40,0,0
210244,-277.777777777778,6,3,3,55,0,0
210459,-200,6,3,1,70,0,0
210566,-200,6,3,2,5,0,0
211530,-200,6,3,2,70,0,0
213030,-200,6,3,1,70,0,0
213137,-200,6,3,2,70,0,0
215602,-200,6,3,1,70,0,0
215709,-200,6,3,2,70,0,0
218173,-200,6,3,1,70,0,0
218280,-200,6,3,2,70,0,0
219566,-200,6,3,2,5,0,0
220316,-200,6,3,2,70,0,0
220744,-200,6,3,1,70,0,0
220851,-200,6,3,2,70,0,0
222030,-200,6,3,1,70,0,0
222137,-200,6,3,2,70,0,0
223316,-200,6,3,1,70,0,0
223423,-200,6,3,2,70,0,0
225887,-200,6,3,1,70,0,0
225994,-200,6,3,2,70,0,0
228459,-200,6,3,1,70,0,0
228566,-200,6,3,2,70,0,0
231030,-200,6,3,1,70,0,0
231137,-200,6,3,2,70,0,0
233602,-200,6,3,1,70,0,0
236173,-200,6,3,7,70,0,0
236494,-200,6,3,7,5,0,0
237244,-200,6,3,7,70,0,0
237566,-200,6,3,7,5,0,0
238530,-200,6,3,7,70,0,0
238852,-200,6,3,7,5,0,0
239816,-200,6,3,7,70,0,0
240137,-200,6,3,5,70,0,0
241316,-200,6,3,7,70,0,0
241423,-200,6,3,7,5,0,0
242387,-200,6,3,7,70,0,0
242709,-200,6,3,7,5,0,0
243673,-200,6,3,7,70,0,0
243994,-200,6,3,7,5,0,0
244958,-200,6,3,7,70,0,0
245280,-200,6,3,5,70,0,0
246459,-200,6,3,7,70,0,0
248173,-200,6,3,5,70,0,0
248387,-200,6,3,11,85,0,0
248602,-200,6,3,12,85,0,0
248816,-200,6,3,10,85,0,0
249030,428.571428571429,2,3,6,85,1,0
249172,-100,2,2,1,70,0,0
254887,-100,2,3,1,85,0,0
255458,-66.6666666666667,2,3,11,85,0,0
255601,-66.6666666666667,2,3,10,85,0,0
255887,428.571428571429,4,3,1,85,1,1
255887,-45.045045045045,4,3,1,85,0,1
256029,-45.045045045045,4,3,6,70,0,1
262744,-45.045045045045,4,3,3,70,0,1
262887,-45.045045045045,4,3,5,70,0,1
264601,-45.045045045045,4,3,5,40,0,1
264744,-45.045045045045,4,3,5,45,0,1
264887,-45.045045045045,4,3,5,50,0,1
265029,-45.045045045045,4,3,5,55,0,1
265172,-45.045045045045,4,3,5,70,0,1
266172,-45.045045045045,4,3,7,70,0,1
269601,-45.045045045045,4,3,1,85,0,1
269744,-45.045045045045,4,3,6,70,0,1
274887,-45.045045045045,4,3,5,40,0,1
275030,-45.045045045045,4,3,5,45,0,1
275173,-45.045045045045,4,3,5,50,0,1
275315,-45.045045045045,4,3,5,55,0,1
275458,-45.045045045045,4,3,5,70,0,1
276458,-45.045045045045,4,3,3,70,0,1
276601,-45.045045045045,4,3,5,70,0,1
283315,-45.045045045045,4,3,2,70,0,0
283458,-45.045045045045,4,3,5,70,0,0
285172,-45.045045045045,4,3,5,40,0,1
285315,-45.045045045045,4,3,5,45,0,1
285458,-45.045045045045,4,3,5,50,0,1
285600,-45.045045045045,4,3,5,55,0,1
285743,-45.045045045045,4,3,5,70,0,1
286744,-53.1914893617021,4,3,3,85,0,1
286815,-53.1914893617021,4,3,5,70,0,1
288458,-50,4,3,5,70,0,1
289029,-53.1914893617021,4,3,5,70,0,1
291887,-50,4,3,5,70,0,1
292458,-53.1914893617021,4,3,5,70,0,1
293601,-45.045045045045,4,3,4,70,0,1
293744,-45.045045045045,4,3,6,70,0,1
295315,-40.983606557377,4,3,6,70,0,1
295887,-45.045045045045,4,3,6,70,0,1
297029,-37.593984962406,4,3,3,70,0,1
297172,-37.593984962406,4,3,6,70,0,1
298744,-33.3333333333333,4,3,6,70,0,1
300458,-33.3333333333333,4,3,10,85,0,1
300601,-33.3333333333333,4,3,11,85,0,1
300744,-33.3333333333333,4,3,12,85,0,1
300887,-33.3333333333333,4,3,10,85,0,1
301315,-33.3333333333333,4,3,1,85,0,1
301887,-45.045045045045,4,3,1,100,0,0

[Colours]
Combo1 : 193,191,191
Combo2 : 232,186,140
Combo3 : 140,182,232
Combo4 : 232,140,186
Combo5 : 190,140,232
Combo6 : 239,128,16
Combo7 : 239,16,128
Combo8 : 239,16,16

[HitObjects]
100,344,461,6,0,L|64:340,2,35
176,300,1103,2,0,P|184:268|188:228,1,70,2|0,0:0|0:0,0:0:0:0:
256,176,1746,2,0,P|288:184|328:188,1,70,2|0,0:0|0:0,0:0:0:0:
368,284,2389,6,0,L|376:248,2,35
412,360,3032,1,2,0:0:0:0:
412,360,3461,102,0,L|448:356,2,35
328,336,4103,2,0,P|296:328|260:324,1,70,2|0,0:0|0:0,0:0:0:0:
204,256,4746,2,0,P|212:224|216:188,1,70,2|0,0:0|0:0,0:0:0:0:
308,136,5389,6,0,L|272:140,2,35
368,72,6032,1,2,0:0:0:0:
368,72,6461,102,0,L|372:36,2,35
304,132,7103,2,0,P|268:128|232:120,1,70,2|0,0:0|0:0,0:0:0:0:
160,168,7746,2,0,P|156:204|148:240,1,70,2|0,0:0|0:0,0:0:0:0:
236,296,8389,6,0,L|200:300,2,35
304,352,9032,1,2,0:0:0:0:
304,352,9461,102,0,L|340:348,2,35
236,296,10103,2,0,P|244:260|256:228,1,70,2|0,0:0|0:0,0:0:0:0:
208,156,10746,2,0,P|172:148|140:136,1,70,2|0,0:0|0:0,0:0:0:0:
64,208,11389,1,0,0:0:0:0:
104,304,11603,6,0,P|132:296|156:292,1,52.5,2|0,2:3|2:0,0:0:0:0:
172,288,12032,1,8,0:0:0:0:
172,288,12461,102,0,P|224:296|272:272,1,105.000004005432,4|2,0:0|2:3,0:0:0:0:
304,204,13103,1,2,2:3:0:0:
272,132,13318,2,0,L|280:76,1,52.5000020027161,10|2,2:3|0:0,0:0:0:0:
204,184,13746,6,0,L|152:192,1,52.5000020027161,2|2,0:0|2:3,0:0:0:0:
146,193,14068,1,2,2:3:0:0:
140,194,14175,1,2,2:3:0:0:
380,92,14603,2,0,L|372:164,1,70.0000026702882,10|2,2:3|2:3,0:0:0:0:
368,165,14961,1,2,2:3:0:0:
364,168,15032,2,0,P|324:160|284:156,1,78.7500030040742,2|2,0:0|2:3,0:0:0:0:
278,156,15461,102,0,L|270:56,1,78.7500030040742,2|2,0:0|2:3,0:0:0:0:
274,72,15889,2,0,L|306:68,2,26.2500010013581,2|2|2,2:3|2:3|2:3,0:0:0:0:
176,128,16318,2,0,L|124:120,1,52.5000020027161,10|2,2:3|0:0,0:0:0:0:
252,252,16746,5,2,0:0:0:0:
296,192,16961,2,0,P|296:168|288:140,1,52.5000020027161,2|2,2:3|2:3,0:0:0:0:
256,80,17389,1,2,2:3:0:0:
364,112,17603,2,0,L|435:101,1,70.0000026702882,10|2,2:3|2:3,0:0:0:0:
437,104,17961,1,2,2:3:0:0:
441,107,18032,2,0,P|443:147|450:187,1,78.7500030040742,2|2,0:0|2:3,0:0:0:0:
452,192,18461,102,0,L|448:272,1,78.7500030040742,2|2,0:0|2:3,0:0:0:0:
448,276,18889,2,0,L|452:308,2,26.2500010013581,2|2|2,2:3|2:3|2:3,0:0:0:0:
376,360,19318,1,10,2:3:0:0:
308,280,19532,1,2,0:0:0:0:
240,360,19746,6,0,P|208:364|188:368,1,52.5000020027161,2|2,0:0|2:3,0:0:0:0:
183,369,20068,1,2,2:3:0:0:
178,371,20175,1,2,2:3:0:0:
20,216,20603,2,0,L|28:144,1,70.0000026702882,10|2,2:3|2:3,0:0:0:0:
32,143,20961,1,2,2:3:0:0:
36,140,21032,2,0,L|32:112,2,26.2500010013581,2|2|2,2:3|2:3|2:3,0:0:0:0:
140,200,21461,102,0,P|177:202|220:208,1,78.7500030040742,2|2,0:0|2:3,0:0:0:0:
224,204,21889,2,0,L|228:172,2,26.2500010013581,2|2|2,2:3|2:3|2:3,0:0:0:0:
328,264,22318,2,0,L|380:260,1,52.5000020027161,10|2,2:3|0:0,0:0:0:0:
432,92,22746,5,2,0:0:0:0:
364,64,22961,2,0,P|340:64|312:72,1,52.5000020027161,2|2,2:3|2:3,0:0:0:0:
308,75,23282,1,2,2:3:0:0:
304,79,23389,1,2,2:3:0:0:
256,140,23603,1,10,2:3:0:0:
24,96,24032,1,10,0:0:0:0:
188,364,24461,102,0,P|184:312|172:260,1,105.000004005432,4|2,0:0|2:3,0:0:0:0:
170,255,24996,1,2,2:3:0:0:
167,250,25103,1,2,2:3:0:0:
104,192,25318,1,8,2:3:0:0:
152,88,25532,1,2,0:0:0:0:
248,208,25746,6,0,P|276:200|304:196,1,52.5000020027161,2|2,0:0|2:3,0:0:0:0:
304,196,26068,1,2,2:3:0:0:
309,196,26175,2,0,L|312:168,2,26.2500010013581,2|2|2,2:3|2:3|2:3,0:0:0:0:
180,324,26603,2,0,L|109:335,1,70.0000026702882,10|2,2:3|2:3,0:0:0:0:
107,332,26961,1,2,2:3:0:0:
103,329,27032,2,0,P|101:289|94:249,1,78.7500030040742,2|2,0:0|2:3,0:0:0:0:
92,244,27461,102,0,L|172:248,1,78.7500030040742,2|2,0:0|2:3,0:0:0:0:
176,244,27889,2,0,L|180:212,2,26.2500010013581,2|2|2,2:3|2:3|2:3,0:0:0:0:
304,352,28318,2,0,L|252:360,1,52.5000020027161,10|2,2:3|0:0,0:0:0:0:
368,248,28746,6,0,P|396:252|423:260,1,52.5000020027161,2|2,0:0|2:3,0:0:0:0:
484,204,29175,2,0,L|488:178,2,26.2500010013581,2|2|2,2:3|2:3|2:3,0:0:0:0:
360,56,29603,2,0,L|289:45,1,70.0000026702882,10|2,2:3|2:3,0:0:0:0:
287,48,29961,1,2,2:3:0:0:
283,51,30032,2,0,P|281:91|274:131,1,78.7500030040742,2|2,0:0|2:3,0:0:0:0:
272,140,30461,102,0,B|320:168|372:140|372:140|420:112|472:140,1,210.000008010865,2|10,0:0|2:3,0:0:0:0:
420,200,31532,1,2,0:0:0:0:
464,265,31746,6,0,P|476:317|448:369,1,105.000004005432,2|2,0:0|2:3,0:0:0:0:
396,308,32389,1,2,2:3:0:0:
324,340,32603,2,0,L|253:326,1,70.0000026702882,10|2,2:3|2:3,0:3:0:0:
252,322,32961,1,2,2:3:0:0:
249,318,33032,2,0,P|260:279|267:239,1,78.7500030040742,2|2,0:3|2:3,0:3:0:0:
268,234,33461,102,0,L|188:223,1,78.7500030040742,2|2,0:3|2:3,0:3:0:0:
184,226,33889,2,0,L|177:257,2,26.2500010013581,2|2|2,2:3|2:3|2:3,0:3:0:0:
156,152,34318,1,10,2:3:0:0:
196,84,34532,1,2,0:0:0:0:
268,148,34746,6,0,P|312:140|348:136,1,78.7500030040742,2|2,0:0|2:3,0:0:0:0:
352,136,35175,2,0,P|356:108|364:84,1,52.5000020027161,2|2,2:3|2:3,0:0:0:0:
392,12,35603,1,10,2:3:0:0:
80,164,36032,1,10,0:0:0:0:
368,359,36461,6,0,P|384:288|316:256,1,157.500006008148,4|2,0:0|2:3,0:0:0:0:
292,332,37318,1,10,2:3:0:0:
216,356,37532,1,0,0:0:0:0:
172,260,37746,6,0,P|200:264|224:272,1,52.5000020027161,2|2,0:0|2:3,0:0:0:0:
320,176,38175,2,0,P|292:180|268:188,1,52.5000020027161,2|2,2:3|2:3,0:0:0:0:
320,64,38603,2,0,P|348:68|372:76,1,52.5000020027161,10|2,0:0|2:3,0:0:0:0:
436,352,39032,102,0,P|444:300|460:248,1,105.000004005432,2|2,0:0|2:3,0:0:0:0:
463,243,39568,1,2,2:3:0:0:
468,237,39675,1,2,2:3:0:0:
352,336,39889,2,0,P|332:332|300:328,1,52.5000020027161,10|2,2:3|0:0,0:0:0:0:
144,368,40318,6,0,P|150:316|154:288,1,78.7500030040742,2|0,0:0|2:0,0:0:0:0:
156,284,40746,2,0,P|150:232|146:204,1,78.7500030040742,2|0,2:3|2:0,0:0:0:0:
144,200,41175,2,0,P|168:217|216:217,1,78.7500030040742,10|0,2:3|2:0,0:0:0:0:
222,211,41603,102,0,B|242:175|222:136|222:136|201:100|222:61,1,157.500006008148,2|2,0:0|2:3,0:0:0:0:
288,100,42461,1,10,2:3:0:0:
156,171,42675,1,2,0:0:0:0:
40,76,42889,6,0,P|72:80|96:84,1,52.5000020027161,2|2,0:0|2:3,0:0:0:0:
172,244,43318,2,0,P|140:240|116:236,1,52.5000020027161,2|2,2:3|2:3,0:0:0:0:
312,164,43746,2,0,P|337:159|363:156,1,52.5000020027161,10|2,2:3|2:3,0:0:0:0:
260,380,44175,102,0,P|252:332|232:280,1,105.000004005432,2|2,0:0|2:3,0:0:0:0:
227,272,44711,1,2,2:3:0:0:
222,265,44818,1,2,2:3:0:0:
340,272,45032,2,0,P|344:240|348:220,1,52.5000020027161,10|2,2:3|0:0,0:0:0:0:
228,116,45461,6,0,P|196:120|148:124,1,78.7500030040742,2|0,0:0|2:0,0:0:0:0:
141,125,45889,2,0,P|101:120|62:117,1,78.7500030040742,2|0,2:3|2:0,0:0:0:0:
56,120,46318,2,0,P|49:158|64:194,1,78.7500030040742,10|0,2:3|2:0,0:0:0:0:
68,200,46746,102,0,B|104:220|143:200|143:200|179:179|218:200,1,157.500006008148,2|2,0:0|2:3,0:0:0:0:
180,268,47603,1,10,2:3:0:0:
256,132,47818,1,2,0:0:0:0:
380,228,48032,6,0,P|440:244|504:184,1,157.500006008148,2|2,0:0|2:3,0:0:0:0:
420,114,48889,2,0,L|428:166,1,52.5000020027161,10|2,2:3|2:3,0:0:0:0:
324,336,49318,102,0,P|284:324|220:312,1,105.000004005432,2|2,0:0|2:3,0:0:0:0:
214,310,49853,1,2,2:3:0:0:
206,309,49961,1,2,2:3:0:0:
260,112,50175,1,10,2:3:0:0:
292,196,50389,1,2,0:0:0:0:
376,224,50603,6,0,P|412:212|452:204,1,78.7500030040742,2|0,0:0|2:0,0:0:0:0:
460,204,51032,2,0,P|448:240|440:280,1,78.7500030040742,2|0,2:3|2:0,0:0:0:0:
440,288,51461,2,0,P|424:292|372:288,1,70.0000026702882,10|2,2:3|2:3,0:0:0:0:
366,286,51818,1,2,2:3:0:0:
361,284,51889,102,0,P|308:296|264:320,1,105.000004005432,2|2,0:0|2:3,0:0:0:0:
208,368,52532,1,2,2:3:0:0:
168,276,52746,1,10,2:3:0:0:
216,188,52961,1,2,0:0:0:0:
400,192,53175,6,0,P|320:208|284:152,1,157.500006008148,2|2,0:0|2:3,0:0:0:0:
424,72,54032,2,0,L|372:84,1,52.5000020027161,10|2,2:3|2:3,0:0:0:0:
200,144,54461,102,0,P|152:128|96:116,1,105.000004005432,2|2,0:0|2:3,0:0:0:0:
91,114,54996,1,2,2:3:0:0:
83,113,55103,1,2,2:3:0:0:
240,64,55318,1,10,2:3:0:0:
276,192,55532,1,2,0:0:0:0:
433,143,55746,1,4,0:0:0:0:
312,304,56175,53,8,2:3:0:0:
310,309,56246,2,0,L|302:329,4,17.500000667572,8|8|8|8|8,2:3|2:3|2:3|2:3|2:3,0:0:0:0:
252,272,56603,1,8,2:3:0:0:
250,277,56675,2,0,L|242:297,4,17.500000667572,8|8|8|8|8,2:3|2:3|2:3|2:3|2:3,0:0:0:0:
192,240,57032,22,0,P|184:208|200:176,1,70,4|10,0:3|0:0,0:0:0:0:
288,144,57674,2,0,P|296:176|280:208,1,70,2|2,0:0|0:0,0:0:0:0:
220,100,58317,2,0,L|216:28,2,70,10|10|10,0:0|0:0|0:0,0:0:0:0:
120,192,59603,2,0,L|100:188,2,17.5,10|2|2,0:0|0:0|0:0,0:0:0:0:
172,256,60032,2,0,L|208:248,1,35,10|2,0:0|0:0,0:0:0:0:
284,288,60460,22,0,P|316:296|364:268,1,90.9999958343508,10|10,0:0|0:0,0:0:0:0:
344,184,61103,2,0,P|312:176|264:204,1,90.9999958343508,2|2,0:0|0:0,0:0:0:0:
428,328,61746,2,0,L|440:236,2,90.9999958343508,10|10|10,0:0|0:0|0:0,0:0:0:0:
392,128,63032,1,10,0:0:0:0:
393,121,63139,1,2,0:0:0:0:
394,114,63246,1,2,0:0:0:0:
309,200,63460,2,0,L|261:204,1,45.4999979171754,10|2,0:0|0:0,0:0:0:0:
100,104,63889,86,0,P|144:96|200:132,1,112,10|10,0:0|0:0,0:0:0:0:
168,248,64532,2,0,P|124:256|68:220,1,112,2|2,0:0|0:0,0:0:0:0:
292,224,65174,2,0,L|276:336,2,112,10|10|10,0:0|0:0|0:0,0:0:0:0:
364,156,66246,1,2,0:0:0:0:
312,72,66460,1,10,0:0:0:0:
313,65,66567,1,2,0:0:0:0:
314,58,66674,1,2,0:0:0:0:
188,132,66889,2,0,L|244:140,1,56,10|2,0:0|0:0,0:0:0:0:
396,264,67317,22,0,L|404:332,2,66.4999982242585,10|2|10,0:0|0:0|0:0,0:0:0:0:
472,136,67960,2,0,L|464:68,2,66.4999982242585,2|10|2,0:0|0:0|0:0,0:0:0:0:
466,144,68496,1,2,0:0:0:0:
460,152,68603,2,0,L|392:144,1,66.4999982242585,10|2,0:0|0:0,0:0:0:0:
312,212,69032,2,0,L|244:204,1,66.4999982242585,10|2,0:0|0:0,0:0:0:0:
216,104,69460,2,0,L|148:96,1,66.4999982242585,10|2,0:0|0:0,0:0:0:0:
68,164,69889,2,0,L|0:156,1,66.4999982242585,10|2,0:0|0:0,0:0:0:0:
128,332,70317,69,2,0:3:0:0:
128,332,70746,70,0,B|120:296|120:296|92:276,1,70,4|0,0:0|2:0,0:0:0:0:
228,208,70960,2,0,B|236:172|236:172|264:152,1,70,2|0,0:0|2:0,0:0:0:0:
204,24,71174,2,0,B|132:32|132:32|96:88|96:88|24:96,1,210,4|0,0:0|2:0,0:0:0:0:
26,96,71603,38,0,B|37:121|37:121|29:149,1,52.5,4|0,0:0|2:0,0:0:0:0:
24,160,72031,86,0,B|56:168|56:168|76:200,1,70,4|0,0:0|2:0,0:0:0:0:
128,332,72246,2,0,B|160:324|160:324|180:292,1,70,0|0,0:0|2:0,0:0:0:0:
288,136,72460,2,0,B|360:128|360:128|404:180|404:180|472:172,1,210,12|0,0:0|2:0,0:0:0:0:
473,172,72888,102,0,B|457:241|457:241|401:281|401:281|385:353,1,210,4|8,0:0|0:0,0:0:0:0:
292,48,73746,38,0,B|268:36|268:36|240:44,1,52.5,4|0,0:0|2:0,0:0:0:0:
232,48,74174,86,0,B|256:116|256:116|320:136|320:136|348:204|348:204|324:268|324:268|296:204,1,350,12|4,0:0|0:0,0:0:0:0:
316,48,74817,1,0,0:0:0:0:
132,296,75031,102,0,B|100:304|100:304|76:332,1,70,4|0,0:0|2:0,0:0:0:0:
132,116,75246,2,0,B|100:108|100:108|76:80,1,70,0|0,0:0|2:0,0:0:0:0:
304,296,75460,2,0,B|280:268|280:268|248:260,1,70,4|0,0:0|2:0,0:0:0:0:
308,116,75674,2,0,B|284:144|284:144|252:152,1,70,0|0,0:0|2:0,0:0:0:0:
496,240,75888,38,0,B|506:213|506:213|495:193,1,52.5,12|0,0:0|2:0,0:0:0:0:
488,184,76317,86,0,B|456:192|456:192|432:220,1,70,4|0,0:0|2:0,0:0:0:0:
352,88,76532,2,0,B|320:80|320:80|296:52,1,70,0|0,0:0|2:0,0:0:0:0:
264,240,76746,2,0,B|240:212|240:212|208:204,1,70,4|0,0:0|2:0,0:0:0:0:
152,80,76960,2,0,B|128:108|128:108|96:116,1,70,0|0,0:0|2:0,0:0:0:0:
36,296,77174,102,0,B|104:308|104:308|160:352|160:352|232:332,1,210,12|0,0:0|2:0,0:0:0:0:
248,328,77603,2,0,B|256:296|256:296|280:268,1,70,4|0,0:0|2:0,0:0:0:0:
408,324,77817,2,0,B|400:356|400:356|376:384,1,70,0|0,0:0|2:0,0:0:0:0:
368,220,78031,2,0,B|360:152|360:152|392:88|392:88|352:28,1,210,4|0,0:0|2:0,0:0:0:0:
344,20,78460,6,0,B|272:36|272:36|212:12|212:12|140:28,1,210,4|4,0:0|0:0,0:0:0:0:
96,76,79210,1,4,0:0:0:0:
120,140,79317,102,0,B|156:148|156:148|184:132,1,70,4|0,0:0|2:0,0:0:0:0:
312,168,79531,2,0,B|348:160|348:160|376:176,1,70,10|0,0:0|2:0,0:0:0:0:
440,336,79746,2,0,B|428:268|428:268|472:212|472:212|460:144,1,210,4|0,0:0|2:0,0:0:0:0:
460,143,80174,38,0,B|437:132|437:132|433:104,1,52.5,4|0,0:0|2:0,0:0:0:0:
432,92,80603,86,0,B|400:100|400:100|364:88,1,70,4|0,0:0|2:0,0:0:0:0:
284,248,80817,2,0,B|252:240|252:240|216:252,1,70,0|0,0:0|2:0,0:0:0:0:
176,56,81031,2,0,B|108:68|108:68|72:128|72:128|0:140,1,210,12|0,0:0|2:0,0:0:0:0:
2,140,81460,102,0,B|18:209|18:209|74:249|74:249|90:321,1,210,4|8,0:0|0:0,0:0:0:0:
444,232,82317,38,0,B|452:208|452:208|440:180,1,52.5,4|0,0:0|2:0,0:0:0:0:
436,172,82746,86,0,B|332:180|332:180|256:256|256:256|152:264|152:264|228:192,1,420.000016021729,12|4,0:0|0:0,0:0:0:0:
376,276,83388,1,0,0:0:0:0:
300,80,83603,102,0,B|296:44|296:44|312:12,1,70,4|0,0:0|2:0,0:0:0:0:
208,104,83817,2,0,B|189:73|189:73|190:37,1,70,0|0,0:0|2:0,0:0:0:0:
36,220,84031,2,0,B|40:184|40:184|24:152,1,70,2|0,0:0|2:0,0:0:0:0:
128,244,84245,2,0,B|146:213|146:213|145:177,1,70,0|0,0:0|2:0,0:0:0:0:
204,332,84460,38,0,B|232:340|232:340|256:332,1,52.5,14|0,0:0|2:0,0:0:0:0:
268,328,84888,86,0,B|276:296|276:296|300:268,1,70,4|0,0:0|2:0,0:0:0:0:
392,176,85103,2,0,B|416:204|416:204|424:236,1,70,0|0,0:0|2:0,0:0:0:0:
188,104,85317,2,0,B|164:76|164:76|156:44,1,70,2|0,0:0|2:0,0:0:0:0:
312,136,85531,2,0,B|304:168|304:168|280:196,1,70,0|0,0:0|2:0,0:0:0:0:
24,236,85746,102,0,B|92:224|92:224|144:272|144:272|208:240,1,210,4|0,0:0|2:0,0:0:0:0:
224,232,86174,2,0,B|216:200|216:200|188:176,1,70,4|0,0:0|2:0,0:0:0:0:
260,76,86388,2,0,B|268:44|268:44|296:20,1,70,0|0,0:0|2:0,0:0:0:0:
452,108,86603,2,0,B|420:172|420:172|440:236|440:236|404:300,1,210,4|0,0:0|2:0,0:0:0:0:
400,308,87031,6,0,B|332:296|332:296|272:332|272:332|200:320,1,210,4|4,0:0|0:0,0:0:0:0:
176,256,87781,1,4,0:0:0:0:
215,197,87888,102,0,B|239:221|239:221|247:257,1,70,4|0,0:0|2:0,0:0:0:0:
40,336,88103,2,0,B|16:312|16:312|8:276,1,70,2|0,0:0|2:0,0:0:0:0:
164,96,88317,2,0,B|152:168|152:168|96:204|96:204|84:276,1,210,4|0,0:0|2:0,0:0:0:0:
92,280,88746,38,0,B|120:276|120:276|140:288,1,52.5,4|0,0:0|2:0,0:0:0:0:
152,296,89174,86,0,B|180:280|180:280|200:248,1,70,4|0,0:0|2:0,0:0:0:0:
164,96,89388,2,0,B|192:112|192:112|212:144,1,70,0|0,0:0|2:0,0:0:0:0:
304,344,89603,2,0,B|312:312|312:312|304:276,1,70,12|0,0:0|2:0,0:0:0:0:
316,60,89817,2,0,B|324:91|324:91|316:127,1,70,8|0,0:0|2:0,0:0:0:0:
512,156,90031,102,0,B|425:165|425:165|401:194|401:194|314:204,1,210,4|8,0:0|0:0,0:0:0:0:
24,180,90888,38,0,B|52:184|52:184|68:204,1,52.5,4|0,0:0|2:0,0:0:0:0:
76,212,91317,86,0,B|176:180|176:180|272:224|272:224|372:188|372:188|268:180,1,420.000016021729,4|4,0:0|0:0,0:0:0:0:
168,304,91960,1,0,0:0:0:0:
252,88,92174,102,0,L|232:16,1,70,10|0,0:0|2:0,0:0:0:0:
400,140,92388,2,0,L|381:72,1,70,4|0,0:0|2:0,0:0:0:0:
257,252,92603,2,0,L|240:320,1,70,8|0,0:0|2:0,0:0:0:0:
416,300,92817,2,0,L|396:376,1,70,4|0,0:0|2:0,0:0:0:0:
468,116,93031,38,0,B|476:140|476:140|468:168,1,52.5,10|0,0:0|2:0,0:0:0:0:
464,180,93460,86,0,L|396:168,1,70,10|0,0:0|2:0,0:0:0:0:
116,200,93674,2,0,L|184:212,1,70,4|0,0:0|2:0,0:0:0:0:
304,332,93888,2,0,L|316:264,1,70,8|0,0:0|2:0,0:0:0:0:
280,48,94103,2,0,L|268:116,1,70,4|0,0:0|2:0,0:0:0:0:
220,292,94317,102,0,B|152:304|152:304|104:356|104:356|36:336,1,210,12|0,0:0|2:0,0:0:0:0:
24,332,94746,2,0,B|16:296|16:296|32:268,1,70,4|0,0:0|2:0,0:0:0:0:
196,96,94960,2,0,B|188:132|188:132|204:160,1,70,0|0,0:0|2:0,0:0:0:0:
380,356,95174,2,0,B|396:288|396:288|448:240|448:240|432:172,1,210,4|0,0:0|2:0,0:0:0:0:
428,160,95603,6,0,B|360:176|360:176|324:236|324:236|256:252,1,210,4|4,0:0|0:0,0:0:0:0:
192,224,96353,1,4,0:0:0:0:
156,164,96460,102,0,B|173:134|173:134|208:120,1,70,4|0,0:0|2:0,0:0:0:0:
388,264,96674,2,0,B|370:293|370:293|335:307,1,70,2|0,0:0|2:0,0:0:0:0:
72,160,96888,2,0,B|115:65|115:65|220:38,1,210,4|0,0:0|2:0,0:0:0:0:
232,36,97317,38,0,B|252:52|252:52|280:48,1,52.5,4|0,0:0|2:0,0:0:0:0:
296,44,97746,86,0,B|280:76|280:76|292:112,1,70,4|0,0:0|2:0,0:0:0:0:
360,336,97960,2,0,B|376:304|376:304|364:268,1,70,0|0,0:0|2:0,0:0:0:0:
60,224,98174,2,0,B|128:212|128:212|200:224|200:224|268:212,1,210,4|0,0:0|2:0,0:0:0:0:
284,208,98603,102,0,B|300:140|300:140|264:80|264:80|280:12,1,210,4|8,0:0|0:0,0:0:0:0:
196,376,99460,38,0,B|167:372|167:372|151:355,1,52.5,4|0,3:0|3:0,3:0:0:0:
144,344,99888,86,0,B|158:258|158:258|229:222|229:222|244:136|244:136|192:68|192:68|176:148,1,420.000016021729,12|4,0:0|0:0,0:0:0:0:
244,324,100531,1,0,0:0:0:0:
460,108,100746,102,0,B|424:112|424:112|404:140,1,70,4|0,0:0|2:0,0:0:0:0:
344,296,100960,2,0,B|308:292|308:292|288:264,1,70,0|0,0:0|2:0,0:0:0:0:
248,100,101174,2,0,B|228:72|228:72|192:68,1,70,4|0,0:0|2:0,0:0:0:0:
116,224,101388,2,0,B|96:252|96:252|60:256,1,70,0|0,0:0|2:0,0:0:0:0:
0,112,101603,38,0,B|28:116|28:116|44:136,1,52.5,12|0,0:0|2:0,0:0:0:0:
48,144,102031,86,0,B|84:140|84:140|104:112,1,70,4|0,0:0|2:0,0:0:0:0:
160,280,102245,2,0,B|196:284|196:284|216:312,1,70,0|0,0:0|2:0,0:0:0:0:
268,100,102460,2,0,B|288:128|288:128|324:132,1,70,4|0,0:0|2:0,0:0:0:0:
400,280,102673,2,0,B|420:252|420:252|456:248,1,70,0|0,0:0|2:0,0:0:0:0:
496,12,102888,102,0,B|436:52|436:52|372:16|372:16|308:36,1,210,12|0,0:0|2:0,0:0:0:0:
300,40,103317,2,0,B|268:28|268:28|232:40,1,70,4|0,0:0|2:0,0:0:0:0:
156,260,103531,2,0,B|188:272|188:272|224:260,1,70,0|0,0:0|2:0,0:0:0:0:
60,44,103746,2,0,B|44:112|44:112|76:168|76:168|40:236,1,210,4|0,0:0|2:0,0:0:0:0:
36,244,104174,6,0,B|108:228|108:228|156:276|156:276|224:260,1,210,4|4,0:0|0:0,0:0:0:0:
264,204,104924,1,4,0:0:0:0:
248,136,105031,102,0,B|232:104|232:104|200:92,1,70,4|0,0:0|2:0,0:0:0:0:
80,312,105246,2,0,B|96:344|96:344|128:356,1,70,0|0,0:0|2:0,0:0:0:0:
460,248,105460,2,0,B|392:264|392:264|356:324|356:324|288:340,1,210,4|0,0:0|2:0,0:0:0:0:
272,344,105889,38,0,P|260:312|292:252,1,105,4|2,0:0|2:3,0:0:0:0:
300,248,106317,2,0,L|296:196,1,52.5000020027161,2|2,2:3|2:3,0:0:0:0:
228,136,106746,2,0,L|224:84,1,52.5000020027161,10|2,2:3|2:3,0:0:0:0:
228,76,107067,1,2,2:3:0:0:
232,68,107174,22,0,P|280:84|328:64,1,105.000004005432,2|2,2:3|2:3,0:0:0:0:
424,128,107817,1,2,2:3:0:0:
428,132,107924,1,2,2:3:0:0:
432,136,108031,2,0,L|424:188,1,52.5000020027161,10|2,2:3|2:3,0:0:0:0:
356,248,108460,2,0,L|348:300,1,52.5000020027161,2|2,0:0|2:3,0:0:0:0:
280,360,108889,102,0,P|240:352|200:348,1,78.7500030040742,2|2,0:0|2:3,0:0:0:0:
192,348,109317,2,0,L|188:316,2,26.2500010013581,2|2|2,2:3|2:3|2:3,0:0:0:0:
128,248,109746,1,10,2:3:0:0:
172,164,109960,1,2,0:0:0:0:
268,256,110174,6,0,L|216:252,1,52.5000020027161,2|2,0:0|2:3,0:0:0:0:
208,248,110496,1,2,2:3:0:0:
200,244,110603,1,2,2:3:0:0:
364,208,110817,1,2,2:3:0:0:
320,304,111031,2,0,L|328:360,1,52.5000020027161,10|2,2:3|2:3,0:0:0:0:
336,360,111353,1,2,2:3:0:0:
344,364,111460,2,0,L|396:356,1,52.5000020027161,2|2,0:0|2:3,0:0:0:0:
296,188,111889,102,0,L|204:200,1,78.7500030040742,2|2,0:0|2:3,0:0:0:0:
208,200,112317,2,0,L|200:252,1,52.5000020027161,2|2,2:3|2:3,0:0:0:0:
112,140,112746,1,10,2:3:0:0:
224,84,112960,1,2,0:0:0:0:
296,188,113174,6,0,L|388:176,1,78.7500030040742,2|2,0:0|2:3,0:0:0:0:
384,176,113603,2,0,L|380:204,2,26.2500010013581,2|2|2,2:3|2:3|2:3,0:0:0:0:
300,308,114031,2,0,L|248:300,1,52.5000020027161,10|2,2:3|2:3,0:0:0:0:
237,298,114353,1,2,2:3:0:0:
226,296,114460,2,0,L|234:244,1,52.5000020027161,2|2,0:0|2:3,0:0:0:0:
300,136,114889,102,0,P|252:144|212:108,1,105.000004005432,2|2,0:0|2:3,0:0:0:0:
210,98,115424,1,2,2:3:0:0:
208,87,115531,1,2,2:3:0:0:
360,100,115746,1,10,2:3:0:0:
408,244,115960,1,2,0:0:0:0:
320,368,116174,6,0,L|268:360,1,52.5000020027161,2|2,0:0|2:3,0:0:0:0:
257,358,116496,1,2,2:3:0:0:
246,356,116603,2,0,L|244:324,2,26.2500010013581,2|2|2,2:3|2:3|2:3,0:0:0:0:
296,176,117031,5,8,2:3:0:0:
268,200,117139,1,8,2:3:0:0:
257,198,117246,1,8,2:3:0:0:
246,197,117353,1,8,2:3:0:0:
216,220,117460,5,8,2:3:0:0:
195,189,117568,1,8,2:3:0:0:
184,188,117675,1,8,2:3:0:0:
173,186,117782,1,8,2:3:0:0:
152,155,117889,70,0,P|140:112|168:60,1,105.000004005432,6|2,0:0|2:3,0:0:0:0:
208,116,118531,1,2,2:3:0:0:
104,208,118746,2,0,L|52:212,1,52.5000020027161,10|2,2:3|0:0,0:0:0:0:
184,312,119174,6,0,L|264:320,1,78.7500030040742,2|2,0:0|2:3,0:0:0:0:
268,316,119603,2,0,L|264:283,2,26.2500010013581,2|2|2,2:3|2:3|2:3,2:3:0:0:
356,206,120031,2,0,L|428:214,1,70.0000026702882,10|2,2:3|2:3,0:0:0:0:
429,218,120389,1,2,2:3:0:0:
432,222,120460,2,0,P|424:262|420:302,1,78.7500030040742,2|2,0:0|2:3,0:0:0:0:
420,310,120889,102,0,L|320:318,1,78.7500030040742,2|2,0:0|2:3,0:0:0:0:
336,312,121317,2,0,P|308:300|284:296,1,52.5000020027161,2|2,2:3|2:3,0:0:0:0:
200,304,121746,1,10,2:3:0:0:
128,352,121960,1,2,0:0:0:0:
60,240,122174,6,0,P|68:200|80:160,1,78.7500030040742,2|2,0:0|2:3,0:0:0:0:
76,156,122603,2,0,L|68:128,2,26.2500010013581,2|2|2,2:3|2:3|2:3,0:0:0:0:
192,196,123031,2,0,L|174:266,1,70.0000026702882,10|2,2:3|2:3,0:0:0:0:
178,268,123389,1,2,2:3:0:0:
181,272,123460,2,0,P|221:278|260:288,1,78.7500030040742,2|2,0:0|2:3,0:0:0:0:
268,292,123889,102,0,L|367:282,1,78.7500030040742,2|2,0:0|2:3,0:0:0:0:
352,281,124317,2,0,L|350:248,2,26.2500010013581,2|2|2,2:3|2:3|2:3,0:0:0:0:
396,156,124746,1,10,2:3:0:0:
284,176,124960,1,2,0:0:0:0:
328,20,125174,6,0,L|324:72,1,52.5000020027161,2|2,0:0|2:3,0:0:0:0:
318,78,125496,1,2,2:3:0:0:
312,83,125603,2,0,L|284:80,2,26.2500010013581,2|2|2,2:3|2:3|2:3,0:0:0:0:
188,144,126031,2,0,P|160:168|136:194,1,70.0000026702882,10|2,2:3|2:3,0:0:0:0:
133,192,126389,1,2,2:3:0:0:
128,191,126460,2,0,P|102:159|74:130,1,78.7500030040742,2|2,0:0|2:3,0:0:0:0:
68,124,126889,102,0,P|76:96|80:72,1,52.5000020027161,2|2,0:0|2:3,0:0:0:0:
81,65,127210,1,2,2:3:0:0:
82,57,127317,2,0,P|110:65|134:69,1,52.5000020027161,2|2,2:3|2:3,0:0:0:0:
224,64,127746,1,10,2:3:0:0:
308,28,127960,1,2,0:0:0:0:
408,128,128174,6,0,P|396:168|388:204,1,78.7500030040742,2|2,0:0|2:3,0:0:0:0:
388,212,128603,2,0,L|420:208,2,26.2500010013581,2|2|2,2:3|2:3|2:3,0:0:0:0:
312,312,129031,1,10,2:3:0:0:
88,232,129460,1,10,0:0:0:0:
268,32,129889,102,0,P|280:76|260:132,1,105.000004005432,4|2,0:0|2:3,0:0:0:0:
257,135,130424,1,2,2:3:0:0:
253,139,130531,1,2,2:3:0:0:
184,76,130746,1,10,2:3:0:0:
248,232,130960,1,2,0:0:0:0:
96,168,131174,6,0,P|128:172|148:176,1,52.5000020027161,2|2,0:0|2:3,0:0:0:0:
155,178,131496,1,2,2:3:0:0:
161,182,131603,2,0,L|164:208,2,26.2500010013581,2|2|2,2:3|2:3|2:3,0:0:0:0:
288,124,132031,2,0,P|284:76|280:52,1,70.0000026702882,10|2,2:3|2:3,0:0:0:0:
277,51,132389,1,2,2:3:0:0:
273,48,132460,2,0,P|237:52|217:56,1,52.5000020027161,2|2,0:0|2:3,0:0:0:0:
264,216,132889,102,0,P|296:208|344:200,1,78.7500030040742,2|2,0:0|2:3,0:0:0:0:
348,200,133317,2,0,L|352:172,2,26.2500010013581,2|2|2,2:3|2:3|2:3,2:3:0:0:
208,256,133746,2,0,P|196:229|197:200,1,52.5000020027161,10|2,2:3|0:0,0:0:0:0:
264,104,134174,6,0,P|224:108|188:92,1,78.7500030040742,2|2,0:0|2:3,0:0:0:0:
184,88,134603,2,0,L|188:60,2,26.2500010013581,2|2|2,2:3|2:3|2:3,0:0:0:0:
76,148,135031,2,0,P|80:196|84:220,1,70.0000026702882,10|2,2:3|2:3,0:0:0:0:
87,221,135389,1,2,2:3:0:0:
90,225,135460,2,0,P|86:261|82:281,1,52.5000020027161,2|2,0:0|2:3,0:0:0:0:
188,168,135889,102,0,P|208:160|240:152,1,52.5000020027161,2|2,0:0|2:3,0:0:0:0:
245,151,136210,1,2,2:3:0:0:
252,149,136317,2,0,L|256:120,2,26.2500010013581,2|2|2,2:3|2:3|2:3,2:3:0:0:
384,156,136746,2,0,P|409:162|433:171,1,52.5000020027161,10|2,2:3|0:0,0:0:0:0:
292,320,137174,6,0,P|296:284|308:244,1,78.7500030040742,2|2,0:0|2:3,0:0:0:0:
308,236,137603,2,0,L|304:208,2,26.2500010013581,2|2|2,2:3|2:3|2:3,0:0:0:0:
220,124,138031,2,0,L|148:131,1,70.0000026702882,10|2,2:3|2:3,0:0:0:0:
147,135,138389,1,2,2:3:0:0:
144,139,138460,2,0,P|152:178|156:219,1,78.7500030040742,2|2,0:0|2:3,0:0:0:0:
156,228,138889,102,0,P|208:232|236:236,1,78.7500030040742,2|2,0:0|2:3,0:0:0:0:
241,237,139317,2,0,L|248:208,2,26.2500010013581,2|2|2,2:3|2:3|2:3,0:0:0:0:
340,272,139746,1,10,2:3:0:0:
440,232,139960,1,2,0:0:0:0:
408,60,140174,6,0,P|400:88|396:112,1,52.5000020027161,2|0,0:0|2:3,0:0:0:0:
298,163,140603,2,0,P|291:137|288:112,1,52.5000020027161,2|0,2:3|2:3,0:0:0:0:
201,209,141031,2,0,P|215:230|232:250,1,52.5000020027161,10|0,2:3|2:3,0:0:0:0:
32,180,141460,1,10,0:0:0:0:
368,284,141889,6,0,P|384:240|364:184,1,105.000004005432,4|2,0:0|2:3,0:0:0:0:
361,183,142424,1,2,2:3:0:0:
356,179,142531,1,2,2:3:0:0:
288,244,142746,1,10,2:3:0:0:
272,336,142960,1,2,0:0:0:0:
148,356,143174,6,0,P|116:348|96:344,1,52.5000020027161,2|2,0:0|2:3,0:0:0:0:
80,208,143603,2,0,P|120:216|132:220,1,52.5000020027161,2|2,2:3|2:3,0:0:0:0:
196,100,144031,2,0,P|170:92|144:88,1,52.5000020027161,10|2,2:3|2:3,0:0:0:0:
260,244,144460,102,0,P|292:248|348:208,1,105.000004005432,2|2,0:0|2:3,0:0:0:0:
350,202,144996,1,2,2:3:0:0:
352,197,145103,1,2,2:3:0:0:
256,96,145317,2,0,P|232:104|204:108,1,52.5000020027161,10|2,2:3|0:0,0:0:0:0:
76,60,145746,6,0,P|88:96|96:144,1,78.7500030040742,2|0,0:0|2:0,0:0:0:0:
92,144,146174,2,0,P|80:180|72:228,1,78.7500030040742,2|0,2:3|2:0,0:0:0:0:
76,228,146603,2,0,P|116:220|152:236,1,78.7500030040742,10|0,2:3|2:0,0:0:0:0:
156,240,147031,102,0,B|192:260|231:240|231:240|267:219|306:240,1,157.500006008148,2|2,0:0|2:3,0:0:0:0:
268,304,147889,1,10,2:3:0:0:
194,176,148103,1,2,0:0:0:0:
312,48,148317,6,0,P|304:84|292:152,1,105.000004005432,2|2,0:0|2:3,0:0:0:0:
291,156,148853,1,2,2:3:0:0:
290,161,148960,1,2,2:3:0:0:
448,144,149174,2,0,P|440:112|432:92,1,52.5000020027161,10|2,2:3|2:3,2:3:0:0:
304,244,149603,102,0,P|272:248|216:208,1,105.000004005432,2|2,0:0|2:3,0:0:0:0:
214,202,150139,1,2,2:3:0:0:
212,197,150246,1,2,2:3:0:0:
400,228,150460,2,0,P|390:252|384:278,1,52.5000020027161,10|2,2:3|0:0,2:3:0:0:
152,308,150889,6,0,P|144:272|136:228,1,78.7500030040742,2|0,0:0|2:0,0:0:0:0:
132,224,151317,2,0,P|139:187|151:144,1,78.7500030040742,2|0,2:3|2:0,0:0:0:0:
148,140,151746,2,0,P|200:160|224:156,1,78.7500030040742,10|0,2:3|2:0,0:0:0:0:
228,152,152174,102,0,B|208:188|228:227|228:227|249:263|228:302,1,157.500006008148,2|2,0:0|2:3,0:0:0:0:
164,264,153032,1,10,2:3:0:0:
292,190,153246,1,2,0:0:0:0:
360,320,153460,6,0,P|404:304|460:288,1,105.000004005432,2|2,0:0|2:3,0:0:0:0:
467,286,153996,1,2,2:3:0:0:
474,285,154103,1,2,2:3:0:0:
384,196,154317,2,0,P|376:172|376:140,1,52.5000020027161,10|2,2:3|2:3,0:0:0:0:
268,280,154746,102,0,P|228:288|180:252,1,105.000004005432,2|2,0:0|2:3,0:0:0:0:
177,246,155281,1,2,2:3:0:0:
176,240,155389,1,2,2:3:0:0:
276,116,155603,2,0,P|270:141|260:166,1,52.5000020027161,10|2,2:3|0:0,2:3:0:0:
132,28,156031,6,0,P|168:40|216:48,1,78.7500030040742,2|0,0:0|2:0,0:0:0:0:
216,44,156459,2,0,P|252:32|300:24,1,78.7500030040742,2|0,2:3|2:0,0:0:0:0:
297,25,156889,2,0,L|288:76,1,52.5000020027161,10|2,2:3|2:3,0:0:0:0:
360,176,157317,102,0,P|408:180|444:140,1,105.000004005432,2|2,0:0|2:3,0:0:0:0:
446,135,157853,1,2,2:3:0:0:
447,129,157960,1,2,2:3:0:0:
380,260,158174,1,10,2:3:0:0:
284,192,158389,1,2,0:0:0:0:
256,336,158603,5,2,0:0:0:0:
168,356,158817,1,2,2:3:0:0:
160,352,158924,1,2,2:3:0:0:
152,348,159031,2,0,L|148:320,2,26.2500010013581,2|2|2,2:3|2:3|2:3,2:3:0:0:
40,240,159460,2,0,L|92:244,1,52.5000020027161,10|2,2:3|2:3,0:0:0:0:
284,192,159889,102,0,L|212:188,1,70,2|2,0:0|2:3,0:0:0:0:
207,187,160210,1,2,2:3:0:0:
199,186,160317,1,2,2:3:0:0:
340,124,160531,1,2,2:3:0:0:
232,272,160746,2,0,L|216:356,1,83.9999974365235,10|2,2:3|0:0,0:0:0:0:
340,124,161174,6,0,P|344:76|324:32,1,97.9999970092774,2|0,0:0|2:3,0:0:0:0:
72,160,161603,2,0,P|56:212|88:256,1,112,2|0,0:0|2:3,0:0:0:0:
456,304,162031,54,0,B|440:296|440:296|424:300,1,31.4999990386963,10|0,0:0|2:0,0:0:0:0:
412,304,162460,70,0,B|404:270|404:270|416:236,1,70,4|0,0:0|2:0,0:0:0:0:
324,64,162674,2,0,B|332:98|332:98|320:132,1,70,2|0,0:0|2:0,0:0:0:0:
120,308,162888,2,0,B|108:240|108:240|144:180|144:180|132:108,1,210,4|0,0:0|2:0,0:0:0:0:
129,96,163317,38,0,B|156:104|156:104|180:96,1,52.5,4|0,0:0|2:0,0:0:0:0:
192,92,163745,86,0,B|228:84|228:84|260:96,1,70,4|0,0:0|2:0,0:0:0:0:
244,360,163960,2,0,B|208:368|208:368|176:356,1,70,0|0,0:0|2:0,0:0:0:0:
120,216,164174,2,0,B|188:204|188:204|244:244|244:244|316:232,1,210,12|0,0:0|2:0,0:0:0:0:
329,230,164602,102,0,B|340:160|340:160|304:100|304:100|316:32,1,210,4|8,0:0|0:0,0:0:0:0:
55,189,165460,38,0,B|48:216|48:216|56:240,1,52.5,4|0,0:0|2:0,0:0:0:0:
60,248,165888,86,0,B|124:256|124:256|188:224|188:224|264:236|264:236|296:284|296:284|216:272,1,350,12|4,0:0|0:0,0:0:0:0:
108,140,166531,1,0,0:0:0:0:
312,32,166745,102,0,B|316:68|316:68|300:100,1,70,4|0,0:0|2:0,0:0:0:0:
448,128,166960,2,0,B|436:162|436:162|408:184,1,70,0|0,0:0|2:0,0:0:0:0:
176,132,167174,2,0,B|187:166|187:166|215:188,1,70,4|0,0:0|2:0,0:0:0:0:
93,276,167389,2,0,B|118:302|118:302|152:310,1,70,0|0,0:0|2:0,0:0:0:0:
384,292,167602,38,0,B|356:288|356:288|336:300,1,52.5,12|0,0:0|2:0,0:0:0:0:
328,304,168031,86,0,B|324:268|324:268|340:236,1,70,4|0,0:0|2:0,0:0:0:0:
232,104,168246,2,0,B|256:76|256:76|291:68,1,70,0|0,0:0|2:0,0:0:0:0:
165,339,168460,2,0,B|200:331|200:331|225:305,1,70,4|0,0:0|2:0,0:0:0:0:
40,156,168674,2,0,B|69:177|69:177|104:179,1,70,0|0,0:0|2:0,0:0:0:0:
400,140,168888,102,0,B|332:148|332:148|280:196|280:196|212:172,1,210,12|0,0:0|2:0,0:0:0:0:
204,168,169317,2,0,B|196:136|196:136|168:112,1,70,4|0,0:0|2:0,0:0:0:0:
336,292,169531,2,0,B|308:316|308:316|300:348,1,70,0|0,0:0|2:0,0:0:0:0:
480,80,169745,2,0,B|496:148|496:148|464:212|464:212|504:268,1,210,4|0,0:0|2:0,0:0:0:0:
512,276,170174,6,0,B|444:296|444:296|380:268|380:268|312:284,1,210,4|4,0:0|0:0,0:0:0:0:
244,300,170924,1,4,0:0:0:0:
172,280,171031,102,0,B|160:248|160:248|172:212,1,70,4|0,0:0|2:0,0:0:0:0:
260,0,171245,2,0,B|272:32|272:32|260:68,1,70,2|0,0:0|2:0,0:0:0:0:
116,136,171460,2,0,B|184:124|184:124|248:156|248:156|316:144,1,210,4|0,0:0|2:0,0:0:0:0:
323,143,171888,38,0,B|332:116|332:116|324:92,1,52.5,4|0,0:0|2:0,0:0:0:0:
320,84,172317,86,0,B|356:92|356:92|388:80,1,70,4|0,0:0|2:0,0:0:0:0:
212,244,172531,2,0,B|184:219|184:219|151:213,1,70,4|0,0:0|2:0,0:0:0:0:
396,356,172745,2,0,B|412:288|412:288|388:224|388:224|404:152,1,210,12|0,0:0|2:0,0:0:0:0:
408,140,173174,102,0,B|340:152|340:152|276:120|276:120|208:132,1,210,4|8,0:0|0:0,0:0:0:0:
288,376,174031,38,0,B|316:384|316:384|332:368,1,52.5,4|0,0:0|2:0,0:0:0:0:
340,360,174460,86,0,B|308:260|308:260|348:160|348:160|320:60|320:60|308:168,1,420.000016021729,12|4,0:0|0:0,0:0:0:0:
452,264,175102,1,0,0:0:0:0:
208,328,175317,102,0,B|176:340|176:340|156:372,1,70,2|0,0:0|2:0,0:0:0:0:
92,208,175531,2,0,B|60:196|60:196|40:164,1,70,0|0,0:0|2:0,0:0:0:0:
232,72,175745,2,0,B|264:60|264:60|284:28,1,70,2|0,0:0|2:0,0:0:0:0:
348,192,175959,2,0,B|380:204|380:204|400:236,1,70,0|0,0:0|2:0,0:0:0:0:
208,328,176174,38,0,B|196:304|196:304|200:276,1,52.5,14|0,0:0|2:0,0:0:0:0:
204,264,176602,86,0,B|168:272|168:272|140:256,1,70,4|0,0:0|2:0,0:0:0:0:
324,124,176817,2,0,B|360:116|360:116|388:132,1,70,4|0,0:0|2:0,0:0:0:0:
168,96,177031,2,0,B|132:88|132:88|104:104,1,70,2|0,0:0|2:0,0:0:0:0:
292,284,177246,2,0,B|328:292|328:292|356:276,1,70,0|0,0:0|2:0,0:0:0:0:
84,352,177460,102,0,B|68:288|68:288|16:240|16:240|40:168,1,210,12|0,0:0|2:0,0:0:0:0:
44,160,177888,2,0,B|80:168|80:168|100:196,1,70,4|0,0:0|2:0,0:0:0:0:
176,368,178102,2,0,B|212:360|212:360|232:332,1,70,0|0,0:0|2:0,0:0:0:0:
256,64,178317,2,0,B|240:128|240:128|188:176|188:176|212:248,1,210,4|0,0:0|2:0,0:0:0:0:
216,256,178745,6,0,B|284:240|284:240|344:276|344:276|412:260,1,210,4|4,0:0|0:0,0:0:0:0:
448,200,179495,1,0,0:0:0:0:
420,136,179602,102,0,B|388:123|388:123|352:132,1,70,4|0,0:0|2:0,0:0:0:0:
216,328,179817,2,0,B|181:323|181:323|155:297,1,70,2|0,0:0|2:0,0:0:0:0:
196,44,180031,2,0,B|216:112|216:112|192:176|192:176|212:244,1,210,4|0,0:0|2:0,0:0:0:0:
216,256,180460,38,0,B|240:244|240:244|264:252,1,52.5,4|0,0:0|2:0,0:0:0:0:
272,256,180888,86,0,B|284:224|284:224|316:204,1,70,4|0,0:0|2:0,0:0:0:0:
100,60,181102,2,0,B|130:78|130:78|142:110,1,70,0|0,0:0|2:0,0:0:0:0:
200,372,181317,2,0,B|230:353|230:353|242:321,1,70,12|0,0:0|2:0,0:0:0:0:
376,48,181531,2,0,B|345:66|345:66|333:98,1,70,8|0,0:0|2:0,0:0:0:0:
416,360,181745,102,0,B|432:292|432:292|396:232|396:232|412:164,1,210,4|8,0:0|0:0,0:0:0:0:
120,340,182602,38,0,B|96:332|96:332|88:304,1,52.5,4|0,0:0|2:0,0:0:0:0:
84,292,183031,86,0,B|188:304|188:304|280:356|280:356|376:316|376:316|268:308,1,420.000016021729,4|4,0:0|0:0,0:0:0:0:
24,336,183674,1,0,0:0:0:0:
180,148,183888,102,0,L|168:80,1,70,10|0,0:0|2:0,0:0:0:0:
372,148,184102,2,0,L|384:80,1,70,4|0,0:0|2:0,0:0:0:0:
132,228,184317,2,0,L|92:171,1,70,8|0,0:0|2:0,0:0:0:0:
420,228,184531,2,0,L|460:171,1,70,4|0,0:0|2:0,0:0:0:0:
276,368,184745,38,0,B|268:344|268:344|276:316,1,52.5,12|0,0:0|2:0,0:0:0:0:
280,304,185174,86,0,L|352:296,1,70,10|0,0:0|2:0,0:0:0:0:
372,148,185388,2,0,L|300:156,1,70,4|0,0:0|2:0,0:0:0:0:
168,220,185602,2,0,L|98:212,1,70,8|0,0:0|2:0,0:0:0:0:
76,64,185816,2,0,L|148:72,1,70,4|0,0:0|2:0,0:0:0:0:
204,296,186031,102,0,B|136:308|136:308|80:356|80:356|20:320,1,210,12|0,0:0|2:0,0:0:0:0:
12,312,186460,2,0,B|8:276|8:276|28:248,1,70,4|0,0:0|2:0,0:0:0:0:
288,284,186674,2,0,B|292:320|292:320|272:348,1,70,0|0,0:0|2:0,0:0:0:0:
164,200,186888,2,0,B|148:132|148:132|180:68|180:68|128:24,1,210,4|0,0:0|2:0,0:0:0:0:
116,16,187317,6,0,B|188:8|188:8|248:40|248:40|320:28,1,210,4|4,0:0|0:0,0:0:0:0:
376,64,188067,1,4,0:0:0:0:
412,124,188174,102,0,B|404:156|404:156|372:176,1,70,4|0,0:0|2:0,0:0:0:0:
136,92,188388,2,0,B|167:82|167:82|201:100,1,70,4|0,0:0|2:0,0:0:0:0:
247,348,188602,2,0,B|228:280|228:280|268:224|268:224|248:156,1,210,4|0,0:0|2:0,0:0:0:0:
246,149,189031,38,0,B|272:152|272:152|296:140,1,52.5,4|0,0:0|2:0,0:0:0:0:
304,136,189460,86,0,B|308:100|308:100|292:68,1,70,4|0,0:0|2:0,0:0:0:0:
24,56,189674,2,0,B|8:86|8:86|12:122,1,70,0|0,0:0|2:0,0:0:0:0:
144,336,189888,2,0,B|212:320|212:320|280:344|280:344|348:328,1,210,12|0,0:0|2:0,0:0:0:0:
360,325,190317,102,0,B|376:256|376:256|432:216|432:216|448:144,1,210,4|8,0:0|0:0,0:0:0:0:
120,48,191174,38,0,B|100:68|100:68|96:92,1,52.5,4|0,0:0|2:0,0:0:0:0:
94,103,191602,86,0,B|196:124|196:124|224:228|224:228|328:248|328:248|248:184,1,420.000016021729,4|4,0:0|0:0,0:0:0:0:
60,264,192245,1,0,0:0:0:0:
388,292,192460,102,0,B|404:260|404:260|396:224,1,70,4|0,0:0|2:0,0:0:0:0:
264,20,192674,2,0,B|248:52|248:52|256:88,1,70,0|0,0:0|2:0,0:0:0:0:
462,94,192888,2,0,B|430:78|430:78|394:86,1,70,4|0,0:0|2:0,0:0:0:0:
190,218,193102,2,0,B|222:234|222:234|258:226,1,70,0|0,0:0|2:0,0:0:0:0:
264,20,193317,38,0,B|240:12|240:12|212:20,1,52.5,12|0,0:0|2:0,0:0:0:0:
200,20,193745,86,0,L|192:68,5,46.6666666666667,8|8|8|8|8|8,2:3|2:3|2:3|2:3|2:3|2:3,0:0:0:0:
112,112,194174,2,0,L|104:160,5,46.6666666666667,8|8|8|8|8|8,2:3|2:3|2:3|2:3|2:3|2:3,0:0:0:0:
160,232,194602,5,8,0:0:0:0:
174,225,194673,1,4,0:0:0:0:
189,221,194744,1,4,0:0:0:0:
204,219,194816,1,8,0:0:0:0:
220,220,194887,1,4,0:0:0:0:
235,224,194959,1,4,0:0:0:0:
249,230,195031,85,2,0:0:0:0:
328,224,195174,2,0,B|319:182|319:182|277:154,1,93.3333333333333,8|0,2:3|0:0,0:0:0:0:
432,268,195460,2,0,B|423:310|423:310|381:338,2,93.3333333333333,10|0|0,2:3|0:0|0:0,0:0:0:0:
388,136,195888,6,0,B|400:92|400:92|444:68,1,93.3333333333333,10|0,0:0|0:0,0:0:0:0:
180,84,196174,2,0,B|221:106|221:106|233:150,1,93.3333333333333,10|0,0:0|0:0,0:0:0:0:
96,312,196460,1,8,2:3:0:0:
72,236,196602,1,8,2:3:0:0:
150,254,196745,6,0,L|196:264,2,46.6666666666667,8|4|4,0:0|0:0|0:0,0:0:0:0:
126,178,196960,2,0,L|80:168,2,46.6666666666667,8|4|4,0:0|0:0|0:0,0:0:0:0:
192,136,197174,1,8,0:0:0:0:
207,134,197245,1,8,0:0:0:0:
222,136,197316,1,8,0:0:0:0:
237,142,197388,1,4,0:0:0:0:
249,151,197459,1,4,0:0:0:0:
259,163,197531,1,4,0:0:0:0:
266,177,197602,6,0,B|328:168|388:232|388:232|424:160|492:148,1,277.200006767578,4|2,0:0|2:3,0:0:0:0:
456,268,200173,22,0,P|424:304|336:288,1,144.900003537598,2|2,2:3|2:3,0:0:0:0:
334,285,201459,6,0,L|339:259,1,25.2000006152344,2|2,2:3|2:3,0:0:0:0:
280,180,201887,2,0,L|275:206,1,25.2000006152344,2|2,2:3|2:3,0:0:0:0:
240,352,202316,1,2,2:3:0:0:
140,364,202530,1,2,2:3:0:0:
168,200,202744,102,0,B|179:128|134:67|134:67|212:78|267:44,1,277.200006767578,2|2,0:0|2:3,0:0:0:0:
332,168,205316,6,0,P|376:144|448:192,1,144.900003537598,2|2,2:3|2:3,0:0:0:0:
448,196,206602,102,0,L|443:222,1,25.2000006152344,2|2,2:3|2:3,0:0:0:0:
304,296,207030,2,0,L|309:270,1,25.2000006152344,2|2,2:3|2:3,0:0:0:0:
224,140,207459,1,2,2:3:0:0:
124,152,207673,1,2,2:3:0:0:
168,344,207887,6,0,L|172:320,1,25.2000006152344,2|0,2:3|2:0,0:0:0:0:
84,256,208316,2,0,L|60:260,2,25.2000006152344,2|2|2,2:3|2:3|2:3,0:0:0:0:
124,152,208959,1,2,2:3:0:0:
44,24,209173,2,0,L|40:48,1,25.2000006152344,2|0,2:3|2:0,0:0:0:0:
124,152,209602,2,0,L|148:148,2,25.2000006152344,2|2|2,2:3|2:3|2:3,0:0:0:0:
244,64,210244,1,2,2:3:0:0:
316,176,210459,86,0,B|424:204|380:140|488:168,1,175,4|2,0:0|2:3,0:0:0:0:
328,380,211744,2,0,P|308:332|328:284,1,105,10|2,2:3|2:3,0:0:0:0:
380,244,212494,1,2,2:3:0:0:
388,240,212602,1,2,2:3:0:0:
316,176,212816,1,2,0:0:0:0:
388,32,213030,38,0,L|384:72,1,35,2|2,0:0|2:3,0:0:0:0:
308,104,213459,2,0,L|288:100,2,17.5,2|2|2,2:3|2:3|2:3,0:0:0:0:
236,32,213887,1,2,2:3:0:0:
168,88,214102,1,2,2:3:0:0:
208,228,214316,70,0,P|212:200|208:176,1,52.5,10|2,2:3|2:3,0:0:0:0:
200,160,214744,2,0,P|222:177|245:186,1,52.5,2|2,2:3|2:3,0:0:0:0:
262,187,215173,2,0,P|236:197|216:212,1,52.5,2|2,2:3|2:3,0:0:0:0:
208,228,215602,38,0,P|173:223|136:216,1,70,2|2,0:0|2:3,0:0:0:0:
56,184,216244,2,0,L|54:173,2,8.75,2|2|2,2:3|2:3|2:3,0:0:0:0:
52,196,216459,2,0,L|44:220,2,17.5,2|2|2,2:3|2:3|2:3,0:0:0:0:
96,284,216887,70,0,P|136:288|168:296,1,70,10|2,2:3|2:3,0:0:0:0:
232,244,217530,2,0,P|224:216|216:176,1,70,2|2,2:3|0:0,0:0:0:0:
204,88,218173,37,2,0:0:0:0:
288,112,218387,1,2,2:3:0:0:
384,72,218602,2,0,P|372:100|364:136,1,52.5,2|2,2:3|2:3,0:0:0:0:
364,136,219030,2,0,P|376:164|384:200,1,52.5,2|2,2:3|2:3,0:0:0:0:
384,200,219459,70,0,B|351:217|316:200|316:200|284:181|249:200,1,140,10|2,2:3|2:3,0:0:0:0:
116,364,220744,38,0,P|100:328|128:272,1,105,2|2,0:0|2:3,0:0:0:0:
192,296,221494,1,2,2:3:0:0:
196,300,221602,1,2,2:3:0:0:
244,220,221816,1,2,0:0:0:0:
148,144,222030,70,0,L|144:92,2,52.5,10|2|2,0:0|2:3|2:3,0:0:0:0:
96,216,222887,2,0,L|60:212,1,35,2|2,2:3|0:0,0:0:0:0:
152,292,223316,38,0,L|224:284,1,70,2|2,0:0|2:3,0:0:0:0:
284,224,223959,1,2,2:3:0:0:
288,216,224066,1,2,2:3:0:0:
292,208,224173,2,0,L|284:172,1,35,2|2,2:3|2:3,0:0:0:0:
344,32,224602,70,0,P|340:68|328:100,1,70,10|2,2:3|2:3,0:0:0:0:
252,104,225244,2,0,P|219:91|184:88,1,70,2|2,2:3|0:0,0:0:0:0:
100,176,225887,38,0,B|104:212|104:212|132:232,1,70,2|2,0:0|2:3,0:0:0:0:
220,204,226530,2,0,L|224:168,2,35,2|2|2,2:3|2:3|2:3,0:0:0:0:
284,288,227173,70,0,P|312:292|336:288,1,52.5,10|2,2:3|2:3,0:0:0:0:
352,280,227601,2,0,P|335:302|326:325,1,52.5,2|2,2:3|2:3,0:0:0:0:
325,342,228030,2,0,P|315:316|300:296,1,52.5,2|2,2:3|2:3,0:0:0:0:
284,288,228459,38,0,P|289:253|296:216,1,70,2|0,0:0|2:3,0:0:0:0:
297,212,228994,1,2,2:3:0:0:
299,205,229102,1,2,2:3:0:0:
376,164,229316,2,0,P|372:140|368:128,1,35,2|2,2:3|2:3,0:0:0:0:
288,44,229744,70,0,P|320:32|356:28,1,70,10|2,2:3|2:3,0:0:0:0:
300,128,230387,2,0,P|265:124|232:111,1,70,2|2,2:3|0:0,0:0:0:0:
328,208,231030,38,0,B|360:196|360:196|376:164,1,70,2|2,0:0|2:3,0:0:0:0:
379,157,231566,1,2,2:3:0:0:
382,150,231673,1,2,2:3:0:0:
252,204,231887,2,0,L|248:240,1,35,2|2,2:3|2:3,0:0:0:0:
180,144,232316,70,0,P|152:140|128:144,1,52.5,10|2,2:3|2:3,0:0:0:0:
112,152,232744,2,0,P|129:130|138:107,1,52.5,2|2,2:3|2:3,0:0:0:0:
139,90,233173,2,0,P|149:116|164:136,1,52.5,2|2,2:3|2:3,0:0:0:0:
180,144,233602,38,0,P|192:140|216:136,1,35,2|0,0:0|2:3,0:0:0:0:
264,196,234030,2,0,P|276:192|300:188,1,35,2|0,2:3|2:3,0:0:0:0:
332,88,234459,2,0,P|344:84|368:80,1,35,2|0,2:3|0:0,0:0:0:0:
460,196,234887,70,0,P|424:200|400:180,1,70,2|2,0:0|2:3,0:0:0:0:
448,88,235530,1,0,2:3:0:0:
452,92,235744,2,0,L|444:140,1,35,2|0,2:3|2:0,0:0:0:0:
420,272,236173,5,4,0:0:0:0:
336,220,236387,2,0,P|308:216|264:304,1,140
492,308,237459,2,0,B|514:268|492:224|492:224|468:184|492:141,1,175,12|0,2:3|0:0,0:0:0:0:
308,308,238744,2,0,B|285:268|308:224|308:224|331:184|308:141,1,175,4|0,2:3|0:0,0:0:0:0:
468,288,240030,102,0,P|476:264|480:256,1,35,12|0,0:0|2:0,0:0:0:0:
368,260,240459,2,0,P|360:236|356:228,1,35,4|0,2:3|2:0,0:0:0:0:
428,164,240887,2,0,P|436:140|440:132,1,35,4|0,2:3|2:0,0:0:0:0:
308,308,241316,6,0,P|240:328|200:248,1,175,4|0,0:0|0:0,0:0:0:0:
264,112,242602,2,0,P|332:92|372:172,1,175,12|0,0:0|0:0,0:0:0:0:
200,247,243887,2,0,B|111:282|120:211|31:242,1,175,4|0,0:0|0:0,0:0:0:0:
72,312,245173,102,0,L|64:348,1,35,12|0,0:0|2:0,0:0:0:0:
160,180,245602,2,0,L|152:144,1,35,4|0,2:3|2:0,0:0:0:0:
288,308,246030,2,0,L|280:344,1,35,4|0,2:3|2:0,0:0:0:0:
392,124,246459,6,0,L|384:84,1,35,4|0,0:0|2:0,0:0:0:0:
376,84,246780,2,0,L|345:110,1,35,0|0,0:0|2:0,0:0:0:0:
340,116,247102,2,0,P|312:100|276:104,1,70,4|0,0:0|0:0,0:0:0:0:
332,268,247744,2,0,P|366:272|396:256,1,70,12|4,0:0|0:0,0:0:0:0:
440,128,248387,101,8,0:0:0:0:
244,232,248602,1,8,0:0:0:0:
160,144,248816,1,4,0:0:0:0:
376,72,249030,22,0,L|368:120,1,46.6666666666667,4|0,0:0|0:0,0:0:0:0:
324,32,249315,2,0,L|420:20,1,93.3333333333333
436,204,249887,6,0,L|428:156,1,46.6666666666667
384,244,250172,2,0,L|480:256,1,93.3333333333333
283,83,250744,102,0,L|275:131,1,46.6666666666667
231,43,251029,2,0,L|327:31,1,93.3333333333333
343,215,251601,6,0,L|335:167,1,46.6666666666667
291,255,251886,2,0,L|387:267,1,93.3333333333333
190,94,252458,102,0,L|182:142,1,46.6666666666667
138,54,252744,2,0,L|234:42,1,93.3333333333333
250,226,253315,6,0,L|242:178,1,46.6666666666667
198,266,253601,2,0,L|294:278,1,93.3333333333333
97,105,254173,102,0,L|89:153,1,46.6666666666667
45,65,254458,2,0,L|141:53,1,93.3333333333333
240,120,254887,53,0,0:0:0:0:
244,124,254958,1,0,0:0:0:0:
248,128,255030,2,0,L|240:176,2,46.6666666666667,8|0|0,0:0|0:0|0:0,0:0:0:0:
368,80,255458,69,8,0:0:0:0:
228,244,255601,1,8,0:0:0:0:
156,41,255744,1,4,0:0:0:0:
364,220,255887,6,0,B|412:211|412:211|438:163,1,103.600002529297,4|0,0:0|0:0,0:0:0:0:
248,336,256172,2,0,B|176:328|176:328|140:272|140:272|72:264,1,207.200005058594,4|0,0:0|2:0,0:0:0:0:
244,52,256601,1,0,0:0:0:0:
248,56,256672,1,0,0:0:0:0:
252,60,256744,22,0,B|241:112|241:112|194:133,1,103.600002529297,14|0,0:0|0:0,0:0:0:0:
343,324,257029,2,0,B|364:218|364:218|458:176,1,207.200005058594,4|0,0:0|0:0,0:0:0:0:
452,292,257458,1,0,0:0:0:0:
376,116,257601,86,0,B|413:80|413:80|465:80,1,103.600002529297,4|0,0:0|0:0,0:0:0:0:
272,256,257887,2,0,B|260:180|260:180|284:128|284:128|272:56,1,207.200005058594,4|0,0:0|0:0,0:0:0:0:
196,304,258315,21,0,0:0:0:0:
156,208,258458,1,14,0:0:0:0:
272,256,258601,1,0,0:0:0:0:
184,316,258744,1,0,0:0:0:0:
220,148,258887,85,4,0:0:0:0:
252,360,259029,1,0,0:0:0:0:
112,280,259172,1,0,0:0:0:0:
300,176,259315,22,0,B|332:140|332:140|340:84,1,103.600002529297,4|0,0:0|0:0,0:0:0:0:
72,124,259601,2,0,B|64:164|64:164|72:184|72:184|56:224,1,103.600002529297,4|0,0:0|0:0,0:0:0:0:
324,344,259887,2,0,B|312:308|312:308|324:288|324:288|328:244,1,103.600002529297
512,64,260172,86,0,B|472:72|472:72|460:92|460:92|420:100,1,103.600002529297,14|0,0:0|0:0,0:0:0:0:
136,52,260458,1,4,0:0:0:0:
220,308,260601,2,0,B|228:268|228:268|248:256|248:256|256:216,1,103.600002529297
292,0,260887,1,0,0:0:0:0:
364,292,261029,22,0,B|416:280|416:280|464:298|464:298|476:248|476:248|511:210,1,207.200005058594,4|4,0:0|0:0,0:0:0:0:
240,128,261458,2,0,B|192:144|192:144|168:192,1,103.600002529297
298,364,261744,1,0,0:0:0:0:
301,359,261815,1,0,0:0:0:0:
304,354,261887,86,0,B|294:304|294:304|302:248,2,103.600002529297,14|0|0,0:0|0:0|0:0,0:0:0:0:
378,192,262315,1,4,0:0:0:0:
218,308,262458,1,0,0:0:0:0:
198,112,262601,1,0,0:0:0:0:
378,276,262744,6,0,P|426:256|478:248,1,103.600002529297,4|0,0:0|2:0,0:0:0:0:
298,140,263029,2,0,P|282:92|298:44,1,103.600002529297,0|4,0:0|2:3,0:0:0:0:
218,308,263315,2,0,P|166:316|118:336,1,103.600002529297,0|0,2:0|0:0,0:0:0:0:
0,112,263601,102,0,B|50:84|100:112|100:112|148:136|200:112,1,207.200005058594,12|0,0:0|0:0,0:0:0:0:
148,32,264029,1,4,2:3:0:0:
52,184,264172,2,0,P|40:224|60:284,1,103.600002529297,0|0,0:0|2:0,0:0:0:0:
384,132,264458,6,0,B|400:84|364:84|388:28,1,103.600002529297,4|8,0:0|2:3,0:0:0:0:
456,64,264744,1,8,2:3:0:0:
312,112,264887,1,8,2:3:0:0:
192,20,265029,1,8,2:3:0:0:
128,88,265172,1,0,0:0:0:0:
192,152,265315,101,12,0:0:0:0:
248,44,265458,2,0,P|200:52|148:68,1,103.600002529297,0|0,0:0|2:0,0:0:0:0:
312,112,265744,1,4,0:0:0:0:
232,208,265887,2,0,P|184:192|132:184,1,103.600002529297,0|0,0:0|2:0,0:0:0:0:
312,356,266172,6,0,B|360:336|360:336|412:344|412:344|444:304|492:276,1,207.200005058594,4|4,0:0|0:0,0:0:0:0:
420,156,266601,1,0,0:0:0:0:
288,252,266744,2,0,B|312:268|312:268|352:272|388:252,1,103.600002529297,0|0,0:0|2:0,0:0:0:0:
260,76,267029,102,0,B|212:92|168:124|168:124|120:108|76:76,1,207.200005058594,12|4,0:0|0:0,0:0:0:0:
160,20,267458,1,0,0:0:0:0:
216,204,267601,2,0,B|220:243|208:273|208:273|181:295,1,103.600002529297
320,108,267887,6,0,B|376:104|416:140|416:140|476:144|512:108,1,207.200005058594,4|4,0:0|0:0,0:0:0:0:
444,48,268315,1,0,0:0:0:0:
340,200,268458,1,0,0:0:0:0:
460,340,268601,1,0,0:0:0:0:
464,344,268672,1,0,0:0:0:0:
468,348,268744,102,0,B|476:296|476:296|448:252,2,103.600002529297,12|0|0,0:0|0:0|0:0,0:0:0:0:
476,164,269172,1,4,0:0:0:0:
364,320,269315,1,0,0:0:0:0:
208,208,269458,1,0,0:0:0:0:
320,52,269601,6,0,B|340:96|340:96|324:148,1,103.600002529297,4|0,0:0|2:0,0:0:0:0:
28,152,269887,2,0,B|104:128|104:128|160:140|160:140|228:120,1,207.200005058594,4|0,0:0|0:0,0:0:0:0:
364,320,270315,1,0,0:0:0:0:
366,325,270387,1,0,0:0:0:0:
368,330,270458,102,0,B|339:287|339:287|354:235,1,103.600002529297,14|0,0:0|0:0,0:0:0:0:
512,84,270744,2,0,B|445:109|445:109|392:75|392:75|321:96,1,207.200005058594,4|0,0:0|0:0,0:0:0:0:
236,224,271172,1,0,0:0:0:0:
96,24,271315,6,0,B|148:36|148:36|172:80,1,103.600002529297,4|0,0:0|0:0,0:0:0:0:
88,368,271601,2,0,B|64:268|64:268|120:180,1,207.200005058594,4|0,0:0|0:0,0:0:0:0:
200,292,272029,1,0,0:0:0:0:
303,191,272172,101,14,0:0:0:0:
281,271,272315,1,0,0:0:0:0:
222,212,272458,1,0,0:0:0:0:
361,250,272601,5,4,0:0:0:0:
200,292,272744,1,0,0:0:0:0:
243,131,272887,1,0,0:0:0:0:
304,352,273029,102,0,P|352:360|408:372,2,103.600002529297,4|0|0,0:0|2:0|2:0,0:0:0:0:
488,280,273458,2,0,P|480:232|464:180,1,103.600002529297,4|0,2:3|2:0,0:0:0:0:
416,76,273744,1,0,0:0:0:0:
300,212,273887,6,0,P|248:200|196:192,1,103.600002529297,14|0,0:0|2:0,0:0:0:0:
200,292,274172,2,0,P|148:280|96:272,1,103.600002529297,0|4,2:0|2:3,0:0:0:0:
16,24,274458,2,0,P|8:76|16:128,1,103.600002529297,0|0,0:0|2:0,0:0:0:0:
292,304,274744,101,4,0:0:0:0:
356,268,274887,1,8,2:3:0:0:
368,176,275029,1,8,2:3:0:0:
280,88,275172,1,8,2:3:0:0:
136,116,275315,1,8,2:3:0:0:
200,168,275458,1,0,0:0:0:0:
204,16,275601,5,12,0:0:0:0:
280,88,275744,2,0,P|320:76|380:64,2,103.600002529297,0|0|4,0:0|2:0|2:3,0:0:0:0:
448,312,276172,2,0,B|468:264|468:264|448:216,1,103.600002529297,0|0,0:0|2:0,0:0:0:0:
220,312,276458,101,4,0:0:0:0:
320,340,276601,1,0,0:0:0:0:
295,240,276744,2,0,B|288:189|288:189|316:144,1,103.600002529297,4|0,0:0|2:0,0:0:0:0:
120,236,277029,2,0,B|148:281|148:281|141:332,1,103.600002529297
137,335,277244,1,0,0:0:0:0:
133,339,277315,22,0,B|197:312|197:312|262:339|262:339|326:317,1,207.200005058594,12|4,0:0|0:0,0:0:0:0:
388,204,277744,1,0,2:3:0:0:
276,144,277887,2,0,B|280:180|280:180|268:208|268:208|272:248,1,103.600002529297,0|0,0:0|2:0,0:0:0:0:
464,132,278172,86,0,B|467:95|467:95|455:67|455:67|459:31,1,103.600002529297,4|0,0:0|2:0,0:0:0:0:
184,232,278458,2,0,B|100:252|100:252|32:152,1,207.200005058594,4|0,0:0|0:0,0:0:0:0:
252,48,278887,1,0,0:0:0:0:
256,52,278958,1,0,0:0:0:0:
260,56,279029,22,0,B|236:104|236:104|188:116,2,103.600002529297,12|0|0,0:0|0:0|0:0,0:0:0:0:
152,4,279458,1,4,0:0:0:0:
252,204,279601,2,0,B|288:164|288:164|333:135,1,103.600002529297,0|0,0:0|2:0,0:0:0:0:
156,328,279887,86,0,B|124:288|124:288|74:259,1,103.600002529297,4|0,0:0|2:0,0:0:0:0:
424,360,280172,2,0,B|449:293|449:293|415:240|415:240|440:172,1,207.200005058594,4|0,0:0|0:0,0:0:0:0:
512,228,280601,1,0,0:0:0:0:
312,308,280744,22,0,B|264:296|264:296|244:244,1,103.600002529297,12|0,0:0|0:0,0:0:0:0:
352,52,281029,2,0,B|365:99|365:99|330:142,1,103.600002529297,0|4,0:0|2:3,0:0:0:0:
110,145,281315,2,0,B|144:109|144:109|199:118,1,103.600002529297,0|4,0:0|2:3,0:0:0:0:
344,248,281601,86,0,B|396:245|396:245|364:204,1,103.600002529297,4|0,0:0|2:0,0:0:0:0:
331,141,281815,2,0,B|299:99|299:99|351:97,1,103.600002529297,0|0,0:0|2:0,0:0:0:0:
440,164,282029,2,0,B|373:189|373:189|320:154|320:154|252:180,1,207.200005058594,4|0,0:0|0:0,0:0:0:0:
126,306,282458,21,12,0:0:0:0:
226,280,282601,1,0,0:0:0:0:
154,206,282744,1,0,0:0:0:0:
197,378,282887,85,4,0:0:0:0:
253,180,283030,1,0,0:0:0:0:
53,230,283173,1,0,0:0:0:0:
313,300,283315,22,0,B|357:272|357:272|409:280,1,103.600002529297,4|0,0:0|2:0,0:0:0:0:
184,132,283601,2,0,B|208:85|208:85|257:66,1,103.600002529297,4|0,0:0|2:0,0:0:0:0:
444,132,283887,1,0,0:0:0:0:
318,214,284029,1,0,0:0:0:0:
313,217,284101,1,0,0:0:0:0:
308,220,284172,86,0,B|384:196|384:196|440:220|440:220|504:200,1,207.200005058594,12|0,0:0|0:0,0:0:0:0:
380,288,284601,1,4,2:3:0:0:
296,128,284744,2,0,B|288:76|288:76|316:32,1,103.600002529297,0|0,0:0|2:0,0:0:0:0:
380,288,285029,22,0,B|360:337|360:337|315:360,2,103.600002529297,4|8|8,0:0|2:3|2:3,0:0:0:0:
232,352,285458,1,8,2:3:0:0:
148,260,285601,1,8,2:3:0:0:
172,180,285744,1,0,0:0:0:0:
236,340,285887,85,12,0:0:0:0:
136,360,286029,1,0,0:0:0:0:
236,256,286172,2,0,B|284:268|284:268|316:312,1,103.600002529297,0|4,0:0|2:3,0:0:0:0:
56,360,286458,2,0,B|20:325|20:325|14:271,1,103.600002529297,0|0,0:0|2:3,0:0:0:0:
156,104,286744,22,0,B|160:128|160:128|152:148,1,43.8666659973145,0|0,0:0|2:0,0:0:0:0:
60,136,286887,2,0,B|56:112|56:112|64:92,1,43.8666659973145,0|0,0:0|2:0,0:0:0:0:
228,60,287029,2,0,B|224:96|224:96|232:112|232:112|228:148,1,87.7333319946289,4|0,0:0|2:3,0:0:0:0:
424,152,287315,2,0,B|428:116|428:116|420:100|420:100|424:64,1,87.7333319946289,4|0,0:0|2:3,0:0:0:0:
240,280,287601,102,0,B|324:256|324:256|396:308,1,175.466663989258,12|4,0:0|0:0,0:0:0:0:
304,368,288029,1,0,0:0:0:0:
296,192,288172,2,0,B|338:180|338:180|374:206,1,87.7333319946289,4|0,0:0|2:0,0:0:0:0:
61,343,288458,6,0,B|40:280|40:280|61:229|61:229|43:167,2,186.666666666667,4|4|4,0:0|0:0|0:0,0:0:0:0:
204,272,289172,1,0,0:0:0:0:
144,136,289315,85,12,0:0:0:0:
228,168,289458,1,0,2:0:0:0:
316,152,289601,1,4,2:3:0:0:
372,240,289744,5,0,2:0:0:0:
428,196,289887,1,4,0:0:0:0:
496,184,290029,1,0,2:0:0:0:
416,340,290172,6,0,B|392:344|392:344|372:336,1,43.8666659973145,4|0,0:0|2:0,0:0:0:0:
312,304,290315,2,0,B|288:300|288:300|268:308,1,43.8666659973145,0|0,0:0|2:0,0:0:0:0:
212,360,290458,2,0,B|168:368|168:368|132:344,1,87.7333319946289,4|0,0:0|2:0,0:0:0:0:
156,220,290744,2,0,B|200:212|200:212|236:236,1,87.7333319946289,4|0,0:0|2:0,0:0:0:0:
384,160,291029,102,0,B|316:104|316:104|308:16,1,175.466663989258,12|4,0:0|0:0,0:0:0:0:
408,56,291458,1,0,0:0:0:0:
276,169,291601,2,0,B|242:141|242:141|238:97,1,87.7333319946289,4|0,0:0|2:0,0:0:0:0:
380,360,291887,6,0,B|316:381|316:381|265:360|265:360|203:377,2,186.666666666667,4|4|4,0:0|0:0|0:0,0:0:0:0:
264,260,292601,1,0,0:0:0:0:
140,344,292744,85,12,0:0:0:0:
116,260,292887,1,0,2:0:0:0:
60,192,293029,1,4,2:3:0:0:
152,140,293172,5,0,2:0:0:0:
184,76,293315,1,4,0:0:0:0:
240,32,293458,1,0,2:0:0:0:
368,152,293601,6,0,B|392:160|392:160|416:148,1,51.8000012646485,4|0,0:0|2:0,0:0:0:0:
404,60,293744,2,0,B|380:52|380:52|356:64,1,51.8000012646485,0|0,0:0|2:0,0:0:0:0:
348,252,293887,2,0,B|396:228|396:228|448:236,1,103.600002529297,4|0,0:0|2:0,0:0:0:0:
184,76,294172,2,0,B|134:83|134:83|86:59,1,103.600002529297,4|0,0:0|2:0,0:0:0:0:
4,300,294458,102,0,B|104:268|104:268|184:332,1,207.200005058594,6|4,0:0|0:0,0:0:0:0:
84,384,294887,1,0,0:0:0:0:
72,164,295029,2,0,B|124:156|124:156|168:180,1,103.600002529297,4|0,0:0|2:0,0:0:0:0:
435,329,295315,6,0,B|461:251|461:251|435:189|435:189|457:113,2,227.73332395101,6|4|4,0:0|0:0|0:0,0:0:0:0:
332,200,296029,1,0,0:0:0:0:
400,48,296172,85,14,0:0:0:0:
300,76,296315,1,0,2:0:0:0:
204,36,296458,1,4,0:0:0:0:
160,152,296601,5,0,2:0:0:0:
92,104,296744,1,4,0:0:0:0:
8,108,296887,1,0,2:0:0:0:
96,288,297029,6,0,B|124:300|124:300|156:288,1,62.0666641095989,4|0,0:0|2:0,0:0:0:0:
288,144,297172,2,0,B|260:132|260:132|228:144,1,62.0666641095989,0|0,0:0|2:0,0:0:0:0:
320,328,297315,2,0,B|368:320|368:320|388:296|388:296|436:288,1,124.133328219198,4|0,0:0|0:0,0:0:0:0:
228,52,297601,2,0,B|180:60|180:60|160:84|160:84|112:92,1,124.133328219198,4|0,0:0|0:0,0:0:0:0:
4,312,297887,102,0,B|64:328|64:328|100:380|100:380|156:352|156:352|216:364,1,248.266656438396,6|4,0:0|0:0,0:0:0:0:
324,124,298315,1,0,0:0:0:0:
60,140,298458,2,0,B|36:84|36:84|72:32,1,124.133328219198,4|0,0:0|0:0,0:0:0:0:
368,348,298744,6,0,B|273:379|273:379|197:348|197:348|104:374,2,280.000010681153,6|4|4,0:0|0:0|0:0,0:0:0:0:
280,180,299458,1,0,0:0:0:0:
104,256,299601,86,0,B|76:192|76:192|16:152,1,140.000005340576,14|0,0:0|0:0,0:0:0:0:
120,64,299887,1,4,0:0:0:0:
256,328,300029,2,0,B|312:286|312:286|384:281,1,140.000005340576,0|4,0:0|0:0,0:0:0:0:
280,180,300315,1,0,0:0:0:0:
276,188,300387,1,0,0:0:0:0:
272,196,300458,21,12,0:0:0:0:
196,68,300601,1,12,0:0:0:0:
384,156,300744,1,12,0:0:0:0:
192,276,300887,1,12,0:0:0:0:
272,104,301029,85,0,0:0:0:0:
278,106,301101,1,0,0:0:0:0:
284,108,301172,1,0,0:0:0:0:
290,110,301244,1,0,0:0:0:0:
296,112,301315,21,8,0:0:0:0:
200,256,301458,1,8,0:0:0:0:
208,48,301601,1,8,0:0:0:0:
388,176,301744,1,8,0:0:0:0:
112,204,301887,5,8,0:0:0:0:
