osu file format v14

[General]
AudioFilename: audio.mp3
AudioLeadIn: 0
PreviewTime: 60959
Countdown: 0
SampleSet: Normal
StackLeniency: 0.7
Mode: 3
LetterboxInBreaks: 0
SpecialStyle: 0
WidescreenStoryboard: 1

[Editor]
DistanceSpacing: 0.5
BeatDivisor: 4
GridSize: 4
TimelineZoom: 2.899999

[Metadata]
Title:Konton Boogie
TitleUnicode:혼돈 부기
Artist:Jingburger
ArtistUnicode:Jingburger
Creator:G0NG
Version:NM
Source:
Tags:
BeatmapID:4576663
BeatmapSetID:2168842

[Difficulty]
HPDrainRate:6
CircleSize:4
OverallDifficulty:6
ApproachRate:5
SliderMultiplier:1.4
SliderTickRate:1

[Events]
//Background and Video events
0,0,"bg.jpg",0,0
Video,0,"bga.mp4"
//Break Periods
//Storyboard Layer 0 (Background)
//Storyboard Layer 1 (Fail)
//Storyboard Layer 2 (Pass)
//Storyboard Layer 3 (Foreground)
//Storyboard Layer 4 (Overlay)
//Storyboard Sound Samples

[TimingPoints]
-935,315.789473684211,4,1,0,0,1,0

[Colours]
Combo1 : 255,192,0
Combo2 : 255,209,89
Combo3 : 31,18,1
Combo4 : 242,24,57

[HitObjects]
448,192,328,5,0,0:0:0:0:
320,192,328,1,0,0:0:0:0:
448,192,643,1,0,0:0:0:0:
320,192,643,1,0,0:0:0:0:
64,192,959,1,0,0:0:0:0:
192,192,1117,1,0,0:0:0:0:
320,192,1275,1,0,0:0:0:0:
448,192,1433,1,0,0:0:0:0:
64,192,1591,1,0,0:0:0:0:
192,192,1591,1,0,0:0:0:0:
64,192,1907,1,0,0:0:0:0:
192,192,1907,1,0,0:0:0:0:
448,192,2222,1,0,0:0:0:0:
320,192,2380,1,0,0:0:0:0:
192,192,2538,1,0,0:0:0:0:
64,192,2696,1,0,0:0:0:0:
448,192,2854,1,0,0:0:0:0:
320,192,2854,1,0,0:0:0:0:
320,192,3170,1,0,0:0:0:0:
192,192,3170,1,0,0:0:0:0:
64,192,3486,1,0,0:0:0:0:
192,192,3486,1,0,0:0:0:0:
192,192,3801,1,0,0:0:0:0:
320,192,3801,1,0,0:0:0:0:
320,192,3959,1,0,0:0:0:0:
448,192,3959,1,0,0:0:0:0:
320,192,4275,1,0,0:0:0:0:
192,192,4275,1,0,0:0:0:0:
192,192,4591,1,0,0:0:0:0:
64,192,4591,1,0,0:0:0:0:
320,192,4907,1,0,0:0:0:0:
448,192,4907,1,0,0:0:0:0:
320,192,5065,1,0,0:0:0:0:
448,192,5065,1,0,0:0:0:0:
64,192,5380,1,0,0:0:0:0:
192,192,5380,1,0,0:0:0:0:
64,192,5696,1,0,0:0:0:0:
192,192,5696,1,0,0:0:0:0:
448,192,6012,1,0,0:0:0:0:
320,192,6170,1,0,0:0:0:0:
192,192,6328,1,0,0:0:0:0:
64,192,6486,1,0,0:0:0:0:
320,192,6643,1,0,0:0:0:0:
448,192,6643,1,0,0:0:0:0:
320,192,6959,1,0,0:0:0:0:
448,192,6959,1,0,0:0:0:0:
64,192,7275,1,0,0:0:0:0:
192,192,7433,1,0,0:0:0:0:
320,192,7591,1,0,0:0:0:0:
448,192,7749,1,0,0:0:0:0:
64,192,7907,1,0,0:0:0:0:
192,192,7907,1,0,0:0:0:0:
192,192,8222,1,0,0:0:0:0:
320,192,8222,1,0,0:0:0:0:
320,192,8538,1,0,0:0:0:0:
448,192,8538,1,0,0:0:0:0:
320,192,8696,1,0,0:0:0:0:
192,192,8696,1,0,0:0:0:0:
192,192,8854,128,0,9170:0:0:0:0:
64,192,8854,128,0,9170:0:0:0:0:
448,192,9170,128,0,9486:0:0:0:0:
320,192,9170,128,0,9486:0:0:0:0:
64,192,9643,1,0,0:0:0:0:
192,192,9801,1,0,0:0:0:0:
320,192,9959,1,0,0:0:0:0:
448,192,10117,1,0,0:0:0:0:
64,192,10433,128,0,10591:0:0:0:0:
448,192,10433,128,0,10591:0:0:0:0:
192,192,10433,128,0,10591:0:0:0:0:
320,192,10749,128,0,10907:0:0:0:0:
448,192,10749,128,0,10907:0:0:0:0:
64,192,10749,128,0,10907:0:0:0:0:
64,192,11065,1,0,0:0:0:0:
192,192,11065,1,0,0:0:0:0:
192,192,11222,1,0,0:0:0:0:
320,192,11380,1,0,0:0:0:0:
448,192,11380,1,0,0:0:0:0:
320,192,11538,1,0,0:0:0:0:
64,192,11696,128,0,11854:0:0:0:0:
192,192,11696,128,0,11854:0:0:0:0:
448,192,11696,128,0,11854:0:0:0:0:
320,192,12012,128,0,12170:0:0:0:0:
448,192,12012,128,0,12170:0:0:0:0:
64,192,12012,128,0,12170:0:0:0:0:
64,192,12328,1,0,0:0:0:0:
192,192,12328,1,0,0:0:0:0:
192,192,12486,1,0,0:0:0:0:
448,192,12643,1,0,0:0:0:0:
320,192,12643,1,0,0:0:0:0:
320,192,12801,1,0,0:0:0:0:
64,192,12959,128,0,13117:0:0:0:0:
192,192,12959,128,0,13117:0:0:0:0:
192,192,13275,128,0,13433:0:0:0:0:
320,192,13275,128,0,13433:0:0:0:0:
320,192,13591,128,0,13749:0:0:0:0:
448,192,13591,128,0,13749:0:0:0:0:
64,192,13907,128,0,14065:0:0:0:0:
192,192,13907,128,0,14065:0:0:0:0:
320,192,14065,128,0,14222:0:0:0:0:
448,192,14065,128,0,14222:0:0:0:0:
64,192,14380,128,0,14538:0:0:0:0:
192,192,14380,128,0,14538:0:0:0:0:
192,192,14696,128,0,14854:0:0:0:0:
320,192,14696,128,0,14854:0:0:0:0:
448,192,15012,1,0,0:0:0:0:
320,192,15012,1,0,0:0:0:0:
192,192,15170,1,0,0:0:0:0:
64,192,15170,1,0,0:0:0:0:
448,192,15486,128,0,15643:0:0:0:0:
64,192,15486,128,0,15643:0:0:0:0:
320,192,15486,128,0,15643:0:0:0:0:
192,192,15801,128,0,15959:0:0:0:0:
64,192,15801,128,0,15959:0:0:0:0:
448,192,15801,128,0,15959:0:0:0:0:
448,192,16117,1,0,0:0:0:0:
320,192,16117,1,0,0:0:0:0:
320,192,16275,1,0,0:0:0:0:
192,192,16433,1,0,0:0:0:0:
64,192,16433,1,0,0:0:0:0:
192,192,16591,1,0,0:0:0:0:
448,192,16749,128,0,16907:0:0:0:0:
320,192,16749,128,0,16907:0:0:0:0:
64,192,16749,128,0,16907:0:0:0:0:
192,192,17065,128,0,17222:0:0:0:0:
64,192,17065,128,0,17222:0:0:0:0:
448,192,17065,128,0,17222:0:0:0:0:
448,192,17380,1,0,0:0:0:0:
320,192,17380,1,0,0:0:0:0:
320,192,17538,1,0,0:0:0:0:
64,192,17696,1,0,0:0:0:0:
192,192,17696,1,0,0:0:0:0:
192,192,17854,1,0,0:0:0:0:
448,192,18012,128,0,18170:0:0:0:0:
320,192,18012,128,0,18170:0:0:0:0:
320,192,18328,128,0,18486:0:0:0:0:
192,192,18328,128,0,18486:0:0:0:0:
192,192,18643,128,0,18801:0:0:0:0:
64,192,18643,128,0,18801:0:0:0:0:
320,192,18801,128,0,18959:0:0:0:0:
448,192,18801,128,0,18959:0:0:0:0:
192,192,19117,128,0,19275:0:0:0:0:
64,192,19117,128,0,19275:0:0:0:0:
448,192,19433,128,0,19591:0:0:0:0:
64,192,19591,128,0,19749:0:0:0:0:
320,192,19749,128,0,19907:0:0:0:0:
192,192,19907,128,0,20065:0:0:0:0:
448,192,20065,128,0,20222:0:0:0:0:
64,192,20222,128,0,20538:0:0:0:0:
448,192,20538,1,0,0:0:0:0:
320,192,20538,1,0,0:0:0:0:
448,192,20854,1,0,0:0:0:0:
320,192,20854,1,0,0:0:0:0:
64,192,21012,1,0,0:0:0:0:
448,192,21170,1,0,0:0:0:0:
320,192,21170,1,0,0:0:0:0:
64,192,21328,1,0,0:0:0:0:
192,192,21486,1,0,0:0:0:0:
320,192,21486,1,0,0:0:0:0:
448,192,21643,1,0,0:0:0:0:
64,192,21801,1,0,0:0:0:0:
192,192,21801,1,0,0:0:0:0:
64,192,22117,1,0,0:0:0:0:
192,192,22117,1,0,0:0:0:0:
448,192,22275,1,0,0:0:0:0:
192,192,22433,1,0,0:0:0:0:
320,192,22433,1,0,0:0:0:0:
64,192,22591,1,0,0:0:0:0:
320,192,22749,1,0,0:0:0:0:
448,192,22749,1,0,0:0:0:0:
64,192,22907,1,0,0:0:0:0:
192,192,23065,1,0,0:0:0:0:
320,192,23065,1,0,0:0:0:0:
448,192,23380,1,0,0:0:0:0:
320,192,23380,1,0,0:0:0:0:
192,192,23538,1,0,0:0:0:0:
64,192,23696,1,0,0:0:0:0:
448,192,23696,1,0,0:0:0:0:
192,192,23854,1,0,0:0:0:0:
448,192,24012,1,0,0:0:0:0:
320,192,24012,1,0,0:0:0:0:
192,192,24170,1,0,0:0:0:0:
64,192,24328,1,0,0:0:0:0:
448,192,24328,1,0,0:0:0:0:
192,192,24643,1,0,0:0:0:0:
64,192,24643,1,0,0:0:0:0:
448,192,24959,1,0,0:0:0:0:
320,192,24959,1,0,0:0:0:0:
64,192,25196,1,0,0:0:0:0:
448,192,25275,1,0,0:0:0:0:
64,192,25433,1,0,0:0:0:0:
448,192,25591,1,0,0:0:0:0:
320,192,25591,1,0,0:0:0:0:
448,192,25907,1,0,0:0:0:0:
320,192,25907,1,0,0:0:0:0:
64,192,26065,1,0,0:0:0:0:
448,192,26222,1,0,0:0:0:0:
320,192,26222,1,0,0:0:0:0:
64,192,26380,1,0,0:0:0:0:
192,192,26538,1,0,0:0:0:0:
320,192,26538,1,0,0:0:0:0:
448,192,26696,1,0,0:0:0:0:
64,192,26854,1,0,0:0:0:0:
192,192,26854,1,0,0:0:0:0:
64,192,27170,1,0,0:0:0:0:
192,192,27170,1,0,0:0:0:0:
448,192,27328,1,0,0:0:0:0:
192,192,27486,1,0,0:0:0:0:
320,192,27486,1,0,0:0:0:0:
64,192,27643,1,0,0:0:0:0:
320,192,27801,1,0,0:0:0:0:
448,192,27801,1,0,0:0:0:0:
64,192,27959,1,0,0:0:0:0:
192,192,28117,1,0,0:0:0:0:
320,192,28117,1,0,0:0:0:0:
448,192,28433,1,0,0:0:0:0:
320,192,28433,1,0,0:0:0:0:
192,192,28591,1,0,0:0:0:0:
64,192,28749,1,0,0:0:0:0:
448,192,28749,1,0,0:0:0:0:
192,192,28907,1,0,0:0:0:0:
448,192,29065,1,0,0:0:0:0:
320,192,29065,1,0,0:0:0:0:
192,192,29222,1,0,0:0:0:0:
64,192,29380,1,0,0:0:0:0:
448,192,29380,1,0,0:0:0:0:
320,192,29538,1,0,0:0:0:0:
192,192,29617,1,0,0:0:0:0:
64,192,29696,1,0,0:0:0:0:
448,192,29696,1,0,0:0:0:0:
192,192,29854,1,0,0:0:0:0:
448,192,30012,1,0,0:0:0:0:
320,192,30012,1,0,0:0:0:0:
64,192,30170,1,0,0:0:0:0:
192,192,30249,1,0,0:0:0:0:
448,192,30328,1,0,0:0:0:0:
320,192,30328,1,0,0:0:0:0:
64,192,30486,1,0,0:0:0:0:
448,192,30643,1,0,0:0:0:0:
320,192,30643,1,0,0:0:0:0:
64,192,30801,1,0,0:0:0:0:
320,192,30959,1,0,0:0:0:0:
192,192,31117,1,0,0:0:0:0:
448,192,31275,1,0,0:0:0:0:
64,192,31433,1,0,0:0:0:0:
320,192,31591,1,0,0:0:0:0:
64,192,31749,1,0,0:0:0:0:
448,192,31907,1,0,0:0:0:0:
64,192,32065,128,0,32222:0:0:0:0:
448,192,32222,1,0,0:0:0:0:
64,192,32380,128,0,32538:0:0:0:0:
448,192,32538,1,0,0:0:0:0:
64,192,32696,1,0,0:0:0:0:
64,192,32854,1,0,0:0:0:0:
192,192,33012,1,0,0:0:0:0:
320,192,33170,1,0,0:0:0:0:
448,192,33328,1,0,0:0:0:0:
64,192,33486,1,0,0:0:0:0:
320,192,33643,1,0,0:0:0:0:
192,192,33801,1,0,0:0:0:0:
448,192,33959,1,0,0:0:0:0:
64,192,34117,1,0,0:0:0:0:
320,192,34275,1,0,0:0:0:0:
64,192,34433,1,0,0:0:0:0:
192,192,34591,1,0,0:0:0:0:
320,192,34749,1,0,0:0:0:0:
448,192,34907,128,0,35222:0:0:0:0:
64,192,35065,1,0,0:0:0:0:
320,192,35222,1,0,0:0:0:0:
64,192,35380,1,0,0:0:0:0:
64,192,35538,1,0,0:0:0:0:
320,192,35696,1,0,0:0:0:0:
448,192,35696,1,0,0:0:0:0:
64,192,35854,1,0,0:0:0:0:
448,192,36012,1,0,0:0:0:0:
192,192,36170,1,0,0:0:0:0:
320,192,36328,1,0,0:0:0:0:
192,192,36486,1,0,0:0:0:0:
448,192,36643,1,0,0:0:0:0:
64,192,36801,1,0,0:0:0:0:
192,192,36959,1,0,0:0:0:0:
448,192,37117,128,0,37275:0:0:0:0:
64,192,37275,1,0,0:0:0:0:
448,192,37433,128,0,37591:0:0:0:0:
64,192,37591,1,0,0:0:0:0:
448,192,37749,1,0,0:0:0:0:
448,192,37907,1,0,0:0:0:0:
64,192,38065,1,0,0:0:0:0:
320,192,38222,1,0,0:0:0:0:
448,192,38222,1,0,0:0:0:0:
64,192,38380,1,0,0:0:0:0:
320,192,38538,1,0,0:0:0:0:
192,192,38696,1,0,0:0:0:0:
448,192,38854,1,0,0:0:0:0:
448,192,39012,1,0,0:0:0:0:
64,192,39170,1,0,0:0:0:0:
64,192,39328,1,0,0:0:0:0:
320,192,39486,1,0,0:0:0:0:
448,192,39486,1,0,0:0:0:0:
64,192,39643,1,0,0:0:0:0:
448,192,39801,1,0,0:0:0:0:
192,192,39959,1,0,0:0:0:0:
448,192,40117,1,0,0:0:0:0:
64,192,40275,1,0,0:0:0:0:
320,192,40433,1,0,0:0:0:0:
192,192,40591,1,0,0:0:0:0:
64,192,40749,1,0,0:0:0:0:
192,192,40907,1,0,0:0:0:0:
448,192,41065,1,0,0:0:0:0:
320,192,41065,1,0,0:0:0:0:
192,192,41222,1,0,0:0:0:0:
64,192,41380,1,0,0:0:0:0:
192,192,41538,1,0,0:0:0:0:
320,192,41696,1,0,0:0:0:0:
448,192,41696,1,0,0:0:0:0:
64,192,41854,1,0,0:0:0:0:
448,192,42012,1,0,0:0:0:0:
320,192,42170,1,0,0:0:0:0:
192,192,42328,1,0,0:0:0:0:
64,192,42328,1,0,0:0:0:0:
320,192,42486,1,0,0:0:0:0:
448,192,42643,128,0,42959:0:0:0:0:
64,192,42959,1,0,0:0:0:0:
192,192,42959,1,0,0:0:0:0:
448,192,43117,1,0,0:0:0:0:
64,192,43275,1,0,0:0:0:0:
448,192,43591,1,0,0:0:0:0:
320,192,43591,1,0,0:0:0:0:
64,192,43749,1,0,0:0:0:0:
448,192,43907,1,0,0:0:0:0:
320,192,44065,1,0,0:0:0:0:
64,192,44222,1,0,0:0:0:0:
192,192,44222,1,0,0:0:0:0:
448,192,44380,1,0,0:0:0:0:
64,192,44538,1,0,0:0:0:0:
192,192,44696,1,0,0:0:0:0:
448,192,44854,1,0,0:0:0:0:
320,192,44854,1,0,0:0:0:0:
192,192,45012,1,0,0:0:0:0:
64,192,45170,128,0,45486:0:0:0:0:
448,192,45486,1,0,0:0:0:0:
320,192,45486,1,0,0:0:0:0:
64,192,45643,1,0,0:0:0:0:
192,192,45801,1,0,0:0:0:0:
320,192,45959,1,0,0:0:0:0:
448,192,46117,1,0,0:0:0:0:
64,192,46117,1,0,0:0:0:0:
320,192,46275,1,0,0:0:0:0:
192,192,46433,1,0,0:0:0:0:
64,192,46591,1,0,0:0:0:0:
320,192,46749,1,0,0:0:0:0:
448,192,46749,1,0,0:0:0:0:
192,192,46907,1,0,0:0:0:0:
64,192,47065,1,0,0:0:0:0:
448,192,47222,1,0,0:0:0:0:
192,192,47380,1,0,0:0:0:0:
64,192,47380,1,0,0:0:0:0:
320,192,47538,1,0,0:0:0:0:
448,192,47696,128,0,47854:0:0:0:0:
320,192,48012,128,0,48170:0:0:0:0:
192,192,48012,1,0,0:0:0:0:
192,192,48328,128,0,48486:0:0:0:0:
64,192,48643,128,0,48801:0:0:0:0:
192,192,48643,1,0,0:0:0:0:
192,192,48959,128,0,49117:0:0:0:0:
320,192,49275,128,0,49433:0:0:0:0:
192,192,49275,1,0,0:0:0:0:
448,192,49591,128,0,49749:0:0:0:0:
320,192,49907,1,0,0:0:0:0:
448,192,49907,1,0,0:0:0:0:
64,192,50065,1,0,0:0:0:0:
64,192,50222,1,0,0:0:0:0:
448,192,50380,1,0,0:0:0:0:
448,192,50538,1,0,0:0:0:0:
64,192,50696,1,0,0:0:0:0:
64,192,50854,1,0,0:0:0:0:
192,192,50854,1,0,0:0:0:0:
320,192,51012,1,0,0:0:0:0:
448,192,51170,128,0,51486:0:0:0:0:
192,192,51170,1,0,0:0:0:0:
64,192,51486,128,0,51801:0:0:0:0:
320,192,51486,1,0,0:0:0:0:
192,192,51801,1,0,0:0:0:0:
448,192,51801,1,0,0:0:0:0:
320,192,51959,1,0,0:0:0:0:
448,192,52117,1,0,0:0:0:0:
64,192,52117,1,0,0:0:0:0:
320,192,52275,1,0,0:0:0:0:
192,192,52433,1,0,0:0:0:0:
448,192,52433,1,0,0:0:0:0:
64,192,52591,1,0,0:0:0:0:
448,192,52749,128,0,53065:0:0:0:0:
192,192,52749,1,0,0:0:0:0:
64,192,53065,1,0,0:0:0:0:
64,192,53380,1,0,0:0:0:0:
448,192,53538,1,0,0:0:0:0:
64,192,53696,128,0,53854:0:0:0:0:
320,192,53696,1,0,0:0:0:0:
192,192,54012,128,0,54328:0:0:0:0:
448,192,54012,1,0,0:0:0:0:
320,192,54328,1,0,0:0:0:0:
64,192,54328,1,0,0:0:0:0:
448,192,54486,1,0,0:0:0:0:
64,192,54643,1,0,0:0:0:0:
320,192,54643,1,0,0:0:0:0:
192,192,54801,1,0,0:0:0:0:
320,192,54959,1,0,0:0:0:0:
64,192,54959,1,0,0:0:0:0:
448,192,55117,1,0,0:0:0:0:
64,192,55275,128,0,55907:0:0:0:0:
320,192,55275,1,0,0:0:0:0:
448,192,55591,1,0,0:0:0:0:
320,192,55907,1,0,0:0:0:0:
448,192,56065,1,0,0:0:0:0:
64,192,56222,128,0,56538:0:0:0:0:
320,192,56222,1,0,0:0:0:0:
448,192,56538,128,0,56854:0:0:0:0:
192,192,56538,1,0,0:0:0:0:
320,192,56854,1,0,0:0:0:0:
64,192,56854,1,0,0:0:0:0:
192,192,57012,1,0,0:0:0:0:
448,192,57170,1,0,0:0:0:0:
64,192,57170,1,0,0:0:0:0:
320,192,57328,1,0,0:0:0:0:
448,192,57486,1,0,0:0:0:0:
64,192,57486,1,0,0:0:0:0:
192,192,57643,1,0,0:0:0:0:
320,192,57801,1,0,0:0:0:0:
448,192,57801,1,0,0:0:0:0:
64,192,57959,1,0,0:0:0:0:
192,192,58117,1,0,0:0:0:0:
448,192,58117,1,0,0:0:0:0:
64,192,58275,1,0,0:0:0:0:
448,192,58433,1,0,0:0:0:0:
320,192,58433,1,0,0:0:0:0:
192,192,58591,1,0,0:0:0:0:
64,192,58749,1,0,0:0:0:0:
192,192,58907,1,0,0:0:0:0:
320,192,59065,1,0,0:0:0:0:
448,192,59222,1,0,0:0:0:0:
320,192,59380,1,0,0:0:0:0:
192,192,59538,1,0,0:0:0:0:
64,192,59696,128,0,60643:0:0:0:0:
64,192,60959,128,0,61117:0:0:0:0:
448,192,60959,128,0,61117:0:0:0:0:
192,192,60959,128,0,61117:0:0:0:0:
320,192,61275,128,0,61433:0:0:0:0:
448,192,61275,128,0,61433:0:0:0:0:
64,192,61275,128,0,61433:0:0:0:0:
64,192,61591,1,0,0:0:0:0:
192,192,61591,1,0,0:0:0:0:
192,192,61749,1,0,0:0:0:0:
320,192,61907,1,0,0:0:0:0:
448,192,61907,1,0,0:0:0:0:
320,192,62065,1,0,0:0:0:0:
64,192,62222,128,0,62380:0:0:0:0:
192,192,62222,128,0,62380:0:0:0:0:
448,192,62222,128,0,62380:0:0:0:0:
320,192,62538,128,0,62696:0:0:0:0:
448,192,62538,128,0,62696:0:0:0:0:
64,192,62538,128,0,62696:0:0:0:0:
64,192,62854,1,0,0:0:0:0:
192,192,62854,1,0,0:0:0:0:
192,192,63012,1,0,0:0:0:0:
448,192,63170,1,0,0:0:0:0:
320,192,63170,1,0,0:0:0:0:
320,192,63328,1,0,0:0:0:0:
64,192,63486,128,0,63643:0:0:0:0:
192,192,63486,128,0,63643:0:0:0:0:
192,192,63801,128,0,63959:0:0:0:0:
320,192,63801,128,0,63959:0:0:0:0:
320,192,64117,128,0,64275:0:0:0:0:
448,192,64117,128,0,64275:0:0:0:0:
64,192,64433,128,0,64591:0:0:0:0:
192,192,64433,128,0,64591:0:0:0:0:
320,192,64591,128,0,64749:0:0:0:0:
448,192,64591,128,0,64749:0:0:0:0:
64,192,64907,128,0,65065:0:0:0:0:
192,192,64907,128,0,65065:0:0:0:0:
192,192,65222,128,0,65380:0:0:0:0:
320,192,65222,128,0,65380:0:0:0:0:
448,192,65538,1,0,0:0:0:0:
320,192,65538,1,0,0:0:0:0:
192,192,65696,1,0,0:0:0:0:
64,192,65696,1,0,0:0:0:0:
448,192,66012,128,0,66170:0:0:0:0:
64,192,66012,128,0,66170:0:0:0:0:
320,192,66012,128,0,66170:0:0:0:0:
192,192,66328,128,0,66486:0:0:0:0:
64,192,66328,128,0,66486:0:0:0:0:
448,192,66328,128,0,66486:0:0:0:0:
448,192,66643,1,0,0:0:0:0:
320,192,66643,1,0,0:0:0:0:
320,192,66801,1,0,0:0:0:0:
192,192,66959,1,0,0:0:0:0:
64,192,66959,1,0,0:0:0:0:
192,192,67117,1,0,0:0:0:0:
448,192,67275,128,0,67433:0:0:0:0:
320,192,67275,128,0,67433:0:0:0:0:
64,192,67275,128,0,67433:0:0:0:0:
192,192,67591,128,0,67749:0:0:0:0:
64,192,67591,128,0,67749:0:0:0:0:
448,192,67591,128,0,67749:0:0:0:0:
448,192,67907,1,0,0:0:0:0:
320,192,67907,1,0,0:0:0:0:
320,192,68065,1,0,0:0:0:0:
64,192,68222,1,0,0:0:0:0:
192,192,68222,1,0,0:0:0:0:
192,192,68380,1,0,0:0:0:0:
448,192,68538,128,0,68696:0:0:0:0:
320,192,68538,128,0,68696:0:0:0:0:
320,192,68854,128,0,69012:0:0:0:0:
192,192,68854,128,0,69012:0:0:0:0:
192,192,69170,128,0,69328:0:0:0:0:
64,192,69170,128,0,69328:0:0:0:0:
448,192,69486,128,0,69643:0:0:0:0:
320,192,69486,128,0,69643:0:0:0:0:
64,192,69801,128,0,69959:0:0:0:0:
192,192,69801,128,0,69959:0:0:0:0:
192,192,70275,128,0,70433:0:0:0:0:
64,192,70433,128,0,70591:0:0:0:0:
448,192,70591,128,0,70749:0:0:0:0:
320,192,70749,128,0,71065:0:0:0:0:
192,192,71065,128,0,71222:0:0:0:0:
448,192,71065,128,0,71222:0:0:0:0:
64,192,71065,128,0,71222:0:0:0:0:
64,192,71380,128,0,71538:0:0:0:0:
448,192,71380,128,0,71538:0:0:0:0:
320,192,71380,128,0,71538:0:0:0:0:
192,192,71696,1,0,0:0:0:0:
64,192,71696,1,0,0:0:0:0:
192,192,71854,1,0,0:0:0:0:
448,192,72012,1,0,0:0:0:0:
320,192,72012,1,0,0:0:0:0:
320,192,72170,1,0,0:0:0:0:
448,192,72328,128,0,72486:0:0:0:0:
192,192,72328,128,0,72486:0:0:0:0:
64,192,72328,128,0,72486:0:0:0:0:
64,192,72643,128,0,72801:0:0:0:0:
448,192,72643,128,0,72801:0:0:0:0:
320,192,72643,128,0,72801:0:0:0:0:
192,192,72959,1,0,0:0:0:0:
64,192,72959,1,0,0:0:0:0:
192,192,73117,1,0,0:0:0:0:
320,192,73275,1,0,0:0:0:0:
448,192,73275,1,0,0:0:0:0:
320,192,73433,1,0,0:0:0:0:
192,192,73591,128,0,73749:0:0:0:0:
64,192,73591,128,0,73749:0:0:0:0:
320,192,73907,128,0,74065:0:0:0:0:
192,192,73907,128,0,74065:0:0:0:0:
448,192,74222,128,0,74380:0:0:0:0:
320,192,74222,128,0,74380:0:0:0:0:
192,192,74538,128,0,74696:0:0:0:0:
64,192,74538,128,0,74696:0:0:0:0:
448,192,74696,128,0,74854:0:0:0:0:
320,192,74696,128,0,74854:0:0:0:0:
192,192,75012,128,0,75170:0:0:0:0:
64,192,75012,128,0,75170:0:0:0:0:
320,192,75328,128,0,75486:0:0:0:0:
192,192,75328,128,0,75486:0:0:0:0:
320,192,75643,1,0,0:0:0:0:
448,192,75643,1,0,0:0:0:0:
64,192,75801,1,0,0:0:0:0:
192,192,75801,1,0,0:0:0:0:
320,192,76117,128,0,76275:0:0:0:0:
64,192,76117,128,0,76275:0:0:0:0:
448,192,76117,128,0,76275:0:0:0:0:
448,192,76433,128,0,76591:0:0:0:0:
64,192,76433,128,0,76591:0:0:0:0:
192,192,76433,128,0,76591:0:0:0:0:
320,192,76749,1,0,0:0:0:0:
448,192,76749,1,0,0:0:0:0:
320,192,76907,1,0,0:0:0:0:
64,192,77065,1,0,0:0:0:0:
192,192,77065,1,0,0:0:0:0:
192,192,77222,1,0,0:0:0:0:
64,192,77380,128,0,77538:0:0:0:0:
320,192,77380,128,0,77538:0:0:0:0:
448,192,77380,128,0,77538:0:0:0:0:
448,192,77696,128,0,77854:0:0:0:0:
64,192,77696,128,0,77854:0:0:0:0:
192,192,77696,128,0,77854:0:0:0:0:
320,192,78012,1,0,0:0:0:0:
448,192,78012,1,0,0:0:0:0:
320,192,78170,1,0,0:0:0:0:
192,192,78328,1,0,0:0:0:0:
64,192,78328,1,0,0:0:0:0:
192,192,78486,1,0,0:0:0:0:
320,192,78643,128,0,78801:0:0:0:0:
448,192,78643,128,0,78801:0:0:0:0:
192,192,78959,128,0,79117:0:0:0:0:
320,192,78959,128,0,79117:0:0:0:0:
64,192,79275,128,0,79433:0:0:0:0:
192,192,79275,128,0,79433:0:0:0:0:
448,192,79591,128,0,79749:0:0:0:0:
320,192,79591,128,0,79749:0:0:0:0:
64,192,79749,128,0,79907:0:0:0:0:
192,192,79749,128,0,79907:0:0:0:0:
448,192,80065,128,0,80222:0:0:0:0:
64,192,80222,128,0,80380:0:0:0:0:
320,192,80380,128,0,80538:0:0:0:0:
192,192,80538,128,0,80696:0:0:0:0:
448,192,80696,128,0,80854:0:0:0:0:
64,192,80854,128,0,81170:0:0:0:0:
448,192,81170,1,0,0:0:0:0:
320,192,81328,1,0,0:0:0:0:
64,192,81486,1,0,0:0:0:0:
192,192,81565,1,0,0:0:0:0:
320,192,81643,1,0,0:0:0:0:
448,192,81801,1,0,0:0:0:0:
320,192,81959,1,0,0:0:0:0:
64,192,82117,1,0,0:0:0:0:
192,192,82196,1,0,0:0:0:0:
320,192,82275,1,0,0:0:0:0:
448,192,82433,1,0,0:0:0:0:
320,192,82591,1,0,0:0:0:0:
64,192,82749,1,0,0:0:0:0:
192,192,82828,1,0,0:0:0:0:
320,192,82907,1,0,0:0:0:0:
448,192,83065,1,0,0:0:0:0:
320,192,83222,1,0,0:0:0:0:
64,192,83380,1,0,0:0:0:0:
192,192,83459,1,0,0:0:0:0:
320,192,83538,1,0,0:0:0:0:
448,192,83696,1,0,0:0:0:0:
320,192,83854,1,0,0:0:0:0:
64,192,84012,1,0,0:0:0:0:
192,192,84091,1,0,0:0:0:0:
320,192,84170,1,0,0:0:0:0:
448,192,84328,1,0,0:0:0:0:
320,192,84486,1,0,0:0:0:0:
64,192,84643,1,0,0:0:0:0:
192,192,84722,1,0,0:0:0:0:
320,192,84801,1,0,0:0:0:0:
448,192,84959,1,0,0:0:0:0:
320,192,85117,1,0,0:0:0:0:
64,192,85275,1,0,0:0:0:0:
192,192,85354,1,0,0:0:0:0:
320,192,85433,1,0,0:0:0:0:
448,192,85591,1,0,0:0:0:0:
448,192,86065,1,0,0:0:0:0:
64,192,86222,1,0,0:0:0:0:
192,192,86380,1,0,0:0:0:0:
448,192,86538,1,0,0:0:0:0:
320,192,86617,1,0,0:0:0:0:
192,192,86696,1,0,0:0:0:0:
64,192,86854,1,0,0:0:0:0:
192,192,87012,1,0,0:0:0:0:
448,192,87170,1,0,0:0:0:0:
320,192,87249,1,0,0:0:0:0:
192,192,87328,1,0,0:0:0:0:
64,192,87486,1,0,0:0:0:0:
192,192,87643,1,0,0:0:0:0:
448,192,87801,1,0,0:0:0:0:
320,192,87880,1,0,0:0:0:0:
192,192,87959,1,0,0:0:0:0:
64,192,88117,1,0,0:0:0:0:
192,192,88275,1,0,0:0:0:0:
448,192,88433,1,0,0:0:0:0:
320,192,88512,1,0,0:0:0:0:
192,192,88591,1,0,0:0:0:0:
64,192,88749,1,0,0:0:0:0:
192,192,88907,1,0,0:0:0:0:
448,192,89065,1,0,0:0:0:0:
320,192,89143,1,0,0:0:0:0:
192,192,89222,1,0,0:0:0:0:
64,192,89380,1,0,0:0:0:0:
192,192,89538,1,0,0:0:0:0:
448,192,89696,1,0,0:0:0:0:
320,192,89775,1,0,0:0:0:0:
192,192,89854,1,0,0:0:0:0:
64,192,90012,1,0,0:0:0:0:
192,192,90170,1,0,0:0:0:0:
448,192,90328,1,0,0:0:0:0:
320,192,90407,1,0,0:0:0:0:
192,192,90486,1,0,0:0:0:0:
64,192,90643,1,0,0:0:0:0:
64,192,91275,1,0,0:0:0:0:
64,192,91591,1,0,0:0:0:0:
448,192,91907,1,0,0:0:0:0:
320,192,92065,1,0,0:0:0:0:
192,192,92222,1,0,0:0:0:0:
64,192,92380,1,0,0:0:0:0:
448,192,92538,1,0,0:0:0:0:
448,192,92854,1,0,0:0:0:0:
64,192,93170,1,0,0:0:0:0:
192,192,93328,1,0,0:0:0:0:
320,192,93486,1,0,0:0:0:0:
448,192,93643,1,0,0:0:0:0:
64,192,93801,1,0,0:0:0:0:
192,192,94117,1,0,0:0:0:0:
320,192,94433,1,0,0:0:0:0:
448,192,94749,1,0,0:0:0:0:
320,192,94907,1,0,0:0:0:0:
192,192,95222,1,0,0:0:0:0:
64,192,95538,1,0,0:0:0:0:
192,192,95854,1,0,0:0:0:0:
192,192,96012,1,0,0:0:0:0:
448,192,96328,1,0,0:0:0:0:
320,192,96643,1,0,0:0:0:0:
192,192,96959,1,0,0:0:0:0:
64,192,97117,1,0,0:0:0:0:
192,192,97275,1,0,0:0:0:0:
320,192,97433,1,0,0:0:0:0:
448,192,97591,1,0,0:0:0:0:
320,192,97907,1,0,0:0:0:0:
64,192,98222,1,0,0:0:0:0:
192,192,98380,1,0,0:0:0:0:
320,192,98538,1,0,0:0:0:0:
448,192,98696,1,0,0:0:0:0:
64,192,98854,1,0,0:0:0:0:
448,192,99170,1,0,0:0:0:0:
320,192,99486,1,0,0:0:0:0:
192,192,99959,1,0,0:0:0:0:
64,192,100117,1,0,0:0:0:0:
448,192,100591,1,0,0:0:0:0:
320,192,100749,1,0,0:0:0:0:
192,192,100907,1,0,0:0:0:0:
64,192,101065,1,0,0:0:0:0:
64,192,101380,128,0,101538:0:0:0:0:
448,192,101380,128,0,101538:0:0:0:0:
192,192,101380,128,0,101538:0:0:0:0:
320,192,101696,128,0,101854:0:0:0:0:
448,192,101696,128,0,101854:0:0:0:0:
64,192,101696,128,0,101854:0:0:0:0:
64,192,102012,1,0,0:0:0:0:
192,192,102012,1,0,0:0:0:0:
192,192,102170,1,0,0:0:0:0:
320,192,102328,1,0,0:0:0:0:
448,192,102328,1,0,0:0:0:0:
320,192,102486,1,0,0:0:0:0:
64,192,102643,128,0,102801:0:0:0:0:
192,192,102643,128,0,102801:0:0:0:0:
448,192,102643,128,0,102801:0:0:0:0:
320,192,102959,128,0,103117:0:0:0:0:
448,192,102959,128,0,103117:0:0:0:0:
64,192,102959,128,0,103117:0:0:0:0:
64,192,103275,1,0,0:0:0:0:
192,192,103275,1,0,0:0:0:0:
192,192,103433,1,0,0:0:0:0:
448,192,103591,1,0,0:0:0:0:
320,192,103591,1,0,0:0:0:0:
320,192,103749,1,0,0:0:0:0:
64,192,103907,128,0,104065:0:0:0:0:
192,192,103907,128,0,104065:0:0:0:0:
192,192,104222,128,0,104380:0:0:0:0:
320,192,104222,128,0,104380:0:0:0:0:
320,192,104538,128,0,104696:0:0:0:0:
448,192,104538,128,0,104696:0:0:0:0:
64,192,104854,128,0,105012:0:0:0:0:
192,192,104854,128,0,105012:0:0:0:0:
320,192,105012,128,0,105170:0:0:0:0:
448,192,105012,128,0,105170:0:0:0:0:
64,192,105328,128,0,105486:0:0:0:0:
192,192,105328,128,0,105486:0:0:0:0:
192,192,105643,128,0,105801:0:0:0:0:
320,192,105643,128,0,105801:0:0:0:0:
448,192,105959,1,0,0:0:0:0:
320,192,105959,1,0,0:0:0:0:
192,192,106117,1,0,0:0:0:0:
64,192,106117,1,0,0:0:0:0:
448,192,106433,128,0,106591:0:0:0:0:
64,192,106433,128,0,106591:0:0:0:0:
320,192,106433,128,0,106591:0:0:0:0:
192,192,106749,128,0,106907:0:0:0:0:
64,192,106749,128,0,106907:0:0:0:0:
448,192,106749,128,0,106907:0:0:0:0:
448,192,107065,1,0,0:0:0:0:
320,192,107065,1,0,0:0:0:0:
320,192,107222,1,0,0:0:0:0:
192,192,107380,1,0,0:0:0:0:
64,192,107380,1,0,0:0:0:0:
192,192,107538,1,0,0:0:0:0:
448,192,107696,128,0,107854:0:0:0:0:
320,192,107696,128,0,107854:0:0:0:0:
64,192,107696,128,0,107854:0:0:0:0:
192,192,108012,128,0,108170:0:0:0:0:
64,192,108012,128,0,108170:0:0:0:0:
448,192,108012,128,0,108170:0:0:0:0:
448,192,108328,1,0,0:0:0:0:
320,192,108328,1,0,0:0:0:0:
320,192,108486,1,0,0:0:0:0:
64,192,108643,1,0,0:0:0:0:
192,192,108643,1,0,0:0:0:0:
192,192,108801,1,0,0:0:0:0:
448,192,108959,128,0,109117:0:0:0:0:
320,192,108959,128,0,109117:0:0:0:0:
320,192,109275,128,0,109433:0:0:0:0:
192,192,109275,128,0,109433:0:0:0:0:
192,192,109591,128,0,109749:0:0:0:0:
64,192,109591,128,0,109749:0:0:0:0:
448,192,109907,128,0,110065:0:0:0:0:
320,192,109907,128,0,110065:0:0:0:0:
64,192,110222,128,0,110380:0:0:0:0:
192,192,110222,128,0,110380:0:0:0:0:
192,192,110696,128,0,110854:0:0:0:0:
64,192,110854,128,0,111012:0:0:0:0:
448,192,111012,128,0,111170:0:0:0:0:
320,192,111170,128,0,111486:0:0:0:0:
192,192,111486,128,0,111643:0:0:0:0:
448,192,111486,128,0,111643:0:0:0:0:
64,192,111486,128,0,111643:0:0:0:0:
64,192,111801,128,0,111959:0:0:0:0:
448,192,111801,128,0,111959:0:0:0:0:
320,192,111801,128,0,111959:0:0:0:0:
192,192,112117,1,0,0:0:0:0:
64,192,112117,1,0,0:0:0:0:
192,192,112275,1,0,0:0:0:0:
448,192,112433,1,0,0:0:0:0:
320,192,112433,1,0,0:0:0:0:
320,192,112591,1,0,0:0:0:0:
448,192,112749,128,0,112907:0:0:0:0:
192,192,112749,128,0,112907:0:0:0:0:
64,192,112749,128,0,112907:0:0:0:0:
64,192,113065,128,0,113222:0:0:0:0:
448,192,113065,128,0,113222:0:0:0:0:
320,192,113065,128,0,113222:0:0:0:0:
192,192,113380,1,0,0:0:0:0:
64,192,113380,1,0,0:0:0:0:
192,192,113538,1,0,0:0:0:0:
320,192,113696,1,0,0:0:0:0:
448,192,113696,1,0,0:0:0:0:
320,192,113854,1,0,0:0:0:0:
192,192,114012,128,0,114170:0:0:0:0:
64,192,114012,128,0,114170:0:0:0:0:
320,192,114328,128,0,114486:0:0:0:0:
192,192,114328,128,0,114486:0:0:0:0:
448,192,114643,128,0,114801:0:0:0:0:
320,192,114643,128,0,114801:0:0:0:0:
192,192,114959,128,0,115117:0:0:0:0:
64,192,114959,128,0,115117:0:0:0:0:
448,192,115117,128,0,115275:0:0:0:0:
320,192,115117,128,0,115275:0:0:0:0:
192,192,115433,128,0,115591:0:0:0:0:
64,192,115433,128,0,115591:0:0:0:0:
320,192,115749,128,0,115907:0:0:0:0:
192,192,115749,128,0,115907:0:0:0:0:
320,192,116065,1,0,0:0:0:0:
448,192,116065,1,0,0:0:0:0:
64,192,116222,1,0,0:0:0:0:
192,192,116222,1,0,0:0:0:0:
320,192,116538,128,0,116696:0:0:0:0:
64,192,116538,128,0,116696:0:0:0:0:
448,192,116538,128,0,116696:0:0:0:0:
448,192,116854,128,0,117012:0:0:0:0:
64,192,116854,128,0,117012:0:0:0:0:
192,192,116854,128,0,117012:0:0:0:0:
320,192,117170,1,0,0:0:0:0:
448,192,117170,1,0,0:0:0:0:
320,192,117328,1,0,0:0:0:0:
64,192,117486,1,0,0:0:0:0:
192,192,117486,1,0,0:0:0:0:
192,192,117643,1,0,0:0:0:0:
64,192,117801,128,0,117959:0:0:0:0:
320,192,117801,128,0,117959:0:0:0:0:
448,192,117801,128,0,117959:0:0:0:0:
448,192,118117,128,0,118275:0:0:0:0:
64,192,118117,128,0,118275:0:0:0:0:
192,192,118117,128,0,118275:0:0:0:0:
320,192,118433,1,0,0:0:0:0:
448,192,118433,1,0,0:0:0:0:
320,192,118591,1,0,0:0:0:0:
192,192,118749,1,0,0:0:0:0:
64,192,118749,1,0,0:0:0:0:
192,192,118907,1,0,0:0:0:0:
320,192,119065,128,0,119222:0:0:0:0:
448,192,119065,128,0,119222:0:0:0:0:
192,192,119380,128,0,119538:0:0:0:0:
320,192,119380,128,0,119538:0:0:0:0:
64,192,119696,128,0,119854:0:0:0:0:
192,192,119696,128,0,119854:0:0:0:0:
448,192,120012,128,0,120170:0:0:0:0:
320,192,120012,128,0,120170:0:0:0:0:
64,192,120170,128,0,120328:0:0:0:0:
192,192,120170,128,0,120328:0:0:0:0:
448,192,120486,128,0,120643:0:0:0:0:
64,192,120643,128,0,120801:0:0:0:0:
320,192,120801,128,0,120959:0:0:0:0:
192,192,120959,128,0,121117:0:0:0:0:
448,192,121117,128,0,121275:0:0:0:0:
64,192,121275,128,0,121591:0:0:0:0:
448,192,121591,1,0,0:0:0:0:
448,192,121907,128,0,122222:0:0:0:0:
64,192,121907,1,0,0:0:0:0:
64,192,122222,128,0,122538:0:0:0:0:
320,192,122222,1,0,0:0:0:0:
448,192,122538,128,0,122854:0:0:0:0:
192,192,122538,1,0,0:0:0:0:
192,192,122854,128,0,123170:0:0:0:0:
320,192,122854,1,0,0:0:0:0:
320,192,123170,128,0,123328:0:0:0:0:
64,192,123170,1,0,0:0:0:0:
448,192,123328,128,0,123643:0:0:0:0:
64,192,123486,1,0,0:0:0:0:
320,192,123643,128,0,123801:0:0:0:0:
192,192,123801,128,0,123959:0:0:0:0:
448,192,123801,1,0,0:0:0:0:
64,192,123959,128,0,124117:0:0:0:0:
320,192,124117,1,0,0:0:0:0:
192,192,124433,128,0,124749:0:0:0:0:
448,192,124433,1,0,0:0:0:0:
320,192,124749,128,0,125065:0:0:0:0:
64,192,124749,1,0,0:0:0:0:
448,192,125065,128,0,125380:0:0:0:0:
192,192,125065,1,0,0:0:0:0:
320,192,125380,128,0,125696:0:0:0:0:
64,192,125380,1,0,0:0:0:0:
192,192,125696,128,0,125854:0:0:0:0:
448,192,125696,1,0,0:0:0:0:
64,192,125854,128,0,126170:0:0:0:0:
320,192,126012,1,0,0:0:0:0:
448,192,126170,128,0,126643:0:0:0:0:
320,192,126249,1,0,0:0:0:0:
192,192,126328,1,0,0:0:0:0:
64,192,126486,1,0,0:0:0:0:
64,192,126643,1,0,0:0:0:0:
64,192,126959,128,0,127275:0:0:0:0:
448,192,126959,1,0,0:0:0:0:
192,192,127275,128,0,127591:0:0:0:0:
448,192,127275,1,0,0:0:0:0:
320,192,127591,128,0,127907:0:0:0:0:
64,192,127591,1,0,0:0:0:0:
448,192,127907,128,0,128222:0:0:0:0:
192,192,127907,1,0,0:0:0:0:
320,192,128222,128,0,128380:0:0:0:0:
64,192,128222,1,0,0:0:0:0:
192,192,128380,128,0,128696:0:0:0:0:
448,192,128538,1,0,0:0:0:0:
64,192,128696,128,0,128854:0:0:0:0:
192,192,128854,128,0,129012:0:0:0:0:
448,192,128854,1,0,0:0:0:0:
320,192,129012,128,0,129170:0:0:0:0:
448,192,129170,128,0,129328:0:0:0:0:
192,192,129170,1,0,0:0:0:0:
64,192,129328,128,0,129486:0:0:0:0:
448,192,129486,128,0,129643:0:0:0:0:
320,192,129486,1,0,0:0:0:0:
64,192,129643,128,0,129801:0:0:0:0:
320,192,129801,128,0,130117:0:0:0:0:
192,192,129801,1,0,0:0:0:0:
192,192,130117,128,0,130275:0:0:0:0:
448,192,130117,1,0,0:0:0:0:
320,192,130275,128,0,130591:0:0:0:0:
64,192,130433,1,0,0:0:0:0:
192,192,130591,128,0,130907:0:0:0:0:
320,192,130749,1,0,0:0:0:0:
448,192,130907,128,0,131222:0:0:0:0:
192,192,131065,1,0,0:0:0:0:
64,192,131222,128,0,131380:0:0:0:0:
192,192,131301,1,0,0:0:0:0:
320,192,131380,128,0,131696:0:0:0:0:
448,192,131380,1,0,0:0:0:0:
192,192,131538,1,0,0:0:0:0:
448,192,131696,128,0,133433:0:0:0:0:
64,192,131696,1,0,0:0:0:0:
64,192,132012,1,0,0:0:0:0:
192,192,132012,1,0,0:0:0:0:
64,192,132328,1,0,0:0:0:0:
64,192,132643,1,0,0:0:0:0:
192,192,132643,1,0,0:0:0:0:
64,192,132959,1,0,0:0:0:0:
64,192,133275,1,0,0:0:0:0:
192,192,133275,1,0,0:0:0:0:
64,192,133591,1,0,0:0:0:0:
192,192,133907,128,0,134222:0:0:0:0:
448,192,133907,1,0,0:0:0:0:
64,192,134222,128,0,136117:0:0:0:0:
448,192,134222,1,0,0:0:0:0:
448,192,134538,1,0,0:0:0:0:
320,192,134538,1,0,0:0:0:0:
448,192,134854,1,0,0:0:0:0:
448,192,135170,1,0,0:0:0:0:
320,192,135170,1,0,0:0:0:0:
448,192,135486,1,0,0:0:0:0:
448,192,135801,1,0,0:0:0:0:
320,192,135801,1,0,0:0:0:0:
448,192,136117,1,0,0:0:0:0:
64,192,136354,1,0,0:0:0:0:
448,192,136433,1,0,0:0:0:0:
320,192,136433,1,0,0:0:0:0:
192,192,136591,1,0,0:0:0:0:
64,192,136749,1,0,0:0:0:0:
448,192,136749,128,0,137065:0:0:0:0:
64,192,137065,128,0,137222:0:0:0:0:
320,192,137065,1,0,0:0:0:0:
448,192,137222,128,0,137380:0:0:0:0:
64,192,137380,128,0,137538:0:0:0:0:
192,192,137380,1,0,0:0:0:0:
320,192,137538,128,0,137696:0:0:0:0:
192,192,137696,128,0,137854:0:0:0:0:
448,192,137696,1,0,0:0:0:0:
320,192,137854,128,0,138012:0:0:0:0:
448,192,138012,128,0,138170:0:0:0:0:
64,192,138012,1,0,0:0:0:0:
320,192,138170,128,0,138328:0:0:0:0:
192,192,138328,128,0,138486:0:0:0:0:
448,192,138328,1,0,0:0:0:0:
64,192,138486,128,0,138643:0:0:0:0:
448,192,138643,1,0,0:0:0:0:
192,192,138801,128,0,138959:0:0:0:0:
320,192,138959,128,0,139275:0:0:0:0:
448,192,138959,1,0,0:0:0:0:
64,192,139275,1,0,0:0:0:0:
192,192,139275,1,0,0:0:0:0:
448,192,139433,1,0,0:0:0:0:
192,192,139591,1,0,0:0:0:0:
320,192,139591,1,0,0:0:0:0:
64,192,139749,1,0,0:0:0:0:
320,192,139907,1,0,0:0:0:0:
448,192,139907,1,0,0:0:0:0:
64,192,140065,1,0,0:0:0:0:
192,192,140222,1,0,0:0:0:0:
320,192,140222,1,0,0:0:0:0:
448,192,140380,1,0,0:0:0:0:
64,192,140538,1,0,0:0:0:0:
192,192,140538,1,0,0:0:0:0:
448,192,140696,1,0,0:0:0:0:
320,192,140696,1,0,0:0:0:0:
448,192,140854,1,0,0:0:0:0:
320,192,140854,1,0,0:0:0:0:
192,192,141012,1,0,0:0:0:0:
64,192,141012,1,0,0:0:0:0:
448,192,141170,1,0,0:0:0:0:
320,192,141170,1,0,0:0:0:0:
320,192,141328,1,0,0:0:0:0:
448,192,141328,1,0,0:0:0:0:
64,192,141486,1,0,0:0:0:0:
192,192,141565,1,0,0:0:0:0:
64,192,141643,1,0,0:0:0:0:
192,192,141722,1,0,0:0:0:0:
448,192,141801,1,0,0:0:0:0:
64,192,141959,1,0,0:0:0:0:
448,192,142117,1,0,0:0:0:0:
64,192,142275,1,0,0:0:0:0:
448,192,142433,1,0,0:0:0:0:
64,192,142591,1,0,0:0:0:0:
448,192,142749,1,0,0:0:0:0:
64,192,142907,1,0,0:0:0:0:
192,192,143065,1,0,0:0:0:0:
320,192,143222,1,0,0:0:0:0:
192,192,143380,1,0,0:0:0:0:
320,192,143538,1,0,0:0:0:0:
192,192,143696,1,0,0:0:0:0:
320,192,143854,1,0,0:0:0:0:
192,192,144012,1,0,0:0:0:0:
320,192,144170,1,0,0:0:0:0:
64,192,144328,1,0,0:0:0:0:
192,192,144486,1,0,0:0:0:0:
64,192,144643,1,0,0:0:0:0:
192,192,144801,1,0,0:0:0:0:
64,192,144959,1,0,0:0:0:0:
192,192,145117,1,0,0:0:0:0:
64,192,145275,1,0,0:0:0:0:
192,192,145433,1,0,0:0:0:0:
448,192,145591,1,0,0:0:0:0:
320,192,145749,1,0,0:0:0:0:
448,192,145907,1,0,0:0:0:0:
320,192,146065,1,0,0:0:0:0:
448,192,146222,1,0,0:0:0:0:
320,192,146380,1,0,0:0:0:0:
448,192,146538,1,0,0:0:0:0:
64,192,146696,1,0,0:0:0:0:
64,192,146854,1,0,0:0:0:0:
448,192,147012,1,0,0:0:0:0:
64,192,147170,1,0,0:0:0:0:
448,192,147328,1,0,0:0:0:0:
64,192,147486,1,0,0:0:0:0:
448,192,147643,1,0,0:0:0:0:
64,192,147801,1,0,0:0:0:0:
448,192,147959,1,0,0:0:0:0:
192,192,148117,1,0,0:0:0:0:
448,192,148275,1,0,0:0:0:0:
192,192,148433,1,0,0:0:0:0:
448,192,148591,1,0,0:0:0:0:
192,192,148749,1,0,0:0:0:0:
448,192,148907,1,0,0:0:0:0:
192,192,149065,1,0,0:0:0:0:
448,192,149222,1,0,0:0:0:0:
64,192,149380,1,0,0:0:0:0:
320,192,149538,1,0,0:0:0:0:
64,192,149696,1,0,0:0:0:0:
320,192,149854,1,0,0:0:0:0:
64,192,150012,1,0,0:0:0:0:
320,192,150170,1,0,0:0:0:0:
64,192,150328,1,0,0:0:0:0:
320,192,150486,1,0,0:0:0:0:
64,192,150643,1,0,0:0:0:0:
192,192,150801,1,0,0:0:0:0:
64,192,150959,1,0,0:0:0:0:
192,192,151117,1,0,0:0:0:0:
64,192,151275,1,0,0:0:0:0:
192,192,151433,1,0,0:0:0:0:
64,192,151591,1,0,0:0:0:0:
192,192,151749,1,0,0:0:0:0:
