osu file format v14

[General]
AudioFilename: Jin Ft Maria From Garnidelia - Daze.mp3
AudioLeadIn: 1500
PreviewTime: 25991
Countdown: 0
SampleSet: Soft
StackLeniency: 0.5
Mode: 0
LetterboxInBreaks: 0
WidescreenStoryboard: 0

[Editor]
Bookmarks: 13643,14855,16067,35461,35688,53643,103340,122734,151825,172431,201522,206370,216067,223340
DistanceSpacing: 1.2
BeatDivisor: 4
GridSize: 4
TimelineZoom: 2

[Metadata]
Title:daze
TitleUnicode:daze
Artist:Jin ft.MARiA from GARNiDELiA
ArtistUnicode:じん ft.メイリア from GARNiDELiA
Creator:deetz
Version:Hard
Source:メカクシティアクターズ
Tags:
BeatmapID:688867
BeatmapSetID:306746

[Difficulty]
HPDrainRate:5
CircleSize:4
OverallDifficulty:6
ApproachRate:8
SliderMultiplier:1.4
SliderTickRate:1

[Events]
//Background and Video events
0,0,"Konachan.com - 184533 amamiya_hibiya kagerou_project kano_shuuya kido_tsubomi kisaragi_momo kisaragi_shintaro kozakura_mary nano_nanora red_eyes seto_kousuke.jpg",0,0
//Break Periods
2,74249,76832
2,172431,180014
//Storyboard Layer 0 (Background)
//Storyboard Layer 1 (Fail)
//Storyboard Layer 2 (Pass)
//Storyboard Layer 3 (Foreground)
//Storyboard Sound Samples

[TimingPoints]
310,303.030303030303,4,2,0,60,1,0
310,-100,4,2,4,60,0,0
15158,-100,4,1,4,60,0,0
16219,-100,4,2,4,60,0,0
37885,-100,4,1,4,60,0,0
45158,-100,4,2,4,60,0,0
47582,-100,4,1,4,60,0,0
54855,-90.9090909090909,4,1,4,70,0,1
72885,-100,4,1,4,60,0,0
73188,-100,4,2,4,60,0,0
77734,-100,4,2,4,50,0,0
83491,-100,4,2,4,60,0,0
83946,-133.333333333333,4,2,4,60,0,0
87734,-100,4,2,4,60,0,0
105764,-100,4,1,4,60,0,0
113340,-100,4,2,4,60,0,0
115461,-100,4,1,4,60,0,0
122734,-90.9090909090909,4,1,4,70,0,1
142128,-100,4,1,4,60,0,0
170082,-100,4,2,4,40,0,0
171067,-100,4,2,4,5,0,0
180764,-83.3333333333333,4,2,4,60,0,0
181673,-83.3333333333333,4,1,4,60,0,0
182128,-90.9090909090909,4,1,4,70,0,1
206370,-90.9090909090909,4,1,4,70,0,0
216067,-100,4,1,4,70,0,0
230006,-100,4,2,4,5,0,0

[Colours]
Combo1 : 193,0,193
Combo2 : 228,5,5
Combo3 : 9,145,225
Combo4 : 199,163,18
Combo5 : 0,121,0

[HitObjects]
196,160,310,6,0,B|172:160|149:147|149:147|114:154|114:154|88:136|45:136,2,140,2|2|2,0:0|0:0|0:0,0:0:0:0:
244,228,1067,6,0,L|236:292,3,35,8|0|8|0,0:0|0:0|0:0|0:0,0:0:0:0:
272,288,1370,2,0,L|288:132,1,140,4|0,0:0|0:0,0:0:0:0:
368,120,1825,2,0,P|360:160|384:208,1,70,8|0,0:0|0:0,0:0:0:0:
416,256,2128,2,0,L|488:264,2,70,0|8|8,0:0|0:0|0:0,0:0:0:0:
356,316,2582,6,0,P|328:360|224:360,1,140,4|0,0:0|0:0,0:0:0:0:
196,304,3037,2,0,L|108:292,1,70,8|0,0:0|0:0,0:0:0:0:
84,224,3340,2,0,L|172:212,1,70,8|0,0:3|0:0,0:0:0:0:
220,160,3643,1,0,0:0:0:0:
272,228,3794,6,0,P|316:248|404:220,1,140,4|0,0:0|0:0,0:0:0:0:
480,196,4249,2,0,L|476:272,1,70,8|8,0:3|0:0,0:0:0:0:
412,144,4552,2,0,L|408:68,1,70,0|8,0:0|0:0,0:0:0:0:
380,52,4779,1,8,0:0:0:0:
380,52,4855,1,8,0:0:0:0:
296,60,5006,6,0,P|256:96|164:92,2,140,4|8|8,0:0|0:0|0:3,0:0:0:0:
344,128,5764,2,0,L|356:220,1,70,8|8,0:0|0:0,0:0:0:0:
353,197,6219,6,0,B|288:220|288:220|212:204,1,140,4|0,0:0|0:0,0:0:0:0:
172,136,6673,1,8,0:0:0:0:
172,136,6825,1,8,0:0:0:0:
96,176,6976,2,0,L|108:268,1,70,0|0,0:0|0:0,0:0:0:0:
60,316,7279,1,8,0:0:0:0:
60,316,7431,1,0,0:0:0:0:
144,324,7582,6,0,L|224:336,1,70,0|0,0:0|0:0,0:0:0:0:
216,252,7885,2,0,L|296:240,1,70,8|8,0:0|0:0,0:0:0:0:
336,308,8188,2,0,L|416:320,1,70,0|0,0:0|0:0,0:0:0:0:
472,268,8491,1,8,0:0:0:0:
444,188,8643,6,0,P|416:168|400:60,1,140,4|0,0:0|0:0,0:0:0:0:
320,32,9097,1,8,0:0:0:0:
320,32,9249,1,8,0:0:0:0:
268,96,9400,2,0,L|180:84,1,70,0|0,0:0|0:0,0:0:0:0:
136,144,9703,1,8,0:0:0:0:
136,144,9855,1,0,0:0:0:0:
92,216,10006,6,0,L|104:292,1,70,0|0,0:0|0:0,0:0:0:0:
168,336,10309,2,0,P|196:316|256:320,1,70,8|8,0:0|0:0,0:0:0:0:
296,368,10613,2,0,L|372:344,1,70,0|0,0:0|0:0,0:0:0:0:
368,312,10840,1,0,0:0:0:0:
368,312,10916,1,0,0:0:0:0:
320,244,11067,6,0,P|288:212|316:104,1,140,4|0,0:0|0:0,0:0:0:0:
372,88,11522,1,8,0:0:0:0:
372,88,11673,1,8,0:0:0:0:
316,24,11825,2,0,L|224:40,1,70,0|0,0:0|0:0,0:0:0:0:
180,84,12128,1,8,0:0:0:0:
180,84,12279,1,0,0:0:0:0:
100,56,12431,6,0,P|100:120|124:144,1,70,0|0,0:0|0:0,0:0:0:0:
172,168,12734,2,0,P|180:201|170:234,1,70,8|8,0:0|0:0,0:0:0:0:
136,312,13037,2,0,L|216:320,1,70,0|0,0:0|0:0,0:0:0:0:
260,256,13340,1,8,0:0:0:0:
340,280,13491,6,0,P|368:328|416:276,1,140,4|0,0:0|0:0,0:0:0:0:
380,208,13946,2,0,L|304:192,1,70,8|8,0:0|0:3,0:0:0:0:
284,116,14249,2,0,P|240:140|192:140,1,70,8|0,0:3|0:0,0:0:0:0:
204,224,14552,2,0,P|160:200|112:200,1,70,8|0,0:3|0:0,0:0:0:0:
56,200,14855,5,12,0:0:0:0:
56,200,15158,2,0,B|56:244|32:280|32:280|92:264|136:288|152:299,1,210,8|8,0:0|0:0,0:0:0:0:
204,364,15764,1,8,0:0:0:0:
280,328,15916,6,0,P|260:256|280:164,1,140,4|0,0:0|1:0,0:0:0:0:
252,108,16370,2,0,P|300:116|400:76,1,140,8|0,0:0|1:0,0:0:0:0:
468,72,16825,1,0,1:0:0:0:
448,152,16976,2,0,L|472:236,1,70,8|0,0:0|1:0,0:0:0:0:
464,304,17279,6,0,P|416:284|372:300,1,70,0|0,0:0|1:0,0:0:0:0:
328,328,17582,1,8,0:0:0:0:
252,292,17734,2,0,B|219:305|219:305|163:301,2,70,0|0|0,0:0|1:0|1:0,0:0:0:0:
320,240,18188,1,8,0:0:0:0:
244,204,18340,6,0,L|92:192,1,140,0|0,1:0|1:0,0:0:0:0:
24,168,18794,1,8,0:0:0:0:
80,104,18946,2,0,L|232:92,1,140,0|0,0:0|1:0,0:0:0:0:
300,68,19400,1,8,0:0:0:0:
352,132,19552,6,0,P|352:188|412:256,1,140,0|0,1:0|1:0,0:0:0:0:
388,336,20006,2,0,L|312:316,1,70,8|0,0:0|0:0,0:0:0:0:
256,264,20310,1,0,1:0:0:0:
256,264,20461,1,0,1:0:0:0:
192,320,20613,1,8,0:0:0:0:
176,240,20764,6,0,P|196:192|160:96,1,140,4|0,1:0|1:0,0:0:0:0:
108,160,21219,2,0,L|260:144,1,140,8|0,0:0|1:0,0:0:0:0:
320,100,21673,1,0,1:0:0:0:
392,144,21825,2,0,L|384:240,1,70,8|0,0:0|1:0,0:0:0:0:
444,276,22128,5,0,0:0:0:0:
444,276,22279,1,0,1:0:0:0:
428,360,22431,2,0,L|358:354,1,70,8|0,0:0|0:0,0:0:0:0:
344,272,22734,1,0,1:0:0:0:
276,320,22885,1,0,1:0:0:0:
204,280,23037,1,8,0:0:0:0:
128,312,23188,6,0,L|100:148,1,140,0|0,1:0|1:0,0:0:0:0:
112,92,23643,1,8,0:0:0:0:
196,80,23794,2,0,L|224:244,1,140,0|0,0:0|1:0,0:0:0:0:
252,296,24249,1,8,0:0:0:0:
312,240,24400,2,0,P|352:276|444:268,1,140,0|0,1:0|1:0,0:0:0:0:
492,212,24855,6,0,L|516:296,1,70,8|0,0:0|1:0,0:0:0:0:
460,348,25158,1,8,0:0:0:0:
460,348,25310,1,0,1:0:0:0:
376,356,25461,1,0,1:0:0:0:
296,328,25613,2,0,P|248:284|216:192,1,140,4|0,1:0|1:0,0:0:0:0:
140,184,26067,6,0,B|96:200|96:200|60:192|60:192|-8:220,2,140,8|0|8,0:0|1:0|0:0,0:0:0:0:
176,108,26825,1,0,1:0:0:0:
252,140,26976,2,0,L|336:128,1,70,0|0,0:0|1:0,0:0:0:0:
396,168,27279,1,8,0:0:0:0:
408,252,27431,2,0,P|356:244|336:224,1,70,0|0,0:0|0:0,0:0:0:0:
276,284,27734,2,0,L|200:300,1,70,0|8,1:0|0:0,0:0:0:0:
124,320,28037,6,0,P|104:280|128:172,1,140,0|0,1:0|1:0,0:0:0:0:
168,124,28491,1,8,0:0:0:0:
224,188,28643,2,0,L|388:164,1,140,0|0,0:0|1:0,0:0:0:0:
436,204,29097,1,8,0:0:0:0:
420,288,29249,6,0,P|400:344|348:292,1,140,0|0,1:0|1:0,0:0:0:0:
356,228,29703,1,8,0:0:0:0:
376,144,29855,2,0,L|224:124,1,140,0|0,0:0|1:0,0:0:0:0:
156,144,30310,1,8,0:0:0:0:
148,227,30461,2,0,L|287:208,1,140,4|0,1:0|1:0,0:0:0:0:
357,162,30916,6,0,B|369:206|369:206|365:250|365:250|385:310,2,140,8|0|8,0:0|1:0|0:0,0:0:0:0:
286,208,31673,1,0,1:0:0:0:
292,292,31825,6,0,L|274:372,1,70,0|0,0:0|1:0,0:0:0:0:
192,355,32128,1,8,0:0:0:0:
188,272,32279,2,0,B|152:272|124:256|112:220|112:220|95:236|68:244,1,140,0|0,0:0|1:0,0:0:0:0:
56,160,32734,1,8,0:0:0:0:
84,80,32885,6,0,B|101:84|118:100|118:100|130:64|158:48|194:48,1,140,0|0,1:0|1:0,0:0:0:0:
260,104,33340,1,8,0:0:0:0:
308,172,33491,2,0,P|272:208|204:156,1,140,0|0,1:0|1:0,0:0:0:0:
260,104,33946,1,8,0:0:0:0:
344,96,34097,6,0,P|380:128|376:224,1,140,4|8,1:0|0:0,0:0:0:0:
420,292,34552,2,0,L|332:312,1,70,8|0,0:3|0:0,0:0:0:0:
284,260,34855,2,0,L|292:196,3,35,8|0|0|0,0:3|0:0|0:0|1:0,0:0:0:0:
268,188,35158,2,0,B|236:200|236:200|192:196,1,70,0|0,1:0|0:0,0:0:0:0:
152,128,35461,6,0,L|140:56,1,70,0|0,1:0|0:0,0:0:0:0:
228,112,35764,2,0,L|216:40,1,70,0|0,1:0|0:0,0:0:0:0:
304,96,36067,2,0,L|292:24,2,70,0|0|0,1:0|0:0|0:0,0:0:0:0:
368,10,36522,6,0,L|395:175,1,140,0|0,1:0|1:0,0:0:0:0:
360,228,36976,2,0,L|288:216,1,70,0|0,0:0|1:0,0:0:0:0:
328,308,37279,2,0,L|256:296,1,70,0|0,1:0|0:0,0:0:0:0:
228,304,37506,1,0,0:0:0:0:
192,300,37582,2,0,L|216:200,1,70,8|8,1:0|0:0,0:0:0:0:
232,152,37885,6,0,P|248:88|188:32,1,140,4|8,0:0|0:0,0:0:0:0:
120,56,38340,2,0,P|104:120|164:176,1,140,0|0,0:0|0:0,0:0:0:0:
208,232,38794,1,8,0:0:0:0:
292,232,38946,6,0,B|360:216|360:216|432:232,1,140,4|0,0:0|0:0,0:0:0:0:
472,304,39400,2,0,P|416:312|392:304,1,70,8|8,0:0|0:3,0:0:0:0:
344,364,39703,2,0,L|252:328,1,70,0|4,0:0|0:3,0:0:0:0:
196,316,40006,1,8,0:0:0:0:
196,316,40158,1,0,0:0:0:0:
144,248,40309,6,0,L|64:224,1,70,4|0,0:0|0:0,0:0:0:0:
76,312,40613,1,8,0:0:0:0:
156,328,40764,2,0,P|212:300|220:212,1,140,0|0,0:0|0:0,0:0:0:0:
172,164,41219,1,8,0:0:0:0:
164,80,41370,6,0,L|328:60,1,140,4|0,0:0|0:0,0:0:0:0:
388,76,41825,1,8,0:0:0:0:
416,156,41976,2,0,L|252:136,1,140,0|0,0:0|0:0,0:0:0:0:
192,152,42431,1,8,0:0:0:0:
168,232,42582,6,0,L|332:212,1,140,4|0,0:0|0:0,0:0:0:0:
392,228,43037,1,8,0:0:0:0:
420,308,43188,2,0,L|256:288,1,140,0|0,0:0|0:0,0:0:0:0:
196,304,43643,1,8,0:0:0:0:
132,252,43794,6,0,P|88:268|128:336,1,140,4|0,0:0|0:0,0:0:0:0:
196,304,44249,2,0,L|280:288,1,70,8|0,0:0|0:0,0:0:0:0:
336,248,44552,2,0,L|352:300,3,35,8|0|0|0,0:3|0:0|0:0|0:0,0:0:0:0:
360,320,44855,2,0,B|392:300|392:300|448:304,1,70,8|0,0:0|2:0,0:0:0:0:
484,244,45158,6,0,L|496:160,1,70,0|0,1:0|0:0,0:0:0:0:
408,224,45461,2,0,L|420:140,1,70,0|0,1:0|0:0,0:0:0:0:
332,204,45764,2,0,L|344:120,2,70,0|8|4,1:0|0:3|0:3,0:0:0:0:
252,248,46219,2,0,L|272:80,1,140,0|0,1:0|1:0,0:0:0:0:
324,48,46673,2,0,L|400:56,1,70,0|0,0:0|1:0,0:0:0:0:
436,128,46976,2,0,L|356:140,1,70,0|0,1:0|0:0,0:0:0:0:
348,168,47203,1,0,1:0:0:0:
352,204,47279,2,0,B|368:236|368:236|364:276,1,70,0|0,1:0|0:0,0:0:0:0:
300,324,47582,6,0,P|244:292|156:328,1,140,4|8,0:0|0:0,0:0:0:0:
96,336,48037,2,0,L|112:192,1,140,0|0,0:0|0:0,0:0:0:0:
192,180,48491,1,8,0:0:0:0:
276,160,48643,2,0,B|297:165|324:152|324:152|352:168|352:168|376:152|420:156,1,140,4|0,0:0|0:0,0:0:0:0:
488,180,49097,2,0,L|472:268,1,70,0|0,0:0|0:0,0:0:0:0:
412,304,49400,6,0,L|280:312,2,105,0|0|0,0:0|0:0|0:0,0:0:0:0:
475,248,50006,6,0,L|488:180,1,70,4|0,0:0|0:0,0:0:0:0:
408,156,50309,2,0,L|392:84,1,70,12|0,0:2|0:0,0:0:0:0:
312,64,50613,1,0,0:0:0:0:
240,108,50764,1,0,0:0:0:0:
160,80,50916,1,8,0:0:0:0:
88,124,51067,6,0,L|96:280,1,140
160,320,51522,1,8,0:0:0:0:
160,320,51673,1,0,0:0:0:0:
220,264,51825,2,0,P|256:260|304:268,1,70
340,332,52128,2,0,P|376:336|424:328,1,70,8|0,0:0|0:0,0:0:0:0:
476,284,52431,6,0,P|488:192|448:128,1,140,8|8,0:0|0:3,0:0:0:0:
392,184,52885,2,0,L|224:168,1,140,8|8,0:0|0:3,0:0:0:0:
224,252,53340,2,0,L|300:252,1,70,8|8,0:0|0:3,0:0:0:0:
340,324,53643,6,0,L|416:336,1,70,4|4,0:3|0:3,0:0:0:0:
260,360,53946,2,0,L|184:372,1,70,4|4,0:3|0:3,0:0:0:0:
80,244,54400,5,0,0:0:0:0:
80,244,54476,1,0,0:0:0:0:
80,244,54552,2,0,L|84:156,1,70,4|0,0:0|0:0,0:0:0:0:
172,196,54855,6,0,B|204:204|224:180|224:180|264:196|264:196|292:192|328:168,1,154.000004699707,4|8,0:0|0:0,0:0:0:0:
404,164,55309,1,0,0:0:0:0:
452,244,55461,2,0,L|440:336,1,77.0000023498536,0|0,0:0|0:0,0:0:0:0:
360,360,55764,2,0,L|348:268,1,77.0000023498536,8|0,0:0|0:0,0:0:0:0:
260,260,56067,6,0,L|248:352,1,77.0000023498536
168,376,56370,1,8,0:0:0:0:
168,376,56522,2,0,L|144:196,1,154.000004699707,0|0,0:0|0:0,0:0:0:0:
96,148,56976,2,0,L|180:136,1,77.0000023498536,8|0,0:0|0:0,0:0:0:0:
236,204,57279,6,0,B|352:168|352:168|312:220,1,154.000004699707,4|8,0:0|0:0,0:0:0:0:
300,108,57734,1,0,0:0:0:0:
392,108,57885,2,0,P|416:136|420:184,1,77.0000023498536,0|0,0:0|0:0,0:0:0:0:
480,248,58188,2,0,L|400:264,1,77.0000023498536,8|0,0:0|0:0,0:0:0:0:
344,332,58491,6,0,L|264:316,1,77.0000023498536
176,336,58794,1,8,0:0:0:0:
176,336,58946,2,0,P|192:268|144:184,1,154.000004699707,0|0,0:0|0:0,0:0:0:0:
100,124,59400,2,0,L|180:108,1,77.0000023498536,8|0,0:0|0:0,0:0:0:0:
248,52,59703,6,0,B|328:44|328:44|408:64,1,154.000004699707,4|8,0:0|0:0,0:0:0:0:
460,132,60158,2,0,B|380:140|380:140|300:120,1,154.000004699707,0|0,0:0|0:0,0:0:0:0:
248,52,60613,1,8,0:0:0:0:
156,72,60764,6,0,L|172:168,1,77.0000023498536
140,236,61067,1,0,0:0:0:0:
232,220,61219,1,8,0:0:0:0:
248,312,61370,2,0,L|428:284,1,154.000004699707,0|0,0:0|0:0,0:0:0:0:
476,232,61825,2,0,L|460:140,1,77.0000023498536,8|0,0:0|0:0,0:0:0:0:
372,144,62128,6,0,L|208:136,1,154.000004699707,0|8,0:0|0:0,0:0:0:0:
128,132,62582,2,0,P|100:180|188:196,1,154.000004699707,0|0,0:0|0:0,0:0:0:0:
218,136,63037,1,8,0:0:0:0:
296,84,63188,6,0,L|296:168,1,77.0000023498536
352,236,63491,2,0,L|396:240,2,38.5000011749268,8|8|0,0:0|0:0|0:0,0:0:0:0:
264,268,63794,2,0,L|220:272,2,38.5000011749268,8|8|0,0:0|0:0|0:0,0:0:0:0:
340,320,64097,2,0,L|384:324,2,38.5000011749268,8|8|0,0:0|0:0|0:0,0:0:0:0:
252,352,64400,1,8,0:0:0:0:
252,352,64476,1,8,0:0:0:0:
252,352,64552,6,0,L|88:344,1,154.000004699707,4|8,0:0|0:0,0:0:0:0:
112,252,65006,1,0,0:0:0:0:
128,160,65158,2,0,L|144:68,1,77.0000023498536,0|0,0:0|0:0,0:0:0:0:
220,36,65461,2,0,L|236:128,1,77.0000023498536,8|0,0:0|0:0,0:0:0:0:
212,200,65764,6,0,L|304:192,1,77.0000023498536
384,220,66067,1,8,0:0:0:0:
384,220,66219,2,0,P|380:288|304:260,1,154.000004699707,0|0,0:0|0:0,0:0:0:0:
220,292,66673,6,0,L|140:312,1,77.0000023498536,0|0,0:0|0:0,0:0:0:0:
136,220,66976,2,0,P|140:160|232:124,1,154.000004699707,4|12,0:0|0:2,0:0:0:0:
280,188,67431,1,0,0:0:0:0:
368,164,67582,2,0,L|456:172,1,77.0000023498536,0|0,0:0|0:0,0:0:0:0:
488,252,67885,2,0,L|400:260,1,77.0000023498536,8|0,0:0|0:0,0:0:0:0:
327,300,68188,6,0,P|291:280|227:292,1,77.0000023498536
164,296,68491,1,8,0:0:0:0:
164,296,68643,2,0,L|184:124,1,154.000004699707,0|0,0:0|0:0,0:0:0:0:
248,76,69097,1,8,0:0:0:0:
248,76,69249,1,0,0:0:0:0:
292,156,69400,6,0,B|328:184|328:184|460:160,1,154.000004699707,4|8,0:0|0:0,0:0:0:0:
488,240,69855,2,0,B|440:248|440:248|412:280|412:280|328:296,1,154.000004699707,0|0,0:0|0:0,0:0:0:0:
272,244,70309,1,8,0:0:0:0:
272,244,70461,1,0,0:0:0:0:
180,256,70613,6,0,B|152:200|152:200|152:104,1,154.000004699707,4|8,0:0|0:0,0:0:0:0:
76,56,71067,2,0,B|76:120|76:120|56:164|56:164|56:240,1,154.000004699707,0|0,0:0|0:0,0:0:0:0:
104,284,71522,2,0,L|88:364,1,77.0000023498536,8|0,0:3|0:0,0:0:0:0:
180,336,71825,6,0,P|228:356|312:300,1,154.000004699707,12|0,0:0|0:0,0:0:0:0:
400,316,72279,2,0,L|368:152,1,154.000004699707,8|0,0:0|0:0,0:0:0:0:
344,76,72734,1,12,0:0:0:0:
256,100,72885,5,12,0:0:0:0:
124,240,77582,5,0,0:0:0:0:
124,240,77734,2,0,B|92:336|92:336|148:312,1,140,8|8,0:0|0:3,0:0:0:0:
208,256,78188,1,0,0:0:0:0:
208,256,78340,2,0,P|208:200|124:160,1,140,8|0,0:3|1:0,0:0:0:0:
60,176,78794,2,0,L|68:104,1,70,2|0,1:3|0:0,0:0:0:0:
132,52,79097,5,4,0:0:0:0:
212,76,79249,2,0,L|292:52,2,70,0|8|0,0:0|0:0|0:0,0:0:0:0:
184,156,79703,2,0,P|240:168|272:200,1,70,0|0,0:0|1:0,0:0:0:0:
252,260,80006,1,0,0:0:0:0:
328,300,80158,6,0,B|472:260,1,140,8|0,0:0|1:0,0:0:0:0:
472,180,80613,1,8,0:0:0:0:
472,180,80764,2,0,P|420:192|372:112,1,140,0|0,0:0|1:0,0:0:0:0:
332,56,81219,2,0,L|252:96,1,70,8|0,0:0|0:0,0:0:0:0:
216,152,81522,5,2,1:3:0:0:
152,204,81673,2,0,L|76:192,2,70,0|8|0,0:0|0:0|0:0,0:0:0:0:
196,276,82128,2,0,P|240:256|280:256,1,70,0|0,0:0|1:0,0:0:0:0:
336,292,82431,1,0,0:0:0:0:
412,256,82582,6,0,L|420:108,1,140,10|10,0:0|0:0,0:0:0:0:
256,88,83188,1,8,0:0:0:0:
92,116,83491,2,0,L|100:256,1,140,2|8,1:3|0:3,0:0:0:0:
108,340,83946,6,0,B|168:340|168:340|192:328|192:328|216:340|216:340|236:256|304:236|384:248|408:336,1,367.500014019013,8|8,0:0|0:0,0:0:0:0:
408,336,86219,6,0,L|384:116,2,210.000008010865,8|8|8,0:0|0:0|0:0,0:0:0:0:
412,360,87734,5,0,0:0:0:0:
340,316,87885,2,0,P|288:308|252:316,1,70,8|8,0:3|0:3,0:0:0:0:
192,340,88188,2,0,L|112:324,2,70,8|8|8,0:3|0:3|0:0,0:0:0:0:
208,256,88643,2,0,L|224:100,1,140,4|0,1:0|1:0,0:0:0:0:
296,160,89097,6,0,P|332:180|432:132,1,140,8|0,0:0|1:0,0:0:0:0:
496,184,89552,1,0,0:0:0:0:
492,268,89703,2,0,L|396:256,1,70,8|0,0:0|1:0,0:0:0:0:
367,323,90006,2,0,P|315:315|288:322,1,70,0|0,0:0|1:0,0:0:0:0:
226,274,90309,1,8,0:0:0:0:
168,335,90461,2,0,P|145:301|177:206,1,140,0|0,0:0|1:0,0:0:0:0:
250,187,90916,1,8,0:0:0:0:
250,270,91067,6,0,L|92:268,1,140,0|0,1:0|1:0,0:0:0:0:
68,194,91522,1,8,0:0:0:0:
149,173,91673,2,0,P|209:149|243:69,1,140,0|0,0:0|1:0,0:0:0:0:
319,49,92128,1,8,0:0:0:0:
396,79,92279,2,0,L|383:233,1,140,0|0,1:0|1:0,0:0:0:0:
423,292,92734,2,0,L|498:295,1,70,8|0,0:0|1:0,0:0:0:0:
464,374,93037,2,0,L|389:366,1,70,0|8,1:0|0:3,0:0:0:0:
337,304,93340,1,8,0:3:0:0:
288,235,93491,2,0,B|246:229|246:229|190:241|190:241|141:233,1,140,4|0,1:0|0:0,0:0:0:0:
139,150,93946,6,0,B|178:156|178:156|234:144|234:144|276:150,2,140,8|0|8,0:0|1:0|0:0,0:0:0:0:
82,88,94703,1,0,1:0:0:0:
34,157,94855,6,0,P|50:205|50:238,1,70,0|0,0:0|1:0,0:0:0:0:
130,253,95158,1,8,0:0:0:0:
192,312,95309,2,0,L|284:284,1,70,0|0,0:0|0:0,0:0:0:0:
332,332,95613,1,2,0:0:0:0:
332,332,95764,1,8,0:0:0:0:
404,292,95916,6,0,P|420:240|392:140,1,140,0|0,1:0|1:0,0:0:0:0:
328,116,96370,1,8,0:0:0:0:
308,196,96522,2,0,L|160:176,1,140,0|2,0:0|0:0,0:0:0:0:
120,112,96976,1,8,0:0:0:0:
72,184,97128,6,0,L|52:332,1,140,0|0,1:0|0:0,0:0:0:0:
136,308,97582,2,0,P|192:304|224:312,1,70,8|8,0:0|0:3,0:0:0:0:
220,316,97809,1,0,0:0:0:0:
236,324,97885,2,0,L|312:328,2,70,8|0|8,0:3|1:0|0:0,0:0:0:0:
252,240,98340,2,0,L|412:220,1,140,4|0,1:0|0:0,0:0:0:0:
464,180,98794,6,0,P|432:136|460:52,2,140,8|0|8,0:0|1:0|0:0,0:0:0:0:
472,264,99552,1,0,1:0:0:0:
428,336,99703,6,0,L|344:320,1,70
320,248,100006,1,8,0:0:0:0:
252,296,100158,2,0,L|168:312,2,70,0|0|2,0:0|0:0|0:0,0:0:0:0:
320,248,100613,1,8,0:0:0:0:
344,168,100764,6,0,L|184:140,1,140,4|0,1:0|0:0,0:0:0:0:
148,84,101219,1,8,0:0:0:0:
68,112,101370,2,0,P|88:148|80:260,1,140,4|0,1:0|0:0,0:0:0:0:
32,308,101825,1,8,0:0:0:0:
116,320,101976,6,0,B|184:296|184:296|276:304,1,140,4|0,1:0|0:0,0:0:0:0:
324,348,102431,2,0,B|352:324|352:324|364:284,1,70,0|0,1:0|0:0,0:0:0:0:
316,220,102734,2,0,L|360:208,3,35,0|0|0|0,1:0|1:0|1:0|1:0,0:0:0:0:
392,216,103037,2,0,L|408:136,1,70,8|0,1:0|0:0,0:0:0:0:
336,100,103340,6,0,L|248:80,1,70,0|0,1:0|0:0,0:0:0:0:
232,160,103643,2,0,L|165:98,1,70,0|0,1:0|0:0,0:0:0:0:
112,164,103946,2,0,L|85:77,2,70,0|0|0,1:0|0:0|0:0,0:0:0:0:
172,220,104400,6,0,P|216:256|232:348,1,140,0|0,1:0|1:0,0:0:0:0:
304,384,104855,2,0,L|392:360,1,70,0|0,0:0|1:0,0:0:0:0:
428,300,105158,2,0,L|340:276,1,70,8|8,1:3|0:3,0:0:0:0:
348,248,105385,1,0,0:0:0:0:
360,216,105461,2,0,L|388:136,1,70,8|8,1:3|0:3,0:0:0:0:
343,75,105764,6,0,P|290:110|213:89,1,140,4|8,0:0|0:0,0:0:0:0:
136,111,106219,2,0,L|154:275,1,140,0|0,0:0|0:0,0:0:0:0:
104,319,106673,1,8,0:0:0:0:
179,357,106825,6,0,B|211:350|225:331|225:331|253:345|285:337|309:321,1,140,4|0,0:0|0:0,0:0:0:0:
367,265,107279,2,0,L|396:342,1,70,8|0,0:0|0:0,0:0:0:0:
475,334,107582,1,0,0:0:0:0:
475,334,107734,1,0,0:0:0:0:
446,255,107885,1,8,0:0:0:0:
446,255,108037,1,0,0:0:0:0:
394,189,108188,6,0,L|328:160,1,70,4|0,0:0|0:0,0:0:0:0:
245,160,108491,1,8,0:0:0:0:
222,241,108643,2,0,P|236:288|176:364,1,140,0|0,0:0|0:0,0:0:0:0:
153,283,109097,1,8,0:0:0:0:
84,327,109249,6,0,P|70:280|130:204,1,140,4|0,0:0|0:0,0:0:0:0:
188,164,109703,1,8,0:0:0:0:
272,172,109855,2,0,P|320:192|404:176,1,140,0|0,0:0|0:0,0:0:0:0:
484,144,110309,1,8,0:0:0:0:
500,228,110461,6,0,B|480:240|456:240|456:240|440:256|440:256|400:252|356:288,1,140,4|0,0:0|0:0,0:0:0:0:
304,328,110916,1,8,0:0:0:0:
236,284,111067,2,0,P|192:236|104:256,1,140,0|0,0:0|0:0,0:0:0:0:
76,312,111522,1,8,0:0:0:0:
12,256,111673,6,0,L|36:108,1,140,4|0,0:0|0:0,0:0:0:0:
120,108,112128,2,0,L|208:128,1,70,8|0,0:0|0:0,0:0:0:0:
240,188,112431,2,0,L|300:164,3,35,0|0|0|0,0:0|0:0|0:0|0:0,0:0:0:0:
304,144,112734,2,0,L|392:168,1,70,8|0,0:0|0:0,0:0:0:0:
436,216,113037,6,0,L|420:304,1,70,0|0,1:0|0:0,0:0:0:0:
356,332,113340,2,0,L|343:263,1,70,0|0,1:0|0:0,0:0:0:0:
276,212,113643,2,0,L|260:300,2,70,0|8|0,1:0|0:3|0:0,0:0:0:0:
356,188,114097,6,0,P|320:136|248:132,1,140,0|0,1:0|1:0,0:0:0:0:
192,196,114552,2,0,L|116:176,1,70,0|0,0:0|1:0,0:0:0:0:
48,216,114855,2,0,L|32:144,1,70,0|0,0:0|0:0,0:0:0:0:
48,116,115082,1,0,1:0:0:0:
80,104,115158,2,0,L|148:84,1,70,0|0,1:0|1:0,0:0:0:0:
180,72,115385,1,0,1:0:0:0:
212,60,115461,6,0,P|248:92|236:204,1,140,4|8,0:0|0:0,0:0:0:0:
232,260,115916,2,0,P|308:292|384:260,1,140,0|0,0:0|0:0,0:0:0:0:
436,240,116370,1,8,0:0:0:0:
460,320,116522,6,0,P|508:282|498:191,1,140,4|0,0:0|0:0,0:0:0:0:
446,152,116976,2,0,P|428:123|422:84,1,70,8|0,0:0|0:0,0:0:0:0:
342,60,117279,2,0,L|326:176,2,105
421,88,117885,6,0,L|436:161,1,70,4|0,0:0|0:0,0:0:0:0:
476,240,118188,2,0,L|396:240,1,70,12|0,0:2|0:0,0:0:0:0:
320,236,118491,2,0,L|328:320,2,70,0|0|8,0:0|0:0|0:0,0:0:0:0:
332,152,118946,2,0,P|296:120|196:108,1,140
172,180,119400,2,0,L|100:152,1,70,8|0,0:0|0:0,0:0:0:0:
24,168,119703,5,0,0:0:0:0:
24,168,119855,1,0,0:0:0:0:
32,84,120006,2,0,L|112:72,1,70,8|0,0:0|0:0,0:0:0:0:
256,192,120309,12,0,121219,0:0:0:0:
236,264,121522,6,0,L|152:280,1,70,4|4,0:3|0:3,0:0:0:0:
312,224,121825,2,0,P|360:244|392:248,1,70,4|4,0:3|0:3,0:0:0:0:
416,84,122279,5,0,0:0:0:0:
416,84,122355,1,0,0:0:0:0:
416,84,122431,2,0,L|316:104,1,70,8|0,0:0|0:0,0:0:0:0:
265,79,122734,6,0,B|243:92|232:118|232:118|209:105|168:104|128:124,1,154.000004699707,4|8,0:0|0:0,0:0:0:0:
48,160,123188,1,0,0:0:0:0:
92,240,123340,2,0,L|178:217,1,77.0000023498536,0|0,0:0|0:0,0:0:0:0:
236,280,123643,2,0,L|322:257,1,77.0000023498536,8|0,0:0|0:0,0:0:0:0:
380,320,123946,6,0,L|466:297,1,77.0000023498536
432,212,124249,1,8,0:0:0:0:
432,212,124400,2,0,P|370:201|312:128,1,154.000004699707,0|0,0:0|0:0,0:0:0:0:
280,48,124855,2,0,L|205:65,1,77.0000023498536,8|0,0:0|0:0,0:0:0:0:
112,48,125158,6,0,B|118:93|118:93|110:121|110:121|134:157|118:201,1,154.000004699707,4|8,0:0|0:0,0:0:0:0:
56,264,125613,1,0,0:0:0:0:
128,304,125764,2,0,L|204:268,1,77.0000023498536,0|0,0:0|0:0,0:0:0:0:
280,308,126067,2,0,L|356:272,1,77.0000023498536,8|0,0:0|0:0,0:0:0:0:
432,320,126370,6,0,L|508:284,1,77.0000023498536
472,200,126673,1,8,0:0:0:0:
388,160,126825,2,0,P|340:164|260:92,1,154.000004699707,0|0,0:0|0:0,0:0:0:0:
180,56,127279,2,0,L|176:148,1,77.0000023498536,0|0,0:0|0:0,0:0:0:0:
140,210,127582,6,0,B|116:278|116:278|200:270,1,154.000004699707,4|8,0:0|0:0,0:0:0:0:
232,356,128037,2,0,P|272:344|280:240,1,154.000004699707,0|0,0:0|0:0,0:0:0:0:
272,156,128491,1,8,0:0:0:0:
356,196,128643,6,0,L|384:272,1,77.0000023498536,0|0,0:0|0:0,0:0:0:0:
448,204,128946,2,0,L|424:120,1,77.0000023498536,0|8,0:0|0:0,0:0:0:0:
348,80,129249,2,0,B|276:92|276:92|172:56,1,154.000004699707,0|0,0:0|0:0,0:0:0:0:
112,92,129703,2,0,P|124:132|120:172,1,77.0000023498536,8|0,0:0|0:0,0:0:0:0:
60,236,130006,6,0,P|32:276|96:356,1,154.000004699707,0|8,0:0|0:0,0:0:0:0:
152,292,130461,2,0,P|196:268|292:296,1,154.000004699707,0|0,0:0|0:0,0:0:0:0:
376,260,130916,1,8,0:0:0:0:
376,260,131067,6,0,B|400:216|400:216|400:104,1,154.000004699707,0|0,0:0|0:0,0:0:0:0:
372,112,131446,1,0,0:0:0:0:
344,112,131522,2,0,B|300:116|300:116|260:112,1,77.0000023498536,8|8,0:0|0:0,0:0:0:0:
252,96,131749,1,0,0:0:0:0:
236,72,131825,2,0,B|180:76|180:76|160:92,1,77.0000023498536,0|8,0:0|0:0,0:0:0:0:
71,90,132128,2,0,L|71:130,3,38.5000011749268,8|0|0|0,0:0|0:0|0:0|0:0,0:0:0:0:
56,172,132431,6,0,P|128:192|156:264,1,154.000004699707,4|8,0:0|0:0,0:0:0:0:
128,348,132885,1,0,0:0:0:0:
220,328,133037,2,0,P|256:312|284:284,1,77.0000023498536,0|0,0:0|0:0,0:0:0:0:
372,256,133340,2,0,P|348:216|348:172,1,77.0000023498536,8|0,0:0|0:0,0:0:0:0:
252,180,133643,6,0,P|260:124|256:104,1,77.0000023498536
312,32,133946,1,8,0:0:0:0:
360,112,134097,2,0,B|414:74|414:74|500:92,1,154.000004699707
507,184,134552,2,0,P|463:212|427:216,1,77.0000023498536,8|0,0:0|0:0,0:0:0:0:
402,301,134855,6,0,P|326:281|254:297,1,154.000004699707,4|8,0:0|0:0,0:0:0:0:
184,236,135310,1,0,0:0:0:0:
208,160,135461,2,0,L|296:156,1,77.0000023498536,0|0,0:0|0:0,0:0:0:0:
352,92,135764,2,0,P|372:128|372:176,1,77.0000023498536,8|0,0:0|0:0,0:0:0:0:
352,252,136067,6,0,L|272:248,1,77.0000023498536
204,308,136370,1,8,0:0:0:0:
152,232,136522,2,0,P|124:192|32:232,1,154.000004699707,0|0,0:0|0:0,0:0:0:0:
4,304,136976,1,8,0:0:0:0:
4,304,137128,1,0,0:0:0:0:
80,356,137279,6,0,B|120:328|120:328|240:328,1,154.000004699707,4|8,0:0|0:0,0:0:0:0:
275,248,137734,2,0,B|311:228|311:228|371:228|371:228|419:196,1,154.000004699707,0|0,0:0|0:0,0:0:0:0:
504,228,138188,2,0,L|504:320,1,77.0000023498536,8|0,0:0|0:0,0:0:0:0:
440,372,138491,6,0,B|392:348|392:348|352:360|352:360|292:328,1,154.000004699707,4|8,0:0|0:0,0:0:0:0:
216,296,138946,2,0,P|197:248|260:172,1,154.000004699707,0|0,0:0|0:0,0:0:0:0:
289,88,139400,2,0,L|369:88,1,77.0000023498536,8|0,0:0|0:0,0:0:0:0:
450,126,139703,6,0,P|446:182|363:243,1,154.000004699707,12|0,0:0|0:0,0:0:0:0:
389,332,140158,2,0,P|313:316|233:336,1,154.000004699707,8|0,0:0|0:0,0:0:0:0:
232,240,140613,1,8,0:0:0:0:
151,195,140764,6,0,L|134:283,1,77.0000023498536,4|0,0:0|0:0,0:0:0:0:
52,310,141067,2,0,L|52:226,1,77.0000023498536,8|0,0:0|0:0,0:0:0:0:
15,147,141370,2,0,P|71:139|91:123,1,77.0000023498536,0|8,0:0|0:0,0:0:0:0:
161,72,141673,1,8,0:0:0:0:
161,72,141749,1,0,0:0:0:0:
161,72,141825,2,0,B|193:84|193:84|237:80,1,77.0000023498536,8|8,0:0|0:0,0:0:0:0:
320,88,142128,6,0,B|328:112|324:132|324:132|336:152|336:152|324:184|360:232,1,140,4|8,0:0|0:0,0:0:0:0:
426,256,142582,1,0,0:0:0:0:
391,332,142734,2,0,L|319:349,2,70,0|0|8,0:0|0:0|0:0,0:0:0:0:
474,324,143188,1,0,0:0:0:0:
426,256,143340,6,0,P|459:236|448:145,1,140,0|8,0:0|0:0,0:0:0:0:
389,88,143794,2,0,P|352:113|259:116,1,140,0|0,0:0|0:0,0:0:0:0:
175,103,144249,2,0,L|168:178,1,70,8|0,0:0|0:0,0:0:0:0:
174,256,144552,6,0,B|192:277|192:302|192:302|220:286|256:289|297:308,1,140,0|8,0:0|0:0,0:0:0:0:
346,251,145006,1,0,0:0:0:0:
424,280,145158,2,0,L|416:370,2,70,0|0|8,0:0|0:0|0:0,0:0:0:0:
409,196,145613,1,0,0:0:0:0:
330,166,145764,6,0,L|338:76,2,70,0|0|8,0:0|0:0|0:0,0:0:0:0:
268,223,146219,2,0,P|198:209|114:231,1,140,0|0,0:0|0:0,0:0:0:0:
53,191,146673,2,0,L|60:118,1,70,8|0,0:0|0:0,0:0:0:0:
104,49,146976,6,0,B|192:59|192:59|225:109,1,140,4|8,0:0|0:0,0:0:0:0:
143,136,147431,1,0,0:0:0:0:
131,218,147582,2,0,L|123:295,1,70,0|0,0:0|0:0,0:0:0:0:
188,342,147885,2,0,B|220:318|220:318|270:306,1,70,8|0,0:0|0:0,0:0:0:0:
325,345,148188,6,0,B|340:319|340:319|346:279,1,70,0|0,0:0|0:0,0:0:0:0:
330,197,148491,1,8,0:0:0:0:
257,153,148643,2,0,P|212:162|137:79,1,140,0|0,0:0|0:0,0:0:0:0:
223,84,149097,1,8,0:0:0:0:
223,84,149249,6,0,L|155:222,1,140,4|0,0:0|0:0,0:0:0:0:
208,278,149703,1,8,0:0:0:0:
208,278,149855,2,0,L|269:152,1,140,0|0,0:0|0:0,0:0:0:0:
306,77,150309,2,0,L|381:69,1,70,0|8,0:0|0:0,0:0:0:0:
421,141,150613,6,0,P|411:191|416:228,1,70,0|8,0:0|0:0,0:0:0:0:
456,281,150916,2,0,L|388:312,1,70,0|0,0:0|0:0,0:0:0:0:
364,304,151143,1,0,0:0:0:0:
336,300,151219,2,0,P|304:288|260:284,1,70,0|8,0:0|0:3,0:0:0:0:
204,228,151522,1,8,0:3:0:0:
204,228,151673,1,8,0:0:0:0:
120,232,151825,6,0,P|80:220|112:148,1,140,4|8,0:0|0:0,0:0:0:0:
187,122,152279,1,0,0:0:0:0:
260,163,152431,2,0,L|402:142,1,140,0|8,0:0|0:0,0:0:0:0:
463,195,152885,1,0,0:0:0:0:
482,112,153037,6,0,L|457:29,1,70
379,63,153340,2,0,L|304:51,1,70,8|0,0:0|0:0,0:0:0:0:
233,87,153643,2,0,P|199:118|103:112,1,140,0|8,0:0|0:0,0:0:0:0:
76,192,154097,1,0,0:0:0:0:
109,267,154249,6,0,P|177:257|233:297,1,140,0|8,0:0|0:0,0:0:0:0:
302,251,154703,1,0,0:0:0:0:
381,221,154855,2,0,B|342:173|342:173|341:91,1,140,0|8,0:0|0:0,0:0:0:0:
411,49,155309,1,0,0:0:0:0:
482,93,155461,6,0,L|477:166,1,70,0|0,0:0|0:0,0:0:0:0:
457,244,155764,2,0,L|470:330,1,70,8|0,0:0|0:0,0:0:0:0:
403,368,156067,2,0,P|366:338|249:344,1,140,0|8,0:0|0:0,0:0:0:0:
207,282,156522,1,0,0:0:0:0:
139,232,156673,6,0,P|157:192|136:94,1,140,4|8,0:0|0:0,0:0:0:0:
68,144,157128,1,0,0:0:0:0:
61,227,157279,2,0,P|74:278|160:305,1,140,0|8,0:0|0:0,0:0:0:0:
216,255,157734,1,0,0:0:0:0:
291,218,157885,6,0,P|331:234|286:295,1,140,0|8,0:0|0:0,0:0:0:0:
216,255,158340,1,0,0:0:0:0:
222,171,158491,2,0,P|280:138|360:164,1,140,0|8,0:0|0:0,0:0:0:0:
405,215,158946,1,0,0:0:0:0:
488,208,159097,6,0,L|470:67,1,140,4|8,0:0|0:0,0:0:0:0:
386,80,159552,1,0,0:0:0:0:
348,154,159703,2,0,P|303:161|190:127,1,140,0|0,0:0|0:0,0:0:0:0:
129,155,160158,6,0,L|108:316,2,140,12|8|0,0:0|0:0|0:0,0:0:0:0:
113,115,160840,1,0,0:0:0:0:
113,115,160916,1,8,0:0:0:0:
167,51,161067,1,0,0:0:0:0:
225,111,161219,2,0,L|308:104,1,70,0|8,0:0|0:0,0:0:0:0:
319,119,161446,1,0,0:0:0:0:
343,133,161522,6,0,P|324:173|342:271,1,140,4|8,0:0|0:0,0:0:0:0:
308,343,161976,1,0,0:0:0:0:
228,315,162128,2,0,P|186:282|101:284,1,140,0|8,0:0|0:0,0:0:0:0:
40,227,162582,1,0,0:0:0:0:
88,158,162734,6,0,L|73:82,1,70,0|0,0:0|0:0,0:0:0:0:
145,44,163037,2,0,L|160:130,1,70,8|0,0:0|0:0,0:0:0:0:
165,196,163340,2,0,P|213:179|314:189,1,140,0|8,0:0|0:0,0:0:0:0:
380,159,163794,1,0,0:0:0:0:
445,212,163946,6,0,P|457:259|376:290,1,140,4|8,0:0|0:0,0:0:0:0:
318,344,164400,2,0,B|254:327|254:327|176:341,1,140,0|0,0:0|0:0,0:0:0:0:
116,286,164855,1,8,0:0:0:0:
122,202,165006,6,0,P|153:162|151:60,1,140,4|0,0:0|0:0,0:0:0:0:
81,38,165461,2,0,L|81:120,1,70,4|0,0:2|0:0,0:0:0:0:
38,180,165764,1,0,0:0:0:0:
198,229,166067,6,0,P|201:170|187:149,1,70,0|0,0:0|0:0,0:0:0:0:
209,78,166370,2,0,P|261:93|353:91,1,140,4|8,0:0|0:0,0:0:0:0:
427,69,166825,2,0,L|436:237,1,140,0|0,0:0|0:0,0:0:0:0:
358,243,167279,2,0,L|346:154,1,70,8|0,0:0|0:0,0:0:0:0:
265,158,167582,6,0,L|101:177,1,140,4|8,0:0|0:0,0:0:0:0:
91,251,168037,2,0,P|150:263|150:339,1,140,0|0,0:0|0:0,0:0:0:0:
234,358,168491,2,0,L|304:339,1,70,8|0,0:0|0:0,0:0:0:0:
256,192,168794,12,0,169931,0:0:0:0:
256,192,170006,12,0,171067,0:0:0:0:
209,205,180764,6,0,B|139:243|139:243|50:236,2,167.999994873047,8|8|8,0:0|0:0|0:0,0:0:0:0:
408,188,181673,6,0,L|400:244,5,41.9999987182618,0|0|0|0|0|0,0:0|0:0|0:0|0:0|0:0|0:0,0:0:0:0:
408,276,182128,6,0,B|364:248|364:248|312:248|312:248|260:208,1,154.000004699707,4|8,0:0|0:0,0:0:0:0:
196,272,182582,1,0,0:0:0:0:
108,244,182734,2,0,L|112:168,1,77.0000023498536,0|0,0:0|0:0,0:0:0:0:
80,80,183037,2,0,B|116:88|116:88|176:64,1,77.0000023498536,8|0,0:0|0:0,0:0:0:0:
228,128,183340,6,0,B|265:113|265:113|301:121,1,77.0000023498536
368,184,183643,1,8,0:0:0:0:
452,148,183794,2,0,L|452:308,1,154.000004699707,0|0,0:0|0:0,0:0:0:0:
380,360,184249,2,0,L|304:352,1,77.0000023498536,8|0,0:0|0:0,0:0:0:0:
252,272,184552,6,0,B|216:252|216:252|188:272|136:276|88:240,1,154.000004699707,4|8,0:0|0:0,0:0:0:0:
76,168,185006,1,0,0:0:0:0:
96,76,185158,2,0,L|180:76,1,77.0000023498536,0|0,0:0|0:0,0:0:0:0:
260,104,185461,2,0,B|248:136|248:136|260:184,1,77.0000023498536,8|0,0:0|0:0,0:0:0:0:
344,208,185764,6,0,B|356:240|356:240|344:288,1,77.0000023498536
268,332,186067,1,8,0:0:0:0:
176,320,186219,2,0,P|128:276|148:172,1,154.000004699707,0|0,0:0|0:0,0:0:0:0:
176,112,186673,2,0,L|260:100,1,77.0000023498536,8|0,0:0|0:0,0:0:0:0:
324,156,186976,6,0,P|364:184|304:264,1,154.000004699707,4|8,0:0|0:0,0:0:0:0:
288,348,187431,2,0,L|456:320,1,154.000004699707,0|0,0:0|0:0,0:0:0:0:
468,236,187885,1,8,0:0:0:0:
472,144,188037,6,0,L|460:60,1,77.0000023498536,0|0,0:0|0:0,0:0:0:0:
376,32,188340,2,0,L|364:116,1,77.0000023498536,0|8,0:0|0:0,0:0:0:0:
324,192,188643,2,0,P|260:164|176:180,1,154.000004699707,0|0,0:0|0:0,0:0:0:0:
88,172,189097,2,0,L|92:252,1,77.0000023498536,8|0,0:0|0:0,0:0:0:0:
140,328,189400,6,0,P|184:304|296:312,1,154.000004699707,0|8,0:0|0:0,0:0:0:0:
376,320,189855,2,0,P|416:276|424:172,1,154.000004699707,0|0,0:0|0:0,0:0:0:0:
392,100,190309,1,8,0:0:0:0:
308,136,190461,6,0,L|204:120,1,77.0000023498536,0|4,0:0|0:0,0:0:0:0:
140,104,190764,2,0,L|96:88,2,38.5000011749268,8|8|0,0:0|0:0|0:0,0:0:0:0:
84,176,191067,2,0,L|40:160,2,38.5000011749268,8|8|0,0:0|0:0|0:0,0:0:0:0:
96,268,191370,2,0,L|52:252,2,38.5000011749268,8|8|0,0:0|0:0|0:0,0:0:0:0:
40,340,191673,1,8,0:0:0:0:
40,340,191749,1,8,0:0:0:0:
40,340,191825,6,0,P|96:360|176:300,1,154.000004699707,4|8,0:0|0:0,0:0:0:0:
232,244,192279,1,0,0:0:0:0:
304,304,192431,2,0,L|392:288,1,77.0000023498536,0|0,0:0|0:0,0:0:0:0:
440,220,192734,2,0,L|352:204,1,77.0000023498536,8|0,0:0|0:0,0:0:0:0:
304,136,193037,6,0,L|392:120,1,77.0000023498536
424,40,193340,1,8,0:0:0:0:
424,40,193491,2,0,L|260:32,1,154.000004699707,0|0,0:0|0:0,0:0:0:0:
184,68,193946,2,0,L|192:152,1,77.0000023498536,8|0,0:0|0:0,0:0:0:0:
184,236,194249,6,0,P|244:216|316:280,1,154.000004699707,4|12,0:0|0:2,0:0:0:0:
372,336,194703,1,0,0:0:0:0:
460,304,194855,2,0,L|444:228,1,77.0000023498536,0|0,0:0|0:0,0:0:0:0:
452,136,195158,2,0,P|404:120|376:92,1,77.0000023498536,8|0,0:0|0:0,0:0:0:0:
296,124,195461,6,0,P|265:100|228:91,1,77.0000023498536
136,108,195764,1,8,0:0:0:0:
60,160,195916,2,0,B|88:200|88:200|88:320,1,154.000004699707,0|0,0:0|0:0,0:0:0:0:
164,356,196370,2,0,L|248:348,1,77.0000023498536,8|0,0:0|0:0,0:0:0:0:
332,324,196673,6,0,P|384:256|384:176,1,154.000004699707,4|8,0:0|0:0,0:0:0:0:
420,104,197128,2,0,L|252:80,1,154.000004699707,0|0,0:0|0:0,0:0:0:0:
220,164,197582,2,0,L|140:140,1,77.0000023498536,8|0,0:0|0:0,0:0:0:0:
52,140,197885,6,0,P|24:180|48:280,1,154.000004699707,4|8,0:0|0:0,0:0:0:0:
124,328,198340,2,0,L|280:296,1,154.000004699707,0|0,0:0|0:0,0:0:0:0:
328,220,198794,2,0,L|428:236,1,77.0000023498536,8|0,0:0|0:0,0:0:0:0:
464,160,199097,6,0,L|304:144,1,154.000004699707,12|0,0:0|0:0,0:0:0:0:
240,204,199552,2,0,B|200:180|200:180|80:176,1,154.000004699707,8|0,0:0|0:0,0:0:0:0:
44,256,200006,1,8,0:0:0:0:
120,308,200158,6,0,L|220:308,1,77.0000023498536
284,280,200461,1,0,0:0:0:0:
368,244,200613,2,0,L|448:272,1,77.0000023498536,8|0,0:0|0:0,0:0:0:0:
464,248,200840,1,0,0:0:0:0:
484,228,200916,2,0,P|456:192|456:132,1,77.0000023498536,8|8,0:3|0:3,0:0:0:0:
388,92,201219,2,0,P|372:136|376:188,1,77.0000023498536,8|8,0:3|0:0,0:0:0:0:
292,216,201522,6,0,B|188:204|188:204|132:176,1,154.000004699707,4|8,0:0|0:0,0:0:0:0:
64,228,201976,2,0,B|124:260|124:260|140:296|140:296|180:318,1,154.000004699707,0|0,0:0|0:0,0:0:0:0:
272,332,202431,2,0,L|368:324,1,77.0000023498536,8|0,0:0|0:0,0:0:0:0:
404,252,202734,6,0,B|436:184|436:184|396:112,1,154.000004699707,4|8,0:0|0:0,0:0:0:0:
304,116,203188,2,0,B|272:184|272:184|312:256,1,154.000004699707,0|0,0:0|0:0,0:0:0:0:
404,252,203643,2,0,L|380:328,1,77.0000023498536,8|0,0:3|0:0,0:0:0:0:
288,344,203946,6,0,L|192:336,1,77.0000023498536,12|0,0:0|0:0,0:0:0:0:
132,288,204249,1,0,0:0:0:0:
148,196,204400,2,0,P|188:164|208:56,1,154.000004699707,8|0,0:0|0:0,0:0:0:0:
120,56,204855,1,12,0:0:0:0:
36,96,205006,6,0,L|40:204,1,77.0000023498536
16,264,205309,2,0,L|95:256,1,77.0000023498536,12|0,0:0|0:0,0:0:0:0:
184,272,205613,2,0,P|258:290|332:236,2,154.000004699707,0|8|8,0:0|0:0|0:0,0:0:0:0:
244,204,206370,5,4,0:0:0:0:
256,192,206446,12,0,208794,0:0:0:0:
176,280,209097,6,0,L|272:256,1,77.0000023498536,8|0,0:0|0:0,0:0:0:0:
336,228,209400,2,0,L|352:308,2,77.0000023498536,0|0|8,0:0|0:0|0:0,0:0:0:0:
264,172,209855,6,0,P|232:100|284:28,1,154.000004699707,0|0,0:0|0:0,0:0:0:0:
352,68,210309,2,0,L|432:72,1,77.0000023498536,8|0,0:0|0:0,0:0:0:0:
472,156,210613,2,0,P|464:188|468:244,1,77.0000023498536,0|0,0:0|0:0,0:0:0:0:
492,320,210916,1,8,0:0:0:0:
404,348,211067,1,0,0:0:0:0:
328,296,211219,6,0,B|288:312|288:312|176:288,1,154.000004699707,4|8,0:0|0:0,0:0:0:0:
108,232,211673,1,0,0:0:0:0:
184,180,211825,2,0,P|216:148|168:48,1,154.000004699707,0|8,0:0|0:0,0:0:0:0:
96,76,212279,1,0,0:0:0:0:
56,160,212431,6,0,P|24:200|16:248,1,77.0000023498536,0|0,0:0|0:0,0:0:0:0:
108,232,212734,2,0,P|100:282|117:328,1,77.0000023498536,8|0,0:0|0:0,0:0:0:0:
192,276,213037,2,0,P|210:323|248:354,1,77.0000023498536,0|0,0:0|0:0,0:0:0:0:
284,268,213340,1,0,0:0:0:0:
352,208,213491,6,0,P|384:168|392:48,1,154.000004699707,0|0,0:0|0:0,0:0:0:0:
316,24,213946,2,0,L|232:60,1,77.0000023498536,8|0,0:0|0:0,0:0:0:0:
180,120,214249,2,0,P|132:92|96:88,2,77.0000023498536,0|0|0,0:0|0:0|0:0,0:0:0:0:
268,148,214703,1,12,0:0:0:0:
200,208,214855,6,0,L|184:292,1,77.0000023498536,0|8,0:0|0:0,0:0:0:0:
276,312,215158,2,0,L|290:236,1,77.0000023498536,0|8,0:0|0:0,0:0:0:0:
316,220,215385,1,0,0:0:0:0:
344,208,215461,2,0,L|432:180,1,77.0000023498536,8|8,0:3|0:0,0:0:0:0:
436,92,215764,2,0,L|368:88,3,38.5000011749268,0|0|0|0,0:0|0:0|0:0|0:0,0:0:0:0:
360,104,216067,6,0,P|292:68|212:84,1,140,4|12,0:0|0:0,0:0:0:0:
172,132,216522,1,0,0:0:0:0:
96,100,216673,2,0,L|88:24,2,70,0|0|8,0:0|0:0|0:0,0:0:0:0:
40,160,217128,1,0,0:0:0:0:
116,192,217279,6,0,L|124:268,2,70,0|0|8,0:0|0:0|0:0,0:0:0:0:
172,132,217734,2,0,B|228:120|228:120|248:132|248:132|328:116,1,140,0|0,0:0|0:0,0:0:0:0:
384,88,218188,1,8,0:0:0:0:
452,136,218340,6,0,P|464:188|376:184,1,140,0|0,0:0|0:0,0:0:0:0:
312,216,218794,1,8,0:0:0:0:
252,272,218946,2,0,P|208:236|120:232,1,140,0|0,0:0|0:0,0:0:0:0:
92,152,219400,2,0,L|180:140,1,70,8|0,0:0|0:0,0:0:0:0:
212,76,219703,5,0,0:0:0:0:
284,120,219855,2,0,P|324:128|364:124,1,70,0|8,0:0|0:0,0:0:0:0:
432,156,220158,2,0,P|404:196|396:288,1,140
364,364,220613,2,0,L|272:352,1,70,8|0,0:0|0:0,0:0:0:0:
216,328,220916,6,0,B|204:304|164:304|164:304|152:284|152:284|116:288|92:256,1,140,4|12,0:0|0:0,0:0:0:0:
76,188,221370,1,0,0:0:0:0:
124,120,221522,2,0,P|152:152|156:188,2,70,8|8|8,0:3|0:3|0:3,0:0:0:0:
56,72,221976,1,0,0:0:0:0:
132,36,222128,5,12,0:3:0:0:
300,36,222431,2,0,P|344:72|300:156,1,140,12|0,0:0|0:0,0:0:0:0:
336,228,222885,1,8,0:3:0:0:
400,172,223037,1,8,0:3:0:0:
460,112,223188,6,0,B|488:160|488:160|468:252,1,140,4|0,0:0|0:0,0:0:0:0:
500,320,223643,2,0,L|408:312,1,70,8|0,0:3|0:0,0:0:0:0:
348,312,223946,2,0,P|296:304|256:208,1,140,8|0,0:0|0:0,0:0:0:0:
172,260,224400,6,0,P|152:196|76:192,1,140,4|0,0:0|0:0,0:0:0:0:
40,256,224855,2,0,L|76:324,1,70,0|0,0:0|0:0,0:0:0:0:
152,348,225158,2,0,P|224:332|252:248,1,140,8|8,0:3|0:3,0:0:0:0:
336,296,225613,6,0,P|371:354|437:366,1,140,4|0,0:0|0:0,0:0:0:0:
468,288,226067,2,0,L|468:204,1,70,8|8,0:0|0:0,0:0:0:0:
416,152,226370,2,0,L|432:76,2,70,0|0|0,0:0|0:0|0:0,0:0:0:0:
340,188,226825,6,0,L|324:104,1,70,8|0,0:0|0:0,0:0:0:0:
256,184,227128,2,0,L|240:100,1,70,8|0,0:0|0:0,0:0:0:0:
172,180,227431,2,0,L|156:96,1,70,8|0,0:0|0:0,0:0:0:0:
88,176,227734,2,0,L|72:92,1,70,8|0,0:0|0:0,0:0:0:0:
128,248,228037,6,0,L|144:332,1,70,12|0,0:0|0:0,0:0:0:0:
212,252,228340,2,0,L|228:336,1,70,0|0,0:3|0:0,0:0:0:0:
296,256,228643,2,0,L|312:340,1,70,12|0,0:3|0:0,0:0:0:0:
380,260,228946,2,0,L|396:344,1,70,8|0,0:3|0:0,0:0:0:0:
458,204,229249,5,12,0:0:0:0:
