osu file format v14

[General]
AudioFilename: Jin Ft Maria From Garnidelia - Daze.mp3
AudioLeadIn: 1500
PreviewTime: 25991
Countdown: 0
SampleSet: Normal
StackLeniency: 0.5
Mode: 0
LetterboxInBreaks: 0
WidescreenStoryboard: 0

[Editor]
Bookmarks: 13643,14855,16067,35461,35688,53643,103340,122734,151825,172431,201522,206370,216067,223340
DistanceSpacing: 1.3
BeatDivisor: 4
GridSize: 4
TimelineZoom: 2

[Metadata]
Title:daze
TitleUnicode:daze
Artist:Jin ft.MARiA from GARNiDELiA
ArtistUnicode:じん ft.メイリア from GARNiDELiA
Creator:deetz
Version:Advanced
Source:メカクシティアクターズ
Tags:
BeatmapID:695205
BeatmapSetID:306746

[Difficulty]
HPDrainRate:3
CircleSize:4
OverallDifficulty:4
ApproachRate:7
SliderMultiplier:1.2
SliderTickRate:1

[Events]
//Background and Video events
0,0,"Konachan.com - 184533 amamiya_hibiya kagerou_project kano_shuuya kido_tsubomi kisaragi_momo kisaragi_shintaro kozakura_mary nano_nanora red_eyes seto_kousuke.jpg",0,0
//Break Periods
2,74249,76682
2,79297,83046
2,171419,179864
//Storyboard Layer 0 (Background)
//Storyboard Layer 1 (Fail)
//Storyboard Layer 2 (Pass)
//Storyboard Layer 3 (Foreground)
//Storyboard Sound Samples

[TimingPoints]
310,303.030303030303,4,2,0,60,1,0
310,-100,4,2,4,60,0,0
15158,-100,4,1,4,60,0,0
16219,-100,4,2,4,60,0,0
37885,-100,4,1,4,60,0,0
45158,-100,4,2,4,60,0,0
47582,-100,4,1,4,60,0,0
54855,-100,4,1,4,70,0,1
72885,-100,4,1,4,60,0,0
73188,-100,4,2,4,60,0,0
77734,-100,4,2,4,50,0,0
83491,-100,4,2,4,60,0,0
105764,-100,4,1,4,60,0,0
113340,-100,4,2,4,60,0,0
115461,-100,4,1,4,60,0,0
122734,-100,4,1,4,70,0,1
142128,-100,4,1,4,60,0,0
170082,-100,4,2,4,40,0,0
171143,-100,4,2,4,5,0,0
180764,-100,4,2,4,60,0,0
181673,-100,4,1,4,60,0,0
182128,-100,4,1,4,70,0,1
206370,-100,4,1,4,70,0,0
230006,-100,4,2,4,5,0,0

[Colours]
Combo1 : 193,0,193
Combo2 : 228,5,5
Combo3 : 9,145,225
Combo4 : 199,163,18
Combo5 : 0,121,0

[HitObjects]
168,160,310,6,0,P|168:224|128:280,2,120,2|2|2,0:0|0:0|0:0,0:0:0:0:
148,84,1067,2,0,L|236:80,1,60,8|8,0:0|0:0,0:0:0:0:
276,120,1370,6,0,L|408:132,1,120,4|0,0:0|0:0,0:0:0:0:
472,116,1825,1,8,0:0:0:0:
476,272,2128,2,0,L|480:336,2,60,0|8|8,0:0|0:0|0:0,0:0:0:0:
420,220,2582,6,0,P|368:212|300:230,1,120,4|0,0:0|0:0,0:0:0:0:
248,284,3037,1,8,0:0:0:0:
120,372,3340,2,0,L|44:364,2,60,8|0|0,0:3|0:0|0:0,0:0:0:0:
132,296,3794,6,0,P|120:220|124:172,1,120,4|0,0:0|0:0,0:0:0:0:
160,108,4249,1,8,0:3:0:0:
308,64,4552,2,0,L|328:120,1,60,0|8,0:0|0:0,0:0:0:0:
380,180,4855,1,8,0:0:0:0:
380,180,5006,6,0,P|320:196|256:160,2,120,4|8|8,0:0|0:0|0:3,0:0:0:0:
408,108,5764,2,0,P|430:105|484:120,1,60,8|8,0:0|0:0,0:0:0:0:
484,268,6219,6,0,B|458:278|426:262|426:262|406:286|375:293,1,120,4|0,0:0|0:0,0:0:0:0:
300,272,6673,1,8,0:0:0:0:
144,268,6976,2,0,L|64:276,2,60,0|0|8,0:0|0:0|0:0,0:0:0:0:
136,112,7582,6,0,L|200:120,1,60,0|0,0:0|0:0,0:0:0:0:
264,80,7885,2,0,L|336:100,1,60,8|8,0:0|0:0,0:0:0:0:
372,156,8188,2,0,B|400:196|400:196|476:200,1,120,0|8,0:0|0:0,0:0:0:0:
492,276,8643,6,0,L|368:268,1,120,4|0,0:0|0:0,0:0:0:0:
316,216,9097,1,8,0:0:0:0:
164,176,9400,2,0,L|148:252,2,60,0|0|8,0:0|0:0|0:0,0:0:0:0:
236,40,10006,6,0,L|295:45,2,60,0|0|8,0:0|0:0|0:0,0:0:0:0:
160,56,10461,1,8,0:0:0:0:
84,72,10613,2,0,L|64:224,1,120,0|0,0:0|0:0,0:0:0:0:
68,268,11067,6,0,P|92:328|168:312,1,120,4|0,0:0|0:0,0:0:0:0:
200,280,11522,1,8,0:0:0:0:
352,308,11825,2,0,L|360:372,2,60,0|0|8,0:0|0:0|0:0,0:0:0:0:
340,152,12431,6,0,L|400:152,1,60,0|0,0:0|0:0,0:0:0:0:
472,124,12734,2,0,P|476:160|468:188,1,60,8|8,0:0|0:0,0:0:0:0:
408,228,13037,2,0,L|272:228,1,120,0|8,0:0|0:0,0:0:0:0:
232,284,13491,6,0,L|112:268,1,120,4|0,0:0|0:0,0:0:0:0:
48,224,13946,1,8,0:0:0:0:
28,68,14249,2,0,L|96:64,1,60,8|0,0:3|0:0,0:0:0:0:
156,104,14552,2,0,L|224:100,1,60,8|0,0:3|0:0,0:0:0:0:
284,60,14855,5,12,0:0:0:0:
424,128,15158,2,0,P|472:180|400:272,1,180,8|8,0:0|0:0,0:0:0:0:
348,268,15764,1,8,0:0:0:0:
296,208,15916,6,0,B|260:184|260:184|180:184,1,120,4|0,0:0|1:0,0:0:0:0:
108,208,16370,1,8,0:0:0:0:
76,360,16673,2,0,L|8:364,2,60,0|0|8,1:0|1:0|0:0,0:0:0:0:
148,332,17128,6,0,P|212:328|312:344,1,120,0|0,1:0|1:0,0:0:0:0:
344,320,17582,1,8,0:0:0:0:
492,276,17885,2,0,L|504:344,2,60,0|0|8,1:0|1:0|0:0,0:0:0:0:
444,216,18340,6,0,P|432:144|412:88,1,120,0|0,1:0|1:0,0:0:0:0:
356,52,18794,1,8,0:0:0:0:
200,64,19097,2,0,L|128:48,2,60,0|0|8,0:0|1:0|0:0,0:0:0:0:
244,128,19552,6,0,P|256:200|256:256,1,120,0|0,1:0|1:0,0:0:0:0:
196,296,20006,2,0,L|128:288,1,60,8|0,0:0|0:0,0:0:0:0:
60,280,20310,2,0,L|52:200,2,60,0|0|8,1:0|1:0|0:0,0:0:0:0:
68,356,20764,6,0,L|192:368,1,120,4|0,1:0|1:0,0:0:0:0:
264,344,21219,1,8,0:0:0:0:
416,304,21522,2,0,L|444:364,2,60,0|0|8,1:0|1:0|0:0,0:0:0:0:
400,228,21976,6,0,L|276:240,1,120,0|0,1:0|1:0,0:0:0:0:
204,240,22431,1,8,0:0:0:0:
52,208,22734,2,0,L|24:268,2,60,0|0|8,1:0|1:0|0:0,0:0:0:0:
68,132,23188,6,0,L|192:144,1,120,0|0,1:0|1:0,0:0:0:0:
264,144,23643,1,8,0:0:0:0:
420,160,23946,2,0,P|432:140|444:96,2,60,0|0|8,0:0|1:0|0:0,0:0:0:0:
380,228,24400,6,0,P|332:284|260:328,1,120,0|0,1:0|1:0,0:0:0:0:
216,324,24855,2,0,L|140:312,1,60,8|0,0:0|1:0,0:0:0:0:
92,272,25158,2,0,L|24:284,2,60,8|0|0,0:0|1:0|1:0,0:0:0:0:
160,232,25613,6,0,P|222:219|290:222,1,120,4|0,1:0|1:0,0:0:0:0:
353,240,26067,2,0,L|433:232,1,60,8|0,0:0|0:0,0:0:0:0:
478,192,26370,2,0,P|442:146|384:132,1,120,0|8,1:0|0:0,0:0:0:0:
315,163,26825,5,0,1:0:0:0:
315,163,26976,2,0,L|236:158,1,60,0|0,0:0|1:0,0:0:0:0:
182,187,27279,2,0,L|101:187,1,60,8|0,0:0|0:0,0:0:0:0:
23,308,27734,2,0,L|84:308,1,60,0|8,1:0|0:0,0:0:0:0:
146,353,28037,6,0,L|270:329,1,120,0|0,1:0|1:0,0:0:0:0:
316,272,28491,2,0,L|392:280,1,60,8|0,0:0|0:0,0:0:0:0:
419,213,28794,2,0,L|484:200,2,60,0|0|8,1:0|1:0|0:0,0:0:0:0:
352,172,29249,6,0,P|322:121|331:63,1,120,0|0,1:0|1:0,0:0:0:0:
403,36,29703,2,0,L|470:37,1,60,8|0,0:0|0:0,0:0:0:0:
474,114,30006,2,0,P|475:190|455:240,1,120,0|8,1:0|0:0,0:0:0:0:
384,244,30461,6,0,P|316:244|276:196,1,120,4|0,1:0|1:0,0:0:0:0:
232,148,30916,2,0,P|208:136|152:128,1,60,8|0,0:0|0:0,0:0:0:0:
100,140,31219,2,0,P|40:180|16:240,1,120,0|8,1:0|0:0,0:0:0:0:
25,303,31673,5,0,1:0:0:0:
25,303,31825,2,0,L|90:300,1,60,0|0,0:0|1:0,0:0:0:0:
135,360,32128,2,0,L|219:346,1,60,8|0,0:0|0:0,0:0:0:0:
349,359,32582,2,0,L|373:305,1,60,0|8,1:0|0:0,0:0:0:0:
337,234,32885,6,0,P|289:154|297:58,1,180,0|8,1:0|0:0,0:0:0:0:
369,50,33491,2,0,P|417:130|409:226,1,180,0|8,1:0|0:0,0:0:0:0:
337,234,34097,6,0,B|309:254|309:254|197:266,1,120,4|8,1:0|0:0,0:0:0:0:
144,256,34552,1,8,0:3:0:0:
100,108,34855,2,0,L|180:92,1,60,8|0,0:3|0:0,0:0:0:0:
236,108,35158,1,0,1:0:0:0:
388,80,35461,6,0,B|416:132|416:132|416:216,1,120,0|0,1:0|1:0,0:0:0:0:
352,336,36067,2,0,P|272:340|176:276,1,180,0|0,1:0|1:0,0:0:0:0:
92,168,36825,5,0,1:0:0:0:
92,168,36976,2,0,L|156:108,1,60,0|0,0:0|1:0,0:0:0:0:
196,76,37279,2,0,P|228:64|284:64,1,60,0|0,1:0|0:0,0:0:0:0:
328,84,37582,1,8,1:0:0:0:
392,228,37885,6,0,B|348:244|320:224|320:224|292:264,1,120,4|8,0:0|0:0,0:0:0:0:
248,324,38340,2,0,B|222:360|222:360|194:340|150:356,1,120,0|0,0:0|0:0,0:0:0:0:
76,340,38794,1,8,0:0:0:0:
36,272,38946,6,0,P|56:208|136:148,1,120,4|0,0:0|0:0,0:0:0:0:
164,144,39400,1,8,0:0:0:0:
320,144,39703,1,0,0:0:0:0:
244,280,40006,2,0,L|244:208,1,60,8|0,0:0|0:0,0:0:0:0:
242,141,40309,6,0,P|278:79|369:80,1,120,4|8,0:0|0:0,0:0:0:0:
390,101,40764,2,0,P|394:174|339:224,1,120,0|0,0:0|0:0,0:0:0:0:
289,211,41219,1,8,0:0:0:0:
211,215,41370,6,0,P|170:173|183:89,1,120,4|0,0:0|0:0,0:0:0:0:
228,64,41825,1,8,0:0:0:0:
242,141,41976,2,0,L|117:151,1,120,0|0,0:0|0:0,0:0:0:0:
58,195,42431,1,8,0:0:0:0:
103,257,42582,6,0,B|127:275|144:311|144:311|172:282|203:266|259:275,1,180,4|8,0:0|0:0,0:0:0:0:
312,312,43188,2,0,P|391:320|439:270,1,120
428,220,43643,1,8,0:0:0:0:
433,142,43794,6,0,L|292:127,1,120,4|0,0:0|0:0,0:0:0:0:
240,100,44249,1,8,0:0:0:0:
86,129,44552,2,0,L|88:195,1,60,8|0,0:3|0:0,0:0:0:0:
132,252,44855,1,8,0:0:0:0:
272,319,45158,6,0,L|287:159,1,120,0|0,1:0|1:0,0:0:0:0:
370,70,45764,2,0,P|426:117|384:207,1,180,0|0,1:0|1:0,0:0:0:0:
249,134,46522,5,0,1:0:0:0:
249,134,46673,2,0,L|177:133,1,60,0|0,0:0|1:0,0:0:0:0:
111,121,46976,2,0,P|97:149|86:203,1,60,0|0,1:0|0:0,0:0:0:0:
143,232,47279,1,0,1:0:0:0:
270,322,47582,6,0,B|332:313|332:313|364:260,1,120,4|8,0:0|0:0,0:0:0:0:
342,188,48037,2,0,B|371:138|371:138|433:129,1,120,0|0,0:0|0:0,0:0:0:0:
486,186,48491,1,8,0:0:0:0:
480,264,48643,6,0,P|452:354|409:359,1,120,4|0,0:0|0:0,0:0:0:0:
360,358,49097,1,0,0:0:0:0:
218,292,49400,6,0,L|130:339,2,90,0|0|0,0:0|0:0|0:0,0:0:0:0:
282,247,50006,6,0,P|296:195|294:102,1,120,4|12,0:0|0:2,0:0:0:0:
155,63,50613,2,0,P|153:88|163:129,1,60,0|0,0:0|0:0,0:0:0:0:
195,191,50916,1,8,0:0:0:0:
200,268,51067,6,0,L|68:266,1,120,0|0,0:0|0:0,0:0:0:0:
53,339,51522,2,0,L|114:339,1,60,8|0,0:0|0:0,0:0:0:0:
189,356,51825,2,0,L|250:356,1,60,0|0,0:0|0:0,0:0:0:0:
310,307,52128,1,8,0:0:0:0:
310,307,52279,1,0,0:0:0:0:
310,307,52431,6,0,P|334:231|324:143,1,120,8|8,0:0|0:3,0:0:0:0:
289,127,52885,2,0,B|263:136|263:136|163:129,1,120,8|8,0:0|0:3,0:0:0:0:
99,97,53340,1,8,0:0:0:0:
62,248,53643,6,0,L|25:302,2,60,4|4|4,0:3|0:3|0:3,0:0:0:0:
139,238,54097,2,0,P|211:250|275:240,1,120,4|0,0:3|0:0,0:0:0:0:
326,209,54552,1,4,0:0:0:0:
479,235,54855,6,0,P|476:307|432:363,1,120,4|8,0:0|0:0,0:0:0:0:
376,340,55309,1,0,0:0:0:0:
300,328,55461,2,0,L|232:364,2,60,0|0|8,0:0|0:0|0:0,0:0:0:0:
346,264,55916,1,0,0:0:0:0:
404,212,56067,6,0,P|396:172|380:152,1,60,0|0,0:0|0:0,0:0:0:0:
316,120,56370,1,8,0:0:0:0:
244,152,56522,2,0,B|208:172|208:172|124:156,1,120,0|0,0:0|0:0,0:0:0:0:
80,98,56976,2,0,L|112:17,1,60,8|0,0:0|0:0,0:0:0:0:
180,40,57279,6,0,L|316:32,1,120,4|8,0:0|0:0,0:0:0:0:
368,68,57734,1,0,0:0:0:0:
437,103,57885,2,0,P|420:127|393:140,1,60,0|0,0:0|0:0,0:0:0:0:
380,217,58188,2,0,L|311:218,1,60,8|0,0:0|0:0,0:0:0:0:
288,152,58491,5,0,0:0:0:0:
288,152,58643,2,0,L|192:160,1,60,0|8,0:0|0:0,0:0:0:0:
160,196,58946,2,0,P|92:184|44:224,1,120,0|0,0:0|0:0,0:0:0:0:
48,288,59400,2,0,P|92:296|132:296,1,60,8|0,0:0|0:0,0:0:0:0:
176,332,59703,6,0,P|232:284|312:296,1,120,4|8,0:0|0:0,0:0:0:0:
348,304,60158,2,0,P|424:284|432:208,1,120,0|0,0:0|0:0,0:0:0:0:
424,176,60613,1,8,0:0:0:0:
384,108,60764,6,0,B|328:80|328:80|252:84,1,120,0|0,0:0|0:0,0:0:0:0:
212,132,61219,1,8,0:0:0:0:
188,208,61370,2,0,B|244:236|244:236|320:232,1,120,0|0,0:0|0:0,0:0:0:0:
378,223,61825,2,0,L|428:170,1,60,8|0,0:0|0:0,0:0:0:0:
462,114,62128,6,0,P|438:50|382:34,1,120,0|8,0:0|0:0,0:0:0:0:
332,80,62582,2,0,B|276:92|276:92|208:88,1,120,0|0,0:0|0:0,0:0:0:0:
144,124,63037,1,8,0:0:0:0:
72,96,63188,6,0,L|48:240,2,120,0|8|8,0:0|0:0|0:0,0:0:0:0:
132,44,63946,2,0,L|236:40,1,60,0|8,0:0|0:0,0:0:0:0:
268,64,64249,1,0,0:0:0:0:
424,44,64552,6,0,P|460:96|400:132,1,120,4|8,0:0|0:0,0:0:0:0:
352,140,65006,1,0,0:0:0:0:
276,148,65158,2,0,L|288:228,2,60,0|0|8,0:0|0:0|0:0,0:0:0:0:
222,90,65613,1,0,0:0:0:0:
156,48,65764,6,0,L|88:72,1,60,0|0,0:0|0:0,0:0:0:0:
48,124,66067,1,8,0:0:0:0:
16,196,66219,2,0,P|28:264|68:320,1,120,0|0,0:0|0:0,0:0:0:0:
130,322,66673,2,0,L|203:306,1,60,0|0,0:0|0:0,0:0:0:0:
266,304,66976,6,0,P|296:252|304:193,1,120,4|12,0:0|0:2,0:0:0:0:
273,121,67431,1,0,0:0:0:0:
195,123,67582,2,0,L|193:57,1,60,0|0,0:0|0:0,0:0:0:0:
263,27,67885,2,0,L|346:26,1,60,8|0,0:0|0:0,0:0:0:0:
405,41,68188,5,0,0:0:0:0:
405,41,68340,2,0,L|413:109,1,60,0|8,0:0|0:0,0:0:0:0:
408,180,68643,2,0,P|368:232|356:292,1,120,0|0,0:0|0:0,0:0:0:0:
340,360,69097,2,0,L|256:344,1,60,8|0,0:0|0:0,0:0:0:0:
204,352,69400,6,0,P|160:296|168:244,1,120,4|8,0:0|0:0,0:0:0:0:
236,216,69855,2,0,B|252:148|252:148|220:88,1,120,0|0,0:0|0:0,0:0:0:0:
152,121,70309,2,0,L|136:189,1,60,8|0,0:0|0:0,0:0:0:0:
100,248,70613,6,0,P|156:292|208:284,1,120,4|8,0:0|0:0,0:0:0:0:
236,216,71068,2,0,B|304:200|304:200|364:232,1,120,0|0,0:0|0:0,0:0:0:0:
392,288,71522,2,0,L|456:284,1,60,8|0,0:3|0:0,0:0:0:0:
484,212,71825,6,0,L|472:84,1,120,12|0,0:0|0:0,0:0:0:0:
404,56,72279,1,8,0:0:0:0:
340,196,72582,1,0,0:0:0:0:
248,68,72885,1,12,0:0:0:0:
148,260,77582,5,0,0:0:0:0:
148,260,77734,2,0,P|208:264|272:208,1,120,8|8,0:0|0:3,0:0:0:0:
332,220,78188,2,0,L|340:288,1,60,0|8,0:0|0:3,0:0:0:0:
476,356,78643,2,0,L|496:264,2,60,0|2|0,1:0|1:3|0:0,0:0:0:0:
400,368,79097,5,4,0:0:0:0:
152,304,83946,6,0,P|92:264|244:64,1,420,8|8,0:0|0:0,0:0:0:0:
243,63,86219,6,0,P|300:108|264:280,2,240,8|8|8,0:0|0:0|0:0,0:0:0:0:
112,148,87734,5,0,0:0:0:0:
112,148,87885,2,0,L|116:224,1,60,8|8,0:3|0:3,0:0:0:0:
104,284,88188,2,0,L|8:292,2,60,8|8|8,0:3|0:3|0:0,0:0:0:0:
180,260,88643,2,0,P|248:236|332:240,1,120,4|0,1:0|1:0,0:0:0:0:
352,284,89097,1,8,0:0:0:0:
404,136,89400,2,0,L|470:151,2,60,0|0|8,1:0|0:0|0:0,0:0:0:0:
337,95,89855,6,0,P|274:79|173:78,1,120,0|0,1:0|1:0,0:0:0:0:
144,100,90309,1,8,0:0:0:0:
108,252,90613,2,0,L|44:256,2,60,0|0|8,1:0|1:0|0:0,0:0:0:0:
160,308,91067,6,0,B|223:311|223:311|305:295,1,120,0|0,1:0|1:0,0:0:0:0:
350,268,91522,1,8,0:0:0:0:
407,123,91825,2,0,L|471:119,2,60,0|0|8,0:0|1:0|0:0,0:0:0:0:
355,67,92279,6,0,B|292:64|292:64|210:80,1,120,0|0,1:0|1:0,0:0:0:0:
165,107,92734,2,0,P|161:138|165:186,1,60,8|0,0:0|1:0,0:0:0:0:
173,244,93037,2,0,L|93:239,2,60,0|8|8,1:0|0:3|0:3,0:0:0:0:
234,290,93491,6,0,P|294:290|348:265,1,120,4|0,1:0|0:0,0:0:0:0:
425,258,93946,2,0,L|446:189,1,60,8|0,0:0|0:0,0:0:0:0:
485,135,94249,2,0,B|421:106|421:106|355:98,1,120,0|8,1:0|0:0,0:0:0:0:
307,144,94703,5,0,1:0:0:0:
307,144,94855,2,0,L|240:126,1,60,0|0,0:0|1:0,0:0:0:0:
198,188,95158,2,0,L|131:206,1,60,8|0,0:0|0:0,0:0:0:0:
61,339,95613,2,0,L|144:333,1,60,2|8,0:0|0:0,0:0:0:0:
197,349,95916,6,0,B|225:324|225:324|319:309,1,120,0|0,1:0|1:0,0:0:0:0:
379,338,96370,2,0,L|443:307,1,60,8|0,0:0|0:0,0:0:0:0:
445,234,96673,2,0,L|507:234,2,60,0|2|8,0:0|0:0|0:0,0:0:0:0:
373,201,97128,6,0,P|316:147|296:101,1,120,0|0,1:0|0:0,0:0:0:0:
347,49,97582,2,0,P|386:38|418:42,1,60,8|8,0:0|0:3,0:0:0:0:
474,75,97885,2,0,L|466:199,1,120,8|8,0:3|0:0,0:0:0:0:
429,263,98340,6,0,B|394:242|394:242|294:263,1,120,4|0,1:0|0:0,0:0:0:0:
265,316,98794,2,0,L|202:310,1,60,8|0,0:0|0:0,0:0:0:0:
129,330,99097,2,0,P|117:291|121:202,1,120,0|8,1:0|0:0,0:0:0:0:
178,161,99552,5,0,1:0:0:0:
178,161,99703,2,0,L|256:151,1,60,0|0,0:0|0:0,0:0:0:0:
285,215,100006,2,0,L|363:225,1,60,8|0,0:0|0:0,0:0:0:0:
390,73,100461,2,0,L|318:74,1,60,2|8,0:0|0:0,0:0:0:0:
251,69,100764,6,0,L|66:60,1,180,4|8,1:0|0:0,0:0:0:0:
26,124,101370,2,0,P|22:188|154:211,1,180,4|8,1:0|0:0,0:0:0:0:
185,203,101976,2,0,B|253:186|253:186|331:198,1,120,4|0,1:0|0:0,0:0:0:0:
377,216,102431,1,0,1:0:0:0:
447,354,102734,2,0,L|355:351,1,60,0|0,1:0|1:0,0:0:0:0:
317,315,103037,2,0,L|252:326,1,60,8|0,1:0|0:0,0:0:0:0:
190,284,103340,6,0,P|121:284|65:233,1,120,0|0,1:0|1:0,0:0:0:0:
90,100,103946,2,0,B|160:94|160:94|270:148,1,180,0|0,1:0|1:0,0:0:0:0:
354,265,104703,5,0,1:0:0:0:
354,265,104855,2,0,L|354:328,1,60,0|0,0:0|1:0,0:0:0:0:
278,346,105158,2,0,L|278:286,1,60,8|8,1:3|0:3,0:0:0:0:
276,207,105461,1,8,1:3:0:0:
431,205,105764,6,0,L|431:334,1,120,4|8,0:0|0:0,0:0:0:0:
358,355,106219,2,0,P|285:349|210:298,1,120,0|0,0:0|0:0,0:0:0:0:
171,298,106673,1,8,0:0:0:0:
171,298,106825,6,0,P|208:238|208:151,1,120,4|0,0:0|0:0,0:0:0:0:
287,162,107279,2,0,P|266:136|255:105,1,60,8|0,0:0|0:0,0:0:0:0:
264,33,107582,1,0,0:0:0:0:
364,152,107885,2,0,P|357:195|325:224,1,60,8|0,0:0|0:0,0:0:0:0:
276,239,108188,6,0,P|223:213|216:129,1,120,4|8,0:0|0:0,0:0:0:0:
246,90,108643,2,0,P|305:83|368:156,1,120,0|0,0:0|0:0,0:0:0:0:
338,192,109097,1,8,0:0:0:0:
276,239,109249,6,0,L|140:232,1,120,4|0,0:0|0:0,0:0:0:0:
128,160,109703,1,8,0:0:0:0:
205,169,109855,2,0,P|228:242|174:303,1,120,0|0,0:0|0:0,0:0:0:0:
167,342,110309,1,8,0:0:0:0:
244,350,110461,6,0,B|272:333|287:293|287:293|341:336|416:322,1,180,4|8,0:0|0:0,0:0:0:0:
464,319,111067,2,0,P|481:277|466:182,1,120,0|0,0:0|0:0,0:0:0:0:
412,157,111522,1,8,0:0:0:0:
352,207,111673,6,0,L|223:188,1,120,4|0,0:0|0:0,0:0:0:0:
165,150,112128,1,8,0:0:0:0:
118,298,112431,2,0,L|179:309,1,60,0|0,0:0|0:0,0:0:0:0:
248,340,112734,1,8,0:0:0:0:
391,278,113037,6,0,P|426:237|414:160,1,120,0|0,1:0|1:0,0:0:0:0:
284,102,113643,2,0,B|250:157|250:157|277:276,1,180,0|0,1:0|1:0,0:0:0:0:
396,368,114400,5,0,1:0:0:0:
396,368,114551,2,0,L|392:291,1,60,0|0,0:0|1:0,0:0:0:0:
460,267,114855,2,0,L|451:196,1,60,0|0,0:0|0:0,0:0:0:0:
395,153,115158,1,0,1:0:0:0:
256,81,115461,6,0,B|212:129|212:129|208:200,1,120,4|8,0:0|0:0,0:0:0:0:
232,258,115916,2,0,P|288:266|343:235,1,120,0|0,0:0|0:0,0:0:0:0:
349,158,116370,1,8,0:0:0:0:
342,80,116522,6,0,P|397:55|476:65,1,120,4|0,0:0|0:0,0:0:0:0:
490,126,116976,1,8,0:0:0:0:
433,271,117279,6,0,L|470:378,2,90,0|0|0,0:0|0:0|0:0,0:0:0:0:
387,207,117885,6,0,B|350:227|350:227|274:211,1,120,4|12,0:0|0:2,0:0:0:0:
192,77,118491,2,0,P|221:70|251:71,1,60,0|0,0:0|0:0,0:0:0:0:
324,98,118794,1,8,0:0:0:0:
401,88,118946,6,0,B|421:141|421:141|458:159|462:204,1,120,0|0,0:0|0:0,0:0:0:0:
441,264,119400,2,0,P|402:278|363:274,1,60,8|0,0:0|0:0,0:0:0:0:
330,335,119703,2,0,L|272:303,1,60,0|0,0:0|0:0,0:0:0:0:
213,345,120006,1,8,0:0:0:0:
213,345,120158,1,0,0:0:0:0:
213,345,120309,6,0,P|160:347|251:210,1,360,0|0,0:0|0:0,0:0:0:0:
359,294,121522,6,0,B|354:325|354:325|326:361,2,60,4|4|4,0:3|0:3|0:3,0:0:0:0:
423,250,121976,2,0,B|405:222|405:222|399:129,1,120,4|0,0:3|0:0,0:0:0:0:
385,58,122431,1,8,0:0:0:0:
229,42,122734,6,0,B|180:60|180:60|112:68,1,120,4|8,0:0|0:0,0:0:0:0:
56,120,123188,1,0,0:0:0:0:
72,196,123340,2,0,P|16:208|-12:200,2,60,0|0|8,0:0|0:0|0:0,0:0:0:0:
148,176,123794,1,0,0:0:0:0:
224,160,123946,6,0,P|240:192|240:216,1,60,0|0,0:0|0:0,0:0:0:0:
204,284,124249,1,8,0:0:0:0:
232,356,124400,2,0,P|296:356|376:332,1,120,0|0,0:0|0:0,0:0:0:0:
396,280,124855,2,0,L|420:200,1,60,8|0,0:0|0:0,0:0:0:0:
448,152,125158,6,0,B|380:116|380:116|312:120,1,120,4|8,0:0|0:0,0:0:0:0:
260,96,125613,1,0,0:0:0:0:
188,124,125764,2,0,L|199:182,1,60,0|0,0:0|0:0,0:0:0:0:
276,184,126067,2,0,L|288:252,1,60,8|0,0:0|0:0,0:0:0:0:
216,276,126370,5,0,0:0:0:0:
216,276,126522,2,0,L|152:276,1,60,0|8,0:0|0:0,0:0:0:0:
136,352,126825,2,0,L|260:352,1,120,0|0,0:0|0:0,0:0:0:0:
316,300,127279,2,0,L|376:312,1,60,0|0,0:0|0:0,0:0:0:0:
452,292,127582,6,0,P|472:240|444:160,1,120,4|8,0:0|0:0,0:0:0:0:
404,124,128037,2,0,B|372:140|372:140|284:100,1,120,0|0,0:0|0:0,0:0:0:0:
232,64,128491,1,8,0:0:0:0:
156,72,128643,6,0,P|120:72|96:160,1,120,0|0,0:0|0:0,0:0:0:0:
148,188,129097,1,8,0:0:0:0:
200,248,129249,2,0,P|244:264|328:248,1,120,0|0,0:0|0:0,0:0:0:0:
388,228,129703,2,0,L|400:288,1,60,8|0,0:0|0:0,0:0:0:0:
364,356,130006,6,0,B|320:344|320:344|292:352|292:352|224:340,1,120,0|8,0:0|0:0,0:0:0:0:
172,324,130461,2,0,P|128:292|128:208,1,120,0|0,0:0|0:0,0:0:0:0:
164,164,130916,1,8,0:0:0:0:
240,184,131067,6,0,P|272:192|376:176,2,120,0|0|8,0:0|0:0|0:0,0:0:0:0:
224,108,131825,2,0,P|192:88|164:88,1,60,0|8,0:0|0:0,0:0:0:0:
100,120,132128,1,8,0:0:0:0:
118,274,132431,6,0,B|188:282|188:282|252:269,1,120,4|8,0:0|0:0,0:0:0:0:
308,241,132885,1,0,0:0:0:0:
385,250,133037,2,0,L|397:313,2,60,0|0|8,0:0|0:0|0:0,0:0:0:0:
408,176,133491,1,0,0:0:0:0:
417,97,133643,6,0,L|351:90,1,60,0|0,0:0|0:0,0:0:0:0:
282,113,133946,1,8,0:0:0:0:
214,74,134097,2,0,B|201:118|201:118|137:169,1,120,0|0,0:0|0:0,0:0:0:0:
72,200,134552,2,0,L|8:160,1,60,8|0,0:0|0:0,0:0:0:0:
27,90,134855,6,0,B|62:62|62:62|148:56,1,120,4|8,0:0|0:0,0:0:0:0:
214,74,135310,1,0,0:0:0:0:
288,100,135461,2,0,L|266:155,1,60,0|0,0:0|0:0,0:0:0:0:
336,188,135764,2,0,L|314:243,1,60,8|0,0:0|0:0,0:0:0:0:
240,235,136067,5,0,0:0:0:0:
240,235,136219,2,0,L|172:221,1,60,0|8,0:0|0:0,0:0:0:0:
125,277,136522,2,0,P|161:293|215:358,1,120,0|0,0:0|0:0,0:0:0:0:
289,363,136976,2,0,P|316:355|352:326,1,60,8|0,0:0|0:0,0:0:0:0:
414,306,137279,6,0,B|385:268|385:268|379:178,1,120,4|8,0:0|0:0,0:0:0:0:
416,126,137734,2,0,P|377:91|290:66,1,120,0|0,0:0|0:0,0:0:0:0:
244,104,138188,2,0,L|176:92,1,60,8|0,0:0|0:0,0:0:0:0:
107,74,138491,6,0,B|73:102|73:102|51:188,1,120,4|8,0:0|0:0,0:0:0:0:
75,250,138946,2,0,P|112:260|199:238,1,120,0|0,0:0|0:0,0:0:0:0:
254,199,139400,2,0,P|303:200|334:212,1,60,8|0,0:0|0:0,0:0:0:0:
383,236,139703,6,0,L|368:300,2,60,12|0|0,0:0|0:0|0:0,0:0:0:0:
428,172,140158,2,0,P|384:148|328:92,1,120,8|0,0:0|0:0,0:0:0:0:
256,88,140613,1,8,0:0:0:0:
178,99,140764,6,0,P|135:142|84:172,2,120,4|8|0,0:0|0:0|0:0,0:0:0:0:
256,88,141522,2,0,L|256:148,1,60,8|8,0:0|0:0,0:0:0:0:
256,228,141825,2,0,L|256:288,1,60,8|8,0:0|0:0,0:0:0:0:
316,340,142128,5,4,0:0:0:0:
448,257,142431,2,0,L|460:315,2,60,8|0|0,0:0|0:0|0:0,0:0:0:0:
397,198,142885,2,0,L|409:139,2,60,0|8|0,0:0|0:0|0:0,0:0:0:0:
369,271,143340,6,0,B|329:254|329:254|272:186,1,120,0|8,0:0|0:0,0:0:0:0:
250,123,143794,2,0,P|201:135|124:135,1,120,0|0,0:0|0:0,0:0:0:0:
54,123,144249,1,8,0:0:0:0:
68,200,144400,6,0,L|44:276,2,60,0|0|0,0:0|0:0|0:0,0:0:0:0:
140,232,144855,2,0,L|216:212,1,60,8|0,0:0|0:0,0:0:0:0:
268,248,145158,2,0,P|288:212|384:188,1,120,0|8,0:0|0:0,0:0:0:0:
436,180,145613,6,0,B|428:220|428:220|460:304,1,120,0|0,0:0|0:0,0:0:0:0:
412,360,146067,1,8,0:0:0:0:
412,360,146219,2,0,L|272:344,1,120,0|0,0:0|0:0,0:0:0:0:
216,364,146673,2,0,L|156:336,1,60,8|0,0:0|0:0,0:0:0:0:
92,300,146976,5,4,0:0:0:0:
192,180,147279,2,0,L|248:216,1,60,8|0,0:0|0:0,0:0:0:0:
304,260,147582,2,0,L|376:248,2,60,0|0|8,0:0|0:0|0:0,0:0:0:0:
232,288,148037,1,0,0:0:0:0:
156,312,148188,6,0,L|124:236,2,60,0|0|8,0:0|0:0|0:0,0:0:0:0:
216,364,148643,2,0,L|360:364,1,120,0|0,0:0|0:0,0:0:0:0:
388,308,149097,1,8,0:0:0:0:
464,328,149249,6,0,P|464:292|408:232,1,120,4|0,0:0|0:0,0:0:0:0:
332,244,149703,1,8,0:0:0:0:
256,256,149855,2,0,P|210:218|202:160,1,120,0|0,0:0|0:0,0:0:0:0:
200,84,150309,2,0,L|276:72,1,60,0|8,0:0|0:0,0:0:0:0:
320,124,150613,6,0,L|380:88,2,60,0|8|0,0:0|0:0|0:0,0:0:0:0:
404,256,151219,2,0,L|336:276,1,60,0|8,0:0|0:3,0:0:0:0:
292,328,151522,2,0,L|220:316,1,60,8|8,0:3|0:0,0:0:0:0:
156,320,151825,6,0,P|168:264|124:200,1,120,4|8,0:0|0:0,0:0:0:0:
144,132,152279,1,0,0:0:0:0:
208,88,152431,2,0,L|272:112,2,60,0|0|8,0:0|0:0|0:0,0:0:0:0:
52,68,153037,6,0,L|48:128,1,60,0|0,0:0|0:0,0:0:0:0:
60,204,153340,2,0,L|56:264,1,60,8|0,0:0|0:0,0:0:0:0:
96,332,153643,2,0,L|24:344,2,60,0|0|8,0:0|0:0|0:0,0:0:0:0:
168,304,154097,1,0,0:0:0:0:
240,336,154249,6,0,L|372:312,1,120,0|8,0:0|0:0,0:0:0:0:
416,264,154703,1,0,0:0:0:0:
488,296,154855,2,0,L|492:368,2,60,0|0|8,0:0|0:0|0:0,0:0:0:0:
468,140,155461,6,0,L|400:152,1,60,0|0,0:0|0:0,0:0:0:0:
340,188,155764,2,0,L|272:176,1,60,8|0,0:0|0:0,0:0:0:0:
208,148,156067,2,0,L|200:208,2,60,0|0|8,0:0|0:0|0:0,0:0:0:0:
168,80,156522,1,0,0:0:0:0:
100,116,156673,6,0,B|112:160|112:160|96:248,1,120,4|8,0:0|0:0,0:0:0:0:
108,312,157128,1,0,0:0:0:0:
180,284,157279,2,0,P|268:260|316:268,1,120,0|8,0:0|0:0,0:0:0:0:
368,288,157734,1,0,0:0:0:0:
440,320,157885,6,0,P|480:304|468:216,1,120,0|8,0:0|0:0,0:0:0:0:
412,216,158340,1,0,0:0:0:0:
352,168,158491,2,0,L|208:180,1,120,0|8,0:0|0:0,0:0:0:0:
164,140,158946,1,0,0:0:0:0:
92,164,159097,6,0,L|88:296,2,120,4|8|0,0:0|0:0|0:0,0:0:0:0:
188,44,160006,1,0,0:0:0:0:
188,44,160158,6,0,B|232:72|232:72|320:72,1,120,12|8,0:0|0:0,0:0:0:0:
372,96,160613,2,0,L|440:76,2,60,0|0|8,0:0|0:0|0:0,0:0:0:0:
316,152,161067,1,0,0:0:0:0:
392,172,161219,2,0,P|372:212|340:224,1,60,0|8,0:0|0:0,0:0:0:0:
316,284,161522,6,0,B|272:256|272:256|184:248,1,120,4|8,0:0|0:0,0:0:0:0:
128,268,161976,1,0,0:0:0:0:
52,252,162128,2,0,P|44:200|96:136,1,120,0|8,0:0|0:0,0:0:0:0:
156,136,162582,1,0,0:0:0:0:
236,132,162734,2,0,L|304:100,1,60,0|0,0:0|0:0,0:0:0:0:
348,160,163037,2,0,L|408:152,1,60,8|0,0:0|0:0,0:0:0:0:
436,224,163340,2,0,L|500:232,2,60,0|0|8,0:0|0:0|0:0,0:0:0:0:
376,272,163794,1,0,0:0:0:0:
300,252,163946,6,0,P|256:240|184:268,1,120,4|8,0:0|0:0,0:0:0:0:
144,200,164400,2,0,L|264:148,1,120,0|0,0:0|0:0,0:0:0:0:
304,92,164855,1,8,0:0:0:0:
368,132,165006,2,0,P|396:148|404:232,1,120,4|0,0:0|0:0,0:0:0:0:
420,304,165461,2,0,L|348:312,1,60,4|0,0:2|0:0,0:0:0:0:
288,284,165764,1,0,0:0:0:0:
240,136,166067,2,0,L|172:120,1,60,0|0,0:0|0:0,0:0:0:0:
104,132,166370,6,0,P|84:164|88:248,1,120,4|8,0:0|0:0,0:0:0:0:
144,296,166825,2,0,L|272:284,1,120,0|0,0:0|0:0,0:0:0:0:
336,312,167279,2,0,L|384:264,1,60,8|0,0:0|0:0,0:0:0:0:
452,240,167582,6,0,B|476:176|476:176|448:120,1,120,4|8,0:0|0:0,0:0:0:0:
396,76,168037,2,0,B|372:140|372:140|400:196,1,120,0|0,0:0|0:0,0:0:0:0:
452,240,168491,2,0,L|448:316,1,60,8|0,0:0|0:0,0:0:0:0:
256,192,168794,12,0,169931,0:0:0:0:
256,192,170006,12,0,171219,0:0:0:0:
228,100,180764,6,0,B|236:144|236:144|208:172|208:172|216:228,2,120,8|8|8,0:0|0:0|0:0,0:0:0:0:
72,80,181673,1,0,0:0:0:0:
48,156,181825,2,0,L|56:224,1,60,0|0,0:0|0:0,0:0:0:0:
48,292,182128,6,0,L|168:296,1,120,4|8,0:0|0:0,0:0:0:0:
228,344,182582,1,0,0:0:0:0:
300,312,182734,2,0,L|336:368,2,60,0|0|8,0:0|0:0|0:0,0:0:0:0:
239,263,183188,1,0,0:0:0:0:
177,214,183340,6,0,B|174:181|174:181|191:141,1,60,0|0,0:0|0:0,0:0:0:0:
252,116,183643,1,8,0:0:0:0:
329,125,183794,2,0,L|466:128,1,120,0|0,0:0|0:0,0:0:0:0:
493,192,184249,2,0,L|486:274,1,60,8|0,0:0|0:0,0:0:0:0:
442,315,184552,6,0,P|400:299|306:297,1,120,4|8,0:0|0:0,0:0:0:0:
251,317,185006,1,0,0:0:0:0:
181,280,185158,2,0,L|174:209,1,60,0|0,0:0|0:0,0:0:0:0:
222,158,185461,2,0,L|288:155,1,60,8|0,0:0|0:0,0:0:0:0:
339,207,185764,5,0,0:0:0:0:
339,207,185916,2,0,L|343:281,1,60,0|8,0:0|0:0,0:0:0:0:
325,343,186219,2,0,L|183:354,1,120,0|0,0:0|0:0,0:0:0:0:
127,346,186673,2,0,L|120:272,1,60,8|0,0:0|0:0,0:0:0:0:
106,209,186976,6,0,P|139:182|153:100,1,120,4|8,0:0|0:0,0:0:0:0:
193,40,187431,2,0,L|316:48,1,120,0|0,0:0|0:0,0:0:0:0:
359,109,187885,1,8,0:0:0:0:
311,170,188037,6,0,P|301:214|366:249,1,120,0|0,0:0|0:0,0:0:0:0:
424,288,188491,1,8,0:0:0:0:
379,352,188643,2,0,L|257:344,1,120,0|0,0:0|0:0,0:0:0:0:
181,351,189097,2,0,L|180:284,1,60,8|0,0:0|0:0,0:0:0:0:
105,267,189400,6,0,P|122:217|122:126,1,120,0|8,0:0|0:0,0:0:0:0:
87,82,189855,2,0,P|137:69|232:75,1,120,0|0,0:0|0:0,0:0:0:0:
254,128,190309,1,8,0:0:0:0:
324,162,190461,6,0,L|440:117,2,120,0|8|8,0:0|0:0|0:0,0:0:0:0:
258,205,191219,2,0,P|217:195|199:178,1,60,0|8,0:0|0:0,0:0:0:0:
156,121,191522,1,0,0:0:0:0:
58,242,191825,6,0,P|104:257|172:296,1,120,4|8,0:0|0:0,0:0:0:0:
238,320,192279,1,0,0:0:0:0:
311,292,192431,2,0,L|332:362,2,60,0|0|8,0:0|0:0|0:0,0:0:0:0:
332,216,192885,1,0,0:0:0:0:
392,164,193037,2,0,P|420:168|468:148,1,60,0|0,0:0|0:0,0:0:0:0:
420,88,193340,1,8,0:0:0:0:
344,100,193491,2,0,L|204:80,1,120,0|0,0:0|0:0,0:0:0:0:
152,108,193946,2,0,L|152:168,1,60,8|0,0:0|0:0,0:0:0:0:
164,244,194249,6,0,B|224:232|224:232|292:240,1,120,4|12,0:0|0:2,0:0:0:0:
316,308,194703,1,0,0:0:0:0:
392,296,194855,2,0,L|392:236,1,60,0|0,0:0|0:0,0:0:0:0:
468,216,195158,2,0,L|468:156,1,60,8|0,0:0|0:0,0:0:0:0:
420,92,195461,5,0,0:0:0:0:
420,92,195613,2,0,L|352:88,1,60,0|8,0:0|0:0,0:0:0:0:
324,156,195916,2,0,L|200:136,1,120,0|0,0:0|0:0,0:0:0:0:
132,112,196370,2,0,L|124:176,1,60,8|0,0:0|0:0,0:0:0:0:
100,244,196673,6,0,L|236:256,1,120,4|8,0:0|0:0,0:0:0:0:
256,324,197128,2,0,P|300:296|392:292,1,120,0|0,0:0|0:0,0:0:0:0:
444,288,197582,2,0,L|448:220,1,60,8|0,0:0|0:0,0:0:0:0:
424,152,197885,6,0,L|288:140,1,120,4|8,0:0|0:0,0:0:0:0:
268,72,198340,2,0,P|224:100|132:104,1,120,0|0,0:0|0:0,0:0:0:0:
80,108,198794,2,0,L|76:176,1,60,8|0,0:0|0:0,0:0:0:0:
100,244,199097,6,0,P|72:276|120:336,1,120,12|0,0:0|0:0,0:0:0:0:
184,328,199552,2,0,L|328:312,1,120,8|0,0:0|0:0,0:0:0:0:
336,160,200158,6,0,L|192:144,1,120,0|0,0:0|0:0,0:0:0:0:
160,96,200613,2,0,L|108:52,1,60,8|0,0:0|0:0,0:0:0:0:
84,128,200916,2,0,L|20:112,2,60,8|8|8,0:3|0:3|0:3,0:0:0:0:
92,284,201522,6,0,L|224:276,1,120,4|8,0:0|0:0,0:0:0:0:
280,312,201976,2,0,P|328:292|316:220,1,120,0|0,0:0|0:0,0:0:0:0:
312,156,202431,2,0,L|244:172,1,60,8|0,0:0|0:0,0:0:0:0:
220,100,202734,6,0,L|344:68,1,120,4|8,0:0|0:0,0:0:0:0:
408,100,203188,2,0,P|440:128|420:212,1,120,0|0,0:0|0:0,0:0:0:0:
460,272,203643,2,0,L|376:276,1,60,8|0,0:3|0:0,0:0:0:0:
332,312,203946,6,0,P|308:260|244:284,1,120,12|0,0:0|0:0,0:0:0:0:
208,332,204400,2,0,P|152:339|130:288,1,120,8|0,0:0|0:0,0:0:0:0:
156,216,204855,1,12,0:0:0:0:
180,140,205006,6,0,L|56:128,2,120,0|12|0,0:0|0:0|0:0,0:0:0:0:
252,108,205764,2,0,L|260:36,2,60,0|8|0,0:0|0:0|0:0,0:0:0:0:
244,184,206219,1,8,0:0:0:0:
256,192,206370,12,0,208794,0:0:0:0:
168,200,209400,6,0,L|180:268,2,60,0|0|8,0:0|0:0|0:0,0:0:0:0:
232,152,209855,2,0,P|248:192|324:228,1,120,0|0,0:0|0:0,0:0:0:0:
380,192,210309,2,0,P|420:200|440:220,1,60,8|0,0:0|0:0,0:0:0:0:
452,288,210613,1,0,0:0:0:0:
472,132,210916,1,8,0:0:0:0:
316,116,211219,6,0,P|296:88|196:72,1,120,4|8,0:0|0:0,0:0:0:0:
160,120,211673,1,0,0:0:0:0:
144,196,211825,2,0,L|72:192,2,60,0|0|8,0:0|0:0|0:0,0:0:0:0:
248,312,212431,6,0,L|308:280,1,60,0|0,0:0|0:0,0:0:0:0:
296,204,212734,2,0,L|364:208,1,60,8|0,0:0|0:0,0:0:0:0:
416,260,213037,2,0,P|436:224|408:148,1,120,0|0,0:0|0:0,0:0:0:0:
432,76,213491,6,0,L|296:64,1,120,0|0,0:0|0:0,0:0:0:0:
260,120,213946,1,8,0:0:0:0:
108,148,214249,2,0,L|104:216,1,60,0|0,0:0|0:0,0:0:0:0:
176,236,214552,2,0,L|179:176,2,60,0|12|0,0:0|0:0|0:0,0:0:0:0:
224,296,215006,1,8,0:0:0:0:
296,324,215158,2,0,L|355:327,2,60,0|8|8,0:0|0:0|0:3,0:0:0:0:
144,352,215764,1,0,0:0:0:0:
52,224,216067,6,0,L|64:88,1,120,4|12,0:0|0:0,0:0:0:0:
216,80,216673,2,0,L|280:64,2,60,0|0|8,0:0|0:0|0:0,0:0:0:0:
204,156,217128,2,0,L|328:152,1,120,0|0,0:0|0:0,0:0:0:0:
396,124,217582,2,0,L|464:128,1,60,8|0,0:0|0:0,0:0:0:0:
472,204,217885,2,0,L|332:224,1,120,0|8,0:0|0:0,0:0:0:0:
304,276,218340,6,0,P|264:244|176:248,1,120,0|0,0:0|0:0,0:0:0:0:
132,280,218794,2,0,P|96:276|72:256,1,60,8|0,0:0|0:0,0:0:0:0:
84,184,219097,1,0,0:0:0:0:
232,132,219400,1,8,0:0:0:0:
232,132,219552,6,0,L|352:124,1,120,0|0,0:0|0:0,0:0:0:0:
428,136,220006,2,0,L|436:204,1,60,8|0,0:0|0:0,0:0:0:0:
408,268,220309,2,0,L|344:268,1,60,0|0,0:0|0:0,0:0:0:0:
304,336,220613,2,0,L|232:304,1,60,8|0,0:0|0:0,0:0:0:0:
216,240,220916,5,4,0:0:0:0:
108,128,221219,1,12,0:0:0:0:
260,96,221522,2,0,L|320:96,1,60,8|8,0:3|0:3,0:0:0:0:
340,172,221825,2,0,L|280:172,1,60,8|0,0:3|0:0,0:0:0:0:
204,156,222128,6,0,P|180:116|208:36,1,120,12|12,0:3|0:0,0:0:0:0:
424,104,222885,2,0,L|432:176,1,60,8|8,0:3|0:3,0:0:0:0:
440,240,223188,6,0,B|400:240|400:240|324:264,1,120,4|0,0:0|0:0,0:0:0:0:
276,328,223643,1,8,0:3:0:0:
188,200,223946,2,0,L|316:168,1,120,8|0,0:0|0:0,0:0:0:0:
336,100,224400,6,0,B|292:96|292:96|212:116,1,120,4|0,0:0|0:0,0:0:0:0:
144,132,224855,1,0,0:0:0:0:
148,288,225158,2,0,P|156:328|236:324,1,120,8|8,0:3|0:3,0:0:0:0:
272,276,225613,6,0,B|328:288|328:288|416:276,1,120,4|0,0:0|0:0,0:0:0:0:
456,240,226067,1,8,0:0:0:0:
392,100,226370,2,0,L|244:100,1,120,0|0,0:0|0:0,0:0:0:0:
204,136,226825,6,0,P|140:124|64:132,1,120,8|8,0:0|0:0,0:0:0:0:
140,272,227431,2,0,P|204:284|280:276,1,120,8|8,0:0|0:0,0:0:0:0:
392,204,228037,2,0,P|328:192|252:200,1,120,12|0,0:0|0:3,0:0:0:0:
328,340,228643,2,0,P|392:352|468:344,1,120,12|8,0:3|0:3,0:0:0:0:
472,196,229249,5,12,0:0:0:0:
