osu file format v14

[General]
AudioFilename: Souzou Forest.mp3
AudioLeadIn: 2000
PreviewTime: 68628
Countdown: 0
SampleSet: Soft
StackLeniency: 0.7
Mode: 0
LetterboxInBreaks: 1
WidescreenStoryboard: 0

[Editor]
Bookmarks: 111157
DistanceSpacing: 1.2
BeatDivisor: 4
GridSize: 4
TimelineZoom: 1.4

[Metadata]
Title:Kuusou Forest
TitleUnicode:空想フォレスト
Artist:Jin ft. Takumi Yoshida
ArtistUnicode:じん ft. ヨシダタクミ
Creator:Moway
Version:Normal
Source:メカクシティアクターズ
Tags:カゲロウプロジェクト 想像フォレスト souzou 自然の敵p shizen no teki-p fantasy imaginary imagination vocaloid ia kagerou project mekakucity actors phatmans after school cut version marry kozakura
BeatmapID:681379
BeatmapSetID:304072

[Difficulty]
HPDrainRate:4
CircleSize:3.3
OverallDifficulty:4
ApproachRate:5
SliderMultiplier:1.2
SliderTickRate:1

[Events]
//Background and Video events
0,0,"bg.jpg",0,0
//Break Periods
//Storyboard Layer 0 (Background)
//Storyboard Layer 1 (Fail)
//Storyboard Layer 2 (Pass)
//Storyboard Layer 3 (Foreground)
//Storyboard Sound Samples

[TimingPoints]
1040,352.941176470588,4,2,2,50,1,0
1040,-100,4,2,2,50,0,0
23098,-100,4,2,1,60,0,0
34922,-100,4,2,1,70,0,0
63157,-100,4,2,1,75,0,0
68804,-100,4,2,1,80,0,1
80098,-100,4,2,1,80,0,0
80451,-100,4,2,1,80,0,1
80804,-100,4,2,1,80,0,1
91392,-100,4,2,1,80,0,0
101981,-100,4,2,1,50,0,0
102687,-100,4,2,2,50,0,0
113981,-100,4,2,2,40,0,0
115392,-100,4,2,2,30,0,0
116804,-100,4,2,2,20,0,0
118216,-100,4,2,2,5,0,0

[Colours]
Combo1 : 128,255,255
Combo2 : 255,128,192
Combo3 : 255,255,128
Combo4 : 128,255,128

[HitObjects]
275,258,1040,6,0,B|341:238|392:283|392:283|421:233,2,180,2|0|0,0:0|0:0|0:0,0:0:0:0:
218,279,2275,2,0,P|175:291|151:148,1,240,0|0,0:0|0:0,0:0:0:0:
256,108,3334,2,0,L|323:96,1,60,0|0,0:0|0:0,0:0:0:0:
431,69,3863,5,2,0:0:0:0:
398,184,4216,2,0,P|390:224|415:298,2,120,0|0|0,0:0|0:0|0:0,0:0:0:0:
447,149,5098,1,0,0:0:0:0:
123,307,6157,2,0,L|106:185,1,120,2|0,0:0|0:0,0:0:0:0:
100,127,6687,6,0,P|132:104|231:186,1,180,2|0,0:0|0:0,0:0:0:0:
239,230,7392,2,0,L|316:226,1,60,0|0,0:0|0:0,0:0:0:0:
400,161,7922,2,0,L|525:154,2,120,0|0|0,0:0|0:0|0:0,0:0:0:0:
340,165,8804,2,0,P|303:168|370:104,1,240,0|2,0:0|0:0,0:0:0:0:
256,272,12334,6,0,L|72:278,2,180,2|0|0,0:0|0:0|0:0,0:0:0:0:
316,272,13569,2,0,B|338:237|328:159|328:159|395:193|466:171,1,240,0|0,0:0|0:0,0:0:0:0:
366,87,14628,2,0,P|325:76|252:126,1,120,0|0,0:0|0:0,0:0:0:0:
231,164,15157,6,0,L|46:145,1,180,2|0,0:0|0:0,0:0:0:0:
102,254,16039,1,0,0:0:0:0:
222,255,16392,2,0,P|264:255|317:196,2,120,2|0|0,0:0|0:0|0:0,0:0:0:0:
318,326,17451,2,0,L|389:336,1,60,0|0,0:0|0:0,0:0:0:0:
477,267,17981,6,0,B|491:144|491:144|441:173,2,180,2|0|0,0:0|0:0|0:0,0:0:0:0:
467,326,19216,1,0,0:0:0:0:
381,241,19569,2,0,P|319:225|256:238,1,120,0|0,0:0|0:0,0:0:0:0:
170,308,20275,2,0,P|111:317|53:301,1,120
4,267,20804,1,2,0:0:0:0:
256,20,23098,6,0,L|256:80,1,60,2|8,0:0|0:0,0:0:0:0:
189,194,23628,6,0,P|238:212|310:200,1,120,4|2,0:0|0:0,0:0:0:0:
365,178,24157,2,0,L|397:310,2,120,0|0|0,0:0|0:0|0:0,0:0:0:0:
451,78,25216,2,0,L|511:64,2,60,0|2|0,0:0|0:0|0:0,0:0:0:0:
318,87,25922,2,0,P|269:70|199:78,1,120,0|0,0:0|0:0,0:0:0:0:
136,70,26451,6,0,L|148:198,1,120,2|2,0:0|0:0,0:0:0:0:
154,255,26981,2,0,P|128:301|65:298,2,120,0|0|0,0:0|0:0|0:0,0:0:0:0:
210,220,27863,2,0,L|332:216,1,120,2|2,0:0|0:0,0:0:0:0:
413,113,28569,2,0,L|291:117,1,120,2|2,0:0|0:0,0:0:0:0:
227,109,29098,1,0,0:0:0:0:
173,148,29275,6,0,P|115:146|64:93,1,120,2|2,0:0|0:0,0:0:0:0:
166,15,29981,1,0,0:0:0:0:
283,75,30334,1,2,0:0:0:0:
283,139,30510,2,0,L|283:266,1,120,0|0,0:0|0:0,0:0:0:0:
288,324,31039,2,0,P|335:311|413:318,2,120,2|2|2,0:0|0:0|0:0,0:0:0:0:
222,336,31922,1,0,0:0:0:0:
158,354,32098,6,0,P|109:347|70:274,1,120,0|2,0:0|0:0,0:0:0:0:
88,160,32804,2,0,B|103:117|103:117|84:43,1,120,2|2,0:0|0:0,0:0:0:0:
150,60,33334,2,0,P|209:74|272:67,2,120,0|0|0,0:0|0:0|0:0,0:0:0:0:
242,153,34392,2,0,L|311:136,1,60,0|8,0:0|0:0,0:0:0:0:
402,53,34922,6,0,P|426:82|430:173,1,120,4|8,0:0|0:0,0:0:0:0:
399,289,35628,1,2,0:0:0:0:
279,233,35981,1,8,0:0:0:0:
173,312,36334,2,0,L|28:316,2,120,2|8|2,0:0|0:0|0:0,0:0:0:0:
279,233,37392,1,8,0:0:0:0:
399,289,37745,6,0,P|411:237|398:171,1,120,2|8,0:0|0:0,0:0:0:0:
333,57,38451,1,2,0:0:0:0:
256,164,38804,2,0,B|226:190|226:190|135:162,1,120,8|2,0:0|0:0,0:0:0:0:
86,142,39334,2,0,P|64:173|59:204,2,60,0|8|0,0:0|0:0|0:0,0:0:0:0:
116,83,39863,1,2,0:0:0:0:
176,55,40039,2,0,L|234:71,1,60,0|8,0:0|0:0,0:0:0:0:
331,159,40569,6,0,P|369:155|423:87,1,120,2|8,0:0|0:0,0:0:0:0:
463,222,41275,1,2,0:0:0:0:
361,306,41628,1,8,0:0:0:0:
242,247,41981,2,0,P|172:239|111:246,1,120,2|8,0:0|0:0,0:0:0:0:
30,148,42687,2,0,P|100:156|161:149,1,120,2|8,0:0|0:0,0:0:0:0:
276,117,43392,6,0,L|411:127,1,120,2|8,0:0|0:0,0:0:0:0:
496,39,44098,2,0,P|519:80|508:157,1,120,2|8,0:0|0:0,0:0:0:0:
480,209,44628,1,4,0:0:0:0:
350,232,44981,1,0,0:0:0:0:
288,213,45157,2,0,P|256:201|222:206,1,60,8|8,0:0|0:3,0:0:0:0:
168,181,45510,2,0,P|125:193|86:264,1,120,4|8,0:3|0:0,0:0:0:0:
84,320,46039,6,0,L|210:316,2,120,4|2|0,0:0|0:0|0:0,0:0:0:0:
17,322,46922,2,0,L|12:248,1,60,2|2,0:0|0:0,0:0:0:0:
10,195,47275,1,8,0:0:0:0:
72,214,47451,2,0,P|108:235|188:229,1,120,2|2,0:0|0:0,0:0:0:0:
191,164,47981,2,0,P|249:155|303:180,1,120,8|2,0:0|0:0,0:0:0:0:
420,119,48687,1,8,0:0:0:0:
362,237,49039,6,0,P|346:273|358:354,1,120,2|8,0:0|0:0,0:0:0:0:
418,373,49569,1,0,0:0:0:0:
487,260,49922,2,0,L|506:196,1,60,2|8,0:0|0:0,0:0:0:0:
500,136,50275,6,0,B|450:123|413:136|413:136|396:101,1,120,4|2,0:0|0:0,0:0:0:0:
366,49,50804,2,0,P|322:47|271:105,1,120,8|2,0:0|0:3,0:0:0:0:
247,228,51510,1,0,0:0:0:0:
179,341,51863,6,0,P|141:313|118:235,1,120,4|8,0:0|0:0,0:0:0:0:
167,123,52569,1,2,0:0:0:0:
247,228,52922,1,8,0:0:0:0:
308,250,53098,2,0,L|432:241,1,120,0|2,0:0|0:0,0:0:0:0:
492,262,53628,2,0,P|507:230|499:143,2,120,8|2|8,0:0|0:0|0:0,0:0:0:0:
464,322,54510,5,4,0:0:0:0:
334,347,54863,1,0,0:0:0:0:
270,330,55039,2,0,P|219:318|151:337,1,120,2|2,0:0|0:0,0:0:0:0:
40,267,55745,1,8,0:0:0:0:
106,264,55922,2,0,B|116:221|91:161|91:161|163:144,1,180,4|8,0:0|0:0,0:0:0:0:
220,263,56804,2,0,L|364:237,1,120,8|8,0:0|0:0,0:0:0:0:
400,264,57334,6,0,P|416:221|403:148,1,120,4|8,0:0|0:0,0:0:0:0:
357,101,57863,1,8,0:0:0:0:
237,157,58216,2,0,B|193:176|193:176|152:96,1,120,2|8,0:0|0:0,0:0:0:0:
85,221,58922,2,0,P|71:272|3:298,2,120,0|8|2,0:0|0:0|0:0,0:0:0:0:
28,101,59981,1,8,0:0:0:0:
160,111,60334,6,0,P|220:113|282:80,1,120,0|8,0:0|0:0,0:0:0:0:
325,47,60863,1,8,0:3:0:0:
302,177,61216,2,0,B|289:212|289:212|309:243|301:298,1,120,2|4,0:0|0:0,0:0:0:0:
171,270,61922,2,0,L|101:258,2,60,2|8|0,0:0|0:0|0:0,0:0:0:0:
278,346,62628,2,0,L|349:337,2,60,2|8|0,0:0|0:0|0:0,0:0:0:0:
213,360,63157,6,0,P|160:342|87:360,1,120,4|8,0:0|0:0,0:0:0:0:
42,233,63863,2,0,P|95:251|168:233,1,120,2|8,0:0|0:0,0:0:0:0:
286,213,64569,2,0,L|301:91,1,120,2|8,0:0|0:0,0:0:0:0:
178,41,65275,2,0,L|163:160,1,120,2|8,0:0|0:0,0:0:0:0:
256,192,65804,12,8,67392,0:0:0:0:
256,152,68275,6,0,L|256:212,1,60,2|8,0:0|0:0,0:0:0:0:
127,277,68804,6,0,P|72:268|38:208,1,120,4|8,0:0|0:0,0:0:0:0:
60,74,69510,2,0,P|115:83|149:143,1,120,2|8,0:0|0:0,0:0:0:0:
181,198,70039,1,2,0:0:0:0:
252,187,70216,2,0,L|387:161,1,120,0|8,0:0|0:0,0:0:0:0:
440,151,70745,2,0,P|463:181|473:222,1,60,0|2,0:0|0:0,0:0:0:0:
378,313,71275,1,8,0:0:0:0:
241,267,71628,6,0,P|173:262|115:282,1,120,2|8,0:0|0:0,0:0:0:0:
44,156,72334,2,0,P|82:99|94:39,1,120,2|8,0:0|0:0,0:0:0:0:
237,43,73039,2,0,P|266:104|312:144,2,120,0|8|2,0:0|0:0|0:0,0:0:0:0:
191,180,74098,2,0,L|168:243,1,60,8|0,0:0|0:0,0:0:0:0:
142,302,74451,6,0,P|185:338|268:333,1,120,4|8,0:0|0:0,0:0:0:0:
390,323,75157,2,0,L|431:205,1,120,2|8,0:0|0:0,0:0:0:0:
457,142,75687,2,0,B|425:158|387:148|387:148|340:102,1,120,2|2,0:0|0:0,0:0:0:0:
306,58,76216,2,0,P|265:50|205:103,2,120,8|2|8,0:0|0:0|0:0,0:0:0:0:
316,202,77275,6,0,L|282:329,1,120,4|8,0:0|0:0,0:0:0:0:
228,363,77804,1,0,0:0:0:0:
173,316,77981,2,0,P|121:298|53:296,1,120,2|8,0:0|0:0,0:0:0:0:
9,241,78510,1,2,0:0:0:0:
62,192,78687,2,0,P|81:161|75:75,1,120,0|8,0:0|0:0,0:0:0:0:
204,148,79392,2,0,L|286:143,1,60,2|2,0:0|0:0,0:0:0:0:
322,102,79745,2,0,L|381:105,1,60,8|0,0:0|0:0,0:0:0:0:
454,108,80098,5,4,0:0:0:0:
331,183,80451,2,0,B|314:215|330:240|330:240|313:263|328:300,1,120,12|0,0:0|0:0,0:0:0:0:
336,369,80981,1,2,0:0:0:0:
403,343,81157,2,0,P|437:339|470:343,1,60,8|2,0:0|0:0,0:0:0:0:
504,282,81510,2,0,L|516:160,1,120,0|8,0:0|0:0,0:0:0:0:
479,99,82039,1,0,0:0:0:0:
341,140,82392,1,2,0:0:0:0:
274,167,82569,2,0,P|235:173|209:170,1,60,8|0,0:0|0:0,0:0:0:0:
145,150,82922,6,0,P|99:135|18:143,1,120,2|8,0:0|0:0,0:0:0:0:
80,274,83628,2,0,P|126:289|207:281,1,120,2|8,0:0|0:0,0:0:0:0:
298,181,84334,2,0,L|307:53,2,120,0|8|2,0:0|0:0|0:0,0:0:0:0:
287,324,85392,1,8,0:0:0:0:
424,281,85745,5,4,0:0:0:0:
472,227,85922,2,0,P|455:189|379:156,1,120,0|0,0:0|0:0,0:0:0:0:
319,181,86451,2,0,P|282:195|195:178,1,120,2|8,0:0|0:0,0:0:0:0:
139,150,86981,2,0,P|100:188|92:253,1,120,2|2,0:0|0:0,0:0:0:0:
110,320,87510,1,8,0:0:0:0:
253,308,87863,2,0,L|329:300,2,60,2|2|8,0:0|0:0|0:0,0:0:0:0:
110,320,88569,6,0,B|52:324|29:297|29:297|17:264,1,120,4|8,0:0|0:0,0:0:0:0:
11,194,89098,1,0,0:0:0:0:
79,172,89275,2,0,P|105:142|112:62,1,120,2|8,0:0|0:0,0:0:0:0:
252,100,89981,6,0,L|318:104,1,60,4|0,0:0|0:0,0:0:0:0:
342,168,90334,2,0,P|384:160|423:86,1,120,8|8,0:0|0:0,0:0:0:0:
484,60,90863,1,0,0:0:0:0:
500,129,91039,2,0,L|488:210,1,60,8|8,0:0|0:3,0:0:0:0:
479,259,91392,6,0,P|455:279|368:286,1,120,4|8,0:0|0:0,0:0:0:0:
231,243,92098,2,0,L|220:173,1,60,2|2,0:0|0:0,0:0:0:0:
210,112,92451,1,8,0:0:0:0:
154,158,92628,2,0,P|109:181|41:175,1,120,2|2,0:0|0:0,0:0:0:0:
11,134,93157,2,0,B|2:54|2:54|46:21,2,120,8|2|8,0:0|0:0|0:0,0:0:0:0:
50,272,94216,6,0,B|103:290|134:273|134:273|193:273,1,120,2|8,0:0|0:0,0:0:0:0:
231,238,94745,1,0,0:0:0:0:
259,304,94922,2,0,P|295:325|382:326,1,120,2|8,0:0|0:0,0:0:0:0:
439,304,95451,1,2,0:0:0:0:
471,163,95804,2,0,L|491:97,2,60,2|8|0,0:0|0:0|0:0,0:0:0:0:
416,211,96334,1,2,0:0:0:0:
351,178,96510,1,2,0:0:0:0:
278,178,96687,2,0,L|209:165,1,60,8|0,0:0|0:0,0:0:0:0:
152,139,97039,6,0,P|121:169|126:249,2,120,4|8|2,0:0|0:0|0:0,0:0:0:0:
205,90,97922,2,0,P|231:58|235:40,2,60,2|0|2,0:0|0:0|0:0,0:0:0:0:
207,234,98628,1,2,0:0:0:0:
267,195,98804,2,0,L|399:182,1,120,8|2,0:0|0:0,0:0:0:0:
435,129,99334,1,2,0:0:0:0:
505,139,99510,2,0,P|506:172|487:200,1,60,8|0,0:0|0:0,0:0:0:0:
440,244,99863,6,0,P|424:289|445:364,1,120,4|8,0:0|0:0,0:0:0:0:
325,273,100569,1,2,0:0:0:0:
201,347,100922,1,8,0:0:0:0:
116,230,101275,2,0,L|91:101,1,120,4|4,0:0|0:0,0:0:0:0:
143,60,101804,1,0,0:0:0:0:
196,108,101981,2,0,L|208:171,2,60,8|8|4,0:3|0:3|0:3,0:0:0:0:
312,78,102687,6,0,P|343:132|286:230,2,180,2|0|0,0:0|0:0|0:0,0:0:0:0:
251,75,103922,2,0,B|207:88|155:48|155:48|136:110|136:110|94:122|105:177,1,240,0|0,0:0|0:0,0:0:0:0:
98,284,104981,2,0,P|92:326|74:343,2,60,0|0|0,0:0|0:0|0:0,0:0:0:0:
83,225,105510,6,0,P|131:211|218:227,1,120,2|0,0:0|0:0,0:0:0:0:
288,300,106216,2,0,P|346:308|404:293,1,120,0|0,0:0|0:0,0:0:0:0:
455,260,106745,1,0,0:0:0:0:
141,88,107804,1,2,0:0:0:0:
132,147,107981,2,0,L|119:221,1,60,0|0,0:0|0:0,0:0:0:0:
120,266,108334,6,0,P|159:281|218:224,1,120,2|0,0:0|0:0,0:0:0:0:
285,139,109039,2,0,P|317:168|333:260,1,120
300,286,109569,1,0,0:0:0:0:
189,333,109922,2,0,L|111:347,2,60,0|0|0,0:0|0:0|0:0,0:0:0:0:
300,286,110628,2,0,L|371:274,2,60,2|0|0,0:0|0:0|0:0,0:0:0:0:
256,192,111157,12,0,118216,0:0:0:0:
