osu file format v14

[General]
AudioFilename: Souzou Forest.mp3
AudioLeadIn: 2000
PreviewTime: 68628
Countdown: 0
SampleSet: Soft
StackLeniency: 0.7
Mode: 0
LetterboxInBreaks: 1
WidescreenStoryboard: 0

[Editor]
Bookmarks: 111157
DistanceSpacing: 1.2
BeatDivisor: 4
GridSize: 16
TimelineZoom: 1.4

[Metadata]
Title:Kuusou Forest
TitleUnicode:空想フォレスト
Artist:Jin ft. Takumi Yoshida
ArtistUnicode:じん ft. ヨシダタクミ
Creator:Moway
Version:Hard
Source:メカクシティアクターズ
Tags:カゲロウプロジェクト 想像フォレスト souzou 自然の敵p shizen no teki-p fantasy imaginary imagination vocaloid ia kagerou project mekakucity actors phatmans after school cut version marry kozakura
BeatmapID:681328
BeatmapSetID:304072

[Difficulty]
HPDrainRate:5
CircleSize:3.8
OverallDifficulty:6
ApproachRate:8
SliderMultiplier:1.5
SliderTickRate:1

[Events]
//Background and Video events
0,0,"bg.jpg",0,0
//Break Periods
//Storyboard Layer 0 (Background)
//Storyboard Layer 1 (Fail)
//Storyboard Layer 2 (Pass)
//Storyboard Layer 3 (Foreground)
//Storyboard Sound Samples

[TimingPoints]
1040,352.941176470588,4,2,2,50,1,0
1040,-125,4,2,2,50,0,0
23098,-100,4,2,1,60,0,0
34922,-100,4,2,1,70,0,0
63157,-100,4,2,1,75,0,0
68804,-95.2380952380952,4,2,1,80,0,1
80098,-95.2380952380952,4,2,1,80,0,0
80451,-95.2380952380952,4,2,1,80,0,1
80804,-95.2380952380952,4,2,1,80,0,1
91392,-95.2380952380952,4,2,1,80,0,0
101981,-95.2380952380952,4,2,1,50,0,0
102687,-125,4,2,2,50,0,0
113981,-125,4,2,2,40,0,0
115392,-125,4,2,2,30,0,0
116804,-125,4,2,2,20,0,0
118216,-125,4,2,2,5,0,0

[Colours]
Combo1 : 128,255,255
Combo2 : 255,128,192
Combo3 : 255,255,128
Combo4 : 128,255,128

[HitObjects]
173,208,1040,6,0,P|210:220|278:170,1,120,2|0,0:0|0:0,0:0:0:0:
308,108,1569,2,0,P|271:96|203:146,2,120,0|0|0,0:0|0:0|0:0,0:0:0:0:
435,198,2628,2,0,L|416:319,1,120,0|0,0:0|0:0,0:0:0:0:
292,220,3334,2,0,L|280:289,2,60,0|0|0,0:0|0:0|0:0,0:0:0:0:
186,231,3863,5,2,0:0:0:0:
185,231,4216,2,0,P|156:233|127:227,1,60
101,152,4569,2,0,P|52:209|104:301,1,180
86,298,6157,2,0,L|149:297,2,60,2|0|0,0:0|0:0|0:0,0:0:0:0:
164,297,6687,6,0,P|207:260|285:261,1,120,2|0,0:0|0:0,0:0:0:0:
326,307,7216,1,0,0:0:0:0:
398,335,7392,2,0,L|474:321,1,60
499,169,7922,6,0,P|521:201|509:283,1,120
448,229,8451,2,0,P|426:197|438:115,1,120,0|0,0:0|0:0,0:0:0:0:
425,41,8981,2,0,L|365:46,2,60,2|0|0,0:0|0:0|0:0,0:0:0:0:
302,94,9510,1,2,0:0:0:0:
184,108,12157,5,0,0:0:0:0:
184,108,12334,2,0,L|190:227,1,120,2|0,0:0|0:0,0:0:0:0:
187,305,12863,2,0,P|139:292|118:216,2,120
331,244,13922,2,0,P|379:257|403:336,1,120,0|0,0:0|0:0,0:0:0:0:
475,176,14628,2,0,L|468:238,2,60,0|0|0,0:0|0:0|0:0,0:0:0:0:
486,98,15157,6,0,P|440:111|361:97,1,120,2|0,0:0|0:0,0:0:0:0:
300,62,15687,2,0,P|241:51|183:64,1,120,0|0,0:0|0:0,0:0:0:0:
115,103,16216,1,2,0:0:0:0:
171,156,16392,2,0,B|197:189|197:189|172:210|168:266,2,120,2|0|0,0:0|0:0|0:0,0:0:0:0:
283,264,17451,2,0,L|330:301,2,60
352,303,17981,6,0,P|382:269|389:190,1,120,2|0,0:0|0:0,0:0:0:0:
352,111,18510,1,0,0:0:0:0:
298,168,18687,2,0,P|267:173|176:162,1,120,0|0,0:0|0:0,0:0:0:0:
112,122,19216,1,0,0:0:0:0:
84,275,19569,2,0,L|72:338,2,60,0|0|0,0:0|0:0|0:0,0:0:0:0:
239,257,20275,2,0,L|227:198,2,60,0|0|0,0:0|0:0|0:0,0:0:0:0:
256,192,20804,12,8,23275,0:0:0:0:
42,261,23628,6,0,P|115:263|176:220,1,150,4|2,0:0|0:0,0:0:0:0:
218,149,24157,2,0,P|291:146|352:189,1,150,0|0,0:0|0:0,0:0:0:0:
390,263,24687,1,2,0:0:0:0:
390,263,24863,6,0,L|467:233,1,75,0|2,0:0|0:0,0:0:0:0:
501,136,25216,2,0,L|431:163,1,75,0|2,0:0|0:0,0:0:0:0:
352,189,25569,2,0,P|327:151|344:48,1,150,0|0,0:0|0:0,0:0:0:0:
260,31,26098,1,2,0:0:0:0:
205,93,26275,1,0,0:0:0:0:
135,48,26451,6,0,B|75:47|75:47|27:52|10:110,1,150,2|2,0:0|0:0,0:0:0:0:
56,173,26981,2,0,P|75:220|46:317,1,150,0|0,0:0|0:0,0:0:0:0:
110,369,27510,1,2,0:0:0:0:
180,326,27687,6,0,B|229:292|276:321|276:321|296:278,1,150,0|0,0:0|0:0,0:0:0:0:
290,195,28216,2,0,L|265:123,2,75,2|0|2,0:0|0:0|0:0,0:0:0:0:
369,216,28745,1,0,0:0:0:0:
439,172,28922,2,0,P|477:163|513:171,1,75,2|0,0:0|0:0,0:0:0:0:
369,216,29275,6,0,L|322:71,1,150,2|2,0:0|0:0,0:0:0:0:
244,47,29804,1,0,0:0:0:0:
244,47,29981,2,0,P|206:66|165:65,1,75,0|0,0:0|0:0,0:0:0:0:
93,49,30334,1,2,0:0:0:0:
58,123,30510,6,0,P|123:146|220:145,1,150,0|0,0:0|0:0,0:0:0:0:
284,132,31039,2,0,L|300:205,1,75,2|0,0:0|0:0,0:0:0:0:
366,125,31392,2,0,L|382:51,1,75,2|0,0:0|0:0,0:0:0:0:
447,138,31745,1,2,0:0:0:0:
447,138,31922,6,0,P|453:188|395:266,1,150,0|0,0:0|0:0,0:0:0:0:
321,299,32451,1,2,0:0:0:0:
246,263,32628,2,0,L|165:259,1,75,0|2,0:0|0:0,0:0:0:0:
94,289,32981,1,0,0:0:0:0:
27,240,33157,1,2,0:0:0:0:
78,174,33334,6,0,P|87:134|80:94,1,75,0|2,0:0|0:0,0:0:0:0:
160,72,33687,2,0,P|138:37|104:14,1,75,0|2,0:0|0:0,0:0:0:0:
180,158,34039,2,0,P|236:161|329:115,1,150,0|0,0:0|0:0,0:0:0:0:
335,41,34569,1,8,0:0:0:0:
335,41,34745,1,0,0:0:0:0:
320,123,34922,6,0,B|311:184|311:184|323:197|323:197|310:273,1,150,4|8,0:0|0:0,0:0:0:0:
239,322,35451,2,0,P|283:350|385:319,1,150
422,254,35981,1,8,0:0:0:0:
422,254,36157,6,0,L|443:175,1,75,0|2,0:0|0:0,0:0:0:0:
385,53,36510,2,0,L|365:125,1,75,0|8,0:0|0:0,0:0:0:0:
341,212,36863,2,0,P|280:235|232:163,1,150,0|0,0:0|0:0,0:0:0:0:
195,94,37392,2,0,P|158:124|146:155,1,75,8|0,0:0|0:0,0:0:0:0:
66,189,37745,6,0,L|76:272,1,75,2|0,0:0|0:0,0:0:0:0:
95,351,38098,1,8,0:0:0:0:
173,307,38275,1,0,0:0:0:0:
245,359,38451,2,0,P|288:367|334:361,1,75,2|0,0:0|0:0,0:0:0:0:
406,341,38804,1,8,0:0:0:0:
360,262,38981,6,0,P|338:228|347:121,1,150,0|0,0:0|0:0,0:0:0:0:
388,43,39510,1,8,0:0:0:0:
421,126,39687,2,0,P|340:123|262:99,1,150,0|0,0:0|0:0,0:0:0:0:
213,37,40216,1,8,0:0:0:0:
134,80,40392,1,0,0:0:0:0:
180,157,40569,6,0,P|201:201|183:299,1,150,2|8,0:0|0:0,0:0:0:0:
107,345,41098,1,0,0:0:0:0:
32,294,41275,2,0,P|19:251|25:215,2,75,2|0|8,0:0|0:0|0:0,0:0:0:0:
107,345,41804,6,0,L|271:331,1,150,0|0,0:0|0:0,0:0:0:0:
320,268,42334,1,8,0:0:0:0:
371,341,42510,2,0,B|426:302|403:235|403:235|441:215,1,150,0|0,0:0|0:0,0:0:0:0:
373,150,43039,2,0,L|303:181,1,75,8|0,0:0|0:0,0:0:0:0:
222,218,43392,5,2,0:0:0:0:
132,226,43569,1,0,0:0:0:0:
79,152,43745,1,8,0:0:0:0:
258,135,44098,1,2,0:0:0:0:
310,209,44275,1,2,0:0:0:0:
272,292,44451,1,8,0:0:0:0:
347,341,44628,6,0,P|389:299|399:198,1,150,4|0,0:0|0:0,0:0:0:0:
447,133,45157,1,8,0:0:0:0:
366,92,45334,2,0,L|320:70,2,37.5,8|0|4,0:3|0:0|0:3,0:0:0:0:
447,133,45687,1,2,0:0:0:0:
505,64,45863,1,8,0:0:0:0:
447,133,46039,6,0,P|434:177|516:203,1,150,4|2,0:0|0:0,0:0:0:0:
498,293,46569,2,0,P|434:286|369:223,1,150,0|2,0:0|0:0,0:0:0:0:
347,143,47098,1,2,0:0:0:0:
277,199,47275,1,8,0:0:0:0:
197,157,47451,6,0,B|148:158|138:208|138:208|81:154,1,150,2|2,0:0|0:0,0:0:0:0:
25,101,47981,1,8,0:0:0:0:
2,187,48157,1,0,0:0:0:0:
2,187,48334,2,0,L|56:251,1,75,2|2,0:0|0:0,0:0:0:0:
45,334,48687,2,0,L|128:341,1,75,8|2,0:0|0:0,0:0:0:0:
196,294,49039,6,0,P|255:272|345:294,1,150,2|8,0:0|0:0,0:0:0:0:
422,323,49569,2,0,P|440:251|417:180,1,150,0|2,0:0|0:0,0:0:0:0:
352,118,50098,1,8,0:0:0:0:
352,118,50275,6,0,L|270:114,1,75,4|0,0:0|0:0,0:0:0:0:
187,105,50628,1,2,0:0:0:0:
115,50,50804,1,8,0:0:0:0:
45,108,50981,1,0,0:0:0:0:
78,191,51157,2,0,B|88:227|88:227|76:264,1,75,2|0,0:3|0:0,0:0:0:0:
34,342,51510,2,0,L|132:336,1,75,0|0,0:0|0:0,0:0:0:0:
198,331,51863,6,0,P|175:298|190:195,1,150,4|8,0:0|0:0,0:0:0:0:
268,149,52392,1,0,0:0:0:0:
357,161,52569,2,0,P|341:206|311:230,1,75,2|2,0:0|0:0,0:0:0:0:
268,149,52922,1,8,0:0:0:0:
320,76,53098,6,0,P|365:69|447:132,1,150,0|2,0:0|0:0,0:0:0:0:
456,217,53628,2,0,L|441:297,1,75,8|0,0:0|0:0,0:0:0:0:
378,354,53981,1,2,0:0:0:0:
308,297,54157,1,2,0:0:0:0:
228,338,54334,1,8,0:0:0:0:
143,306,54510,6,0,P|112:268|129:167,1,150,4|0,0:0|0:0,0:0:0:0:
179,102,55039,1,2,0:0:0:0:
246,161,55216,1,8,0:0:0:0:
246,161,55304,1,0,0:0:0:0:
246,161,55392,2,0,L|329:153,1,75,2|2,0:0|0:0,0:0:0:0:
390,96,55745,1,8,0:0:0:0:
374,227,55922,6,0,L|220:243,1,150,4|8,0:0|0:0,0:0:0:0:
158,181,56451,2,0,P|120:213|111:244,1,75,8|2,0:0|0:0,0:0:0:0:
121,325,56804,1,8,0:0:0:0:
208,358,56981,2,0,L|221:316,3,37.5,8|8|8|8,0:0|0:0|0:0|0:0,0:0:0:0:
234,279,57334,6,0,B|276:241|339:261|339:261|363:219,1,150,4|8,0:0|0:0,0:0:0:0:
340,139,57863,1,8,0:0:0:0:
425,166,58039,2,0,P|465:167|505:158,1,75,0|2,0:0|0:0,0:0:0:0:
479,71,58392,2,0,P|439:70|399:79,1,75,2|8,0:0|0:0,0:0:0:0:
340,139,58745,1,2,0:0:0:0:
260,180,58922,6,0,P|249:141|256:108,1,75,0|2,0:0|0:0,0:0:0:0:
286,22,59275,1,8,0:0:0:0:
201,51,59451,2,0,P|180:99|186:198,1,150,0|2,0:0|0:0,0:0:0:0:
242,264,59981,1,8,0:0:0:0:
326,234,60157,1,0,0:0:0:0:
413,254,60334,6,0,B|397:314|347:324|347:324|347:375,1,150,0|8,0:0|0:0,0:0:0:0:
261,343,60863,1,0,0:0:0:0:
173,363,61039,2,0,P|134:370|96:365,1,75,2|2,0:0|0:0,0:0:0:0:
23,316,61392,1,8,0:0:0:0:
89,255,61569,6,0,P|97:211|93:181,1,75,4|0,0:0|0:0,0:0:0:0:
13,138,61922,2,0,P|5:182|9:212,1,75,2|8,0:0|0:0,0:0:0:0:
89,255,62275,2,0,P|143:238|238:239,1,150,0|2,0:0|0:0,0:0:0:0:
321,266,62804,2,0,L|327:310,3,37.5,8|0|0|0,0:0|0:0|0:0|0:0,0:0:0:0:
328,348,63157,6,0,P|363:363|431:287,1,150,4|8,0:0|0:0,0:0:0:0:
467,210,63687,1,0,0:0:0:0:
385,171,63863,2,0,P|368:124|374:93,1,75,2|2,0:0|0:0,0:0:0:0:
288,64,64216,2,0,P|290:101|274:134,1,75,8|0,0:0|0:0,0:0:0:0:
195,179,64569,6,0,L|111:168,1,75,2|0,0:0|0:0,0:0:0:0:
122,79,64922,2,0,L|196:88,1,75,8|0,0:0|0:0,0:0:0:0:
274,134,65275,1,2,0:0:0:0:
344,78,65451,1,2,0:0:0:0:
427,113,65628,1,8,0:0:0:0:
442,233,65804,6,0,P|405:256|297:261,1,150,4|8,0:0|0:0,0:0:0:0:
229,205,66334,1,8,0:0:0:0:
161,264,66510,1,0,0:0:0:0:
71,252,66687,2,0,L|49:207,3,37.5,8|0|8|8,0:3|0:0|0:3|0:3,0:0:0:0:
70,176,67039,2,0,L|92:131,3,37.5,8|0|4|0,0:0|0:0|0:3|0:0,0:0:0:0:
112,104,67392,5,8,0:0:0:0:
215,41,67569,1,2,0:0:0:0:
215,160,67745,1,4,0:0:0:0:
215,160,68275,6,0,L|215:204,2,37.5,2|2|8,0:0|0:0|0:0,0:0:0:0:
215,160,68804,6,0,L|310:149,1,78.7499975967408,4|0,0:0|0:0,0:0:0:0:
320,60,69157,2,0,L|241:69,1,78.7499975967408,8|0,0:0|0:0,0:0:0:0:
293,150,69510,2,0,P|308:206|301:239,1,78.7499975967408,2|0,0:0|0:0,0:0:0:0:
262,311,69863,1,8,0:0:0:0:
179,265,70039,1,2,0:0:0:0:
98,315,70216,6,0,P|54:330|16:324,2,78.7499975967408,0|2|8,0:0|0:0|0:0,0:0:0:0:
179,265,70745,2,0,P|224:229|326:242,1,157.499995193482,0|2,0:0|0:0,0:0:0:0:
397,290,71275,2,0,L|447:213,1,78.7499975967408,8|0,0:0|0:0,0:0:0:0:
393,88,71628,6,0,B|370:162|370:162|341:121|284:114,1,157.499995193482,2|8,0:0|0:0,0:0:0:0:
214,89,72157,1,0,0:0:0:0:
130,42,72334,2,0,P|117:95|184:181,1,157.499995193482,2|8,0:0|0:0,0:0:0:0:
265,174,72863,1,2,0:0:0:0:
339,231,73039,6,0,B|353:253|353:253|343:268|340:308,1,78.7499975967408,0|2,0:0|0:0,0:0:0:0:
434,313,73392,2,0,B|420:291|420:291|430:276|433:236,1,78.7499975967408,8|0,0:0|0:0,0:0:0:0:
445,146,73745,2,0,L|362:131,1,78.7499975967408,2|2,0:0|0:0,0:0:0:0:
290,76,74098,1,8,0:0:0:0:
214,133,74275,1,0,0:0:0:0:
132,84,74451,6,0,P|72:82|-1:159,1,157.499995193482,4|8,0:0|0:0,0:0:0:0:
60,220,74981,1,0,0:0:0:0:
60,220,75157,2,0,P|101:253|128:352,1,157.499995193482,2|8,0:0|0:0,0:0:0:0:
215,313,75687,6,0,B|282:307|282:307|326:330|391:313,1,157.499995193482,2|2,0:0|0:0,0:0:0:0:
457,281,76216,2,0,P|470:233|465:195,1,78.7499975967408,8|0,0:0|0:0,0:0:0:0:
388,152,76569,2,0,P|375:200|380:238,2,78.7499975967408,2|2|8,0:0|0:0|0:0,0:0:0:0:
458,88,77098,1,0,0:0:0:0:
368,57,77275,6,0,P|322:79|216:79,1,157.499995193482,4|8,0:0|0:0,0:0:0:0:
134,33,77804,1,0,0:0:0:0:
74,106,77981,2,0,P|62:148|75:189,1,78.7499975967408,2|0,0:0|0:0,0:0:0:0:
111,266,78334,1,8,0:0:0:0:
184,207,78510,1,2,0:0:0:0:
253,271,78687,6,0,P|310:280|401:223,1,157.499995193482,0|8,0:0|0:0,0:0:0:0:
442,151,79216,1,0,0:0:0:0:
442,151,79304,1,0,0:0:0:0:
442,151,79392,2,0,L|361:119,1,78.7499975967408,2|2,0:0|0:0,0:0:0:0:
292,65,79745,2,0,L|218:93,1,78.7499975967408,8|0,0:0|0:0,0:0:0:0:
128,123,80098,5,4,0:0:0:0:
128,123,80451,2,0,B|141:168|121:198|121:198|139:243|122:280,1,157.499995193482,12|0,0:0|0:0,0:0:0:0:
90,364,80981,1,2,0:0:0:0:
179,334,81157,2,0,B|228:323|228:323|269:337,1,78.7499975967408,8|2,0:0|0:0,0:0:0:0:
345,361,81510,6,0,L|359:268,1,78.7499975967408,0|0,0:0|0:0,0:0:0:0:
372,189,81863,1,8,0:0:0:0:
290,235,82039,2,0,P|244:244|167:171,1,157.499995193482,0|2,0:0|0:0,0:0:0:0:
220,95,82569,2,0,P|252:123|261:162,1,78.7499975967408,8|0,0:0|0:0,0:0:0:0:
167,175,82922,6,0,B|118:169|118:169|75:180|75:180|9:171,1,157.499995193482,2|8,0:0|0:0,0:0:0:0:
72,98,83451,1,0,0:0:0:0:
72,98,83628,2,0,B|110:89|110:89|168:96,1,78.7499975967408,2|2,0:0|0:0,0:0:0:0:
238,124,83981,2,0,B|277:128|277:128|315:119,1,78.7499975967408,8|2,0:0|0:0,0:0:0:0:
382,53,84334,6,0,P|409:93|378:192,2,157.499995193482,0|8|2,0:0|0:0|0:0,0:0:0:0:
315,119,85216,1,2,0:0:0:0:
233,73,85392,2,0,P|176:66|141:76,1,78.7499975967408,8|0,0:0|0:0,0:0:0:0:
63,49,85745,5,4,0:0:0:0:
106,133,85922,2,0,B|133:201|133:201|106:287,1,157.499995193482,0|0,0:0|0:0,0:0:0:0:
82,372,86451,2,0,L|239:348,1,157.499995193482,2|8,0:0|0:0,0:0:0:0:
230,253,86981,6,0,L|385:276,1,157.499995193482,2|2,0:0|0:0,0:0:0:0:
448,347,87510,2,0,P|475:304|477:266,1,78.7499975967408,8|0,0:0|0:0,0:0:0:0:
477,182,87863,1,2,0:0:0:0:
399,127,88039,1,2,0:0:0:0:
331,194,88216,2,0,P|277:203|236:183,1,78.7499975967408,8|0,0:0|0:0,0:0:0:0:
212,111,88569,6,0,P|266:102|307:122,1,78.7499975967408,4|0,0:0|0:0,0:0:0:0:
331,194,88922,2,0,L|319:284,1,78.7499975967408,8|0,0:0|0:0,0:0:0:0:
276,355,89275,1,2,0:0:0:0:
202,296,89451,1,2,0:0:0:0:
134,363,89628,2,0,P|111:331|105:291,1,78.7499975967408,8|0,0:0|0:0,0:0:0:0:
157,214,89981,6,0,L|167:132,1,78.7499975967408,4|0,0:0|0:0,0:0:0:0:
113,57,90334,1,8,0:0:0:0:
69,174,90510,2,0,L|51:219,2,39.3749987983704,8|8|8,0:0|0:0|0:0,0:0:0:0:
113,57,90863,1,0,0:0:0:0:
228,107,91039,1,8,0:0:0:0:
228,107,91128,1,8,0:0:0:0:
228,107,91216,1,8,0:3:0:0:
228,107,91304,1,8,0:3:0:0:
228,107,91392,6,0,P|291:120|378:53,1,157.499995193482,4|8,0:0|0:0,0:0:0:0:
446,20,91922,1,0,0:0:0:0:
446,114,92098,2,0,L|429:198,1,78.7499975967408,2|2,0:0|0:0,0:0:0:0:
409,283,92451,1,8,0:0:0:0:
326,236,92628,6,0,P|279:222|167:241,1,157.499995193482,2|2,0:0|0:0,0:0:0:0:
133,323,93157,2,0,P|94:292|88:258,1,78.7499975967408,8|0,0:0|0:0,0:0:0:0:
100,171,93510,1,2,0:0:0:0:
18,123,93687,1,2,0:0:0:0:
97,71,93863,2,0,P|134:52|171:53,1,78.7499975967408,8|0,0:0|0:0,0:0:0:0:
272,20,94216,6,0,B|286:76|286:76|225:123|238:183,1,157.499995193482,2|8,0:0|0:0,0:0:0:0:
181,236,94745,1,0,0:0:0:0:
181,236,94922,2,0,P|225:251|261:248,1,78.7499975967408,2|2,0:0|0:0,0:0:0:0:
350,235,95275,1,8,0:0:0:0:
427,181,95451,6,0,P|444:237|384:321,1,157.499995193482,2|2,0:0|0:0,0:0:0:0:
303,344,95981,2,0,L|218:359,1,78.7499975967408,8|0,0:0|0:0,0:0:0:0:
130,364,96334,2,0,L|115:279,1,78.7499975967408,2|2,0:0|0:0,0:0:0:0:
99,193,96687,1,8,0:0:0:0:
282,236,97039,6,0,P|303:193|293:76,2,157.499995193482,4|8|2,0:0|0:0|0:0,0:0:0:0:
215,303,97922,2,0,P|249:330|290:333,1,78.7499975967408,2|0,0:0|0:0,0:0:0:0:
379,324,98275,2,0,P|418:297|469:189,1,157.499995193482,2|2,0:0|0:0,0:0:0:0:
464,106,98804,1,8,0:0:0:0:
464,106,98981,2,0,L|379:84,1,78.7499975967408,0|2,0:0|0:0,0:0:0:0:
300,48,99334,1,2,0:0:0:0:
300,48,99511,2,0,L|214:70,1,78.7499975967408,8|0,0:0|0:0,0:0:0:0:
132,44,99863,6,0,P|119:86|128:129,1,78.7499975967408,4|0,0:0|0:0,0:0:0:0:
156,208,100216,1,8,0:0:0:0:
241,167,100392,1,0,0:0:0:0:
326,208,100569,2,0,P|339:250|330:293,1,78.7499975967408,2|2,0:0|0:0,0:0:0:0:
302,372,100922,1,8,0:0:0:0:
217,331,101098,1,0,0:0:0:0:
128,365,101275,6,0,P|75:363|73:266,2,157.499995193482,4|4|8,0:0|0:0|0:3,0:0:0:0:
217,331,102157,1,8,0:3:0:0:
245,240,102334,1,4,0:3:0:0:
190,163,102510,1,4,0:3:0:0:
100,131,102687,6,0,P|62:128|16:61,1,120,2|0,0:0|0:0,0:0:0:0:
93,54,103216,2,0,P|131:57|177:124,2,120,0|0|0,0:0|0:0|0:0,0:0:0:0:
72,209,104275,2,0,L|64:277,1,60,0|0,0:0|0:0,0:0:0:0:
54,346,104628,1,0,0:0:0:0:
162,231,104981,2,0,L|154:299,2,60,0|0|0,0:0|0:0|0:0,0:0:0:0:
153,308,105510,6,0,P|208:297|287:305,1,120,2|0,0:0|0:0,0:0:0:0:
348,315,106039,1,0,0:0:0:0:
422,340,106216,2,0,P|473:294|437:199,1,180,0|0,0:0|0:0,0:0:0:0:
439,200,107804,2,0,L|368:185,2,60,2|0|0,0:0|0:0|0:0,0:0:0:0:
362,182,108334,6,0,P|308:178|244:220,1,120,2|0,0:0|0:0,0:0:0:0:
203,272,108863,1,0,0:0:0:0:
140,318,109039,2,0,L|68:307,1,60,0|0,0:0|0:0,0:0:0:0:
20,263,109392,1,0,0:0:0:0:
76,208,109569,1,0,0:0:0:0:
76,208,109922,2,0,P|83:179|80:144,2,60,0|0|0,0:0|0:0|0:0,0:0:0:0:
279,91,110628,2,0,P|270:62|250:33,2,60,2|0|0,0:0|0:0|0:0,0:0:0:0:
256,192,111157,12,0,118216,0:0:0:0:
