osu file format v14

[General]
AudioFilename: Souzou Forest.mp3
AudioLeadIn: 2000
PreviewTime: 68628
Countdown: 0
SampleSet: Soft
StackLeniency: 0.7
Mode: 0
LetterboxInBreaks: 1
WidescreenStoryboard: 0

[Editor]
Bookmarks: 111157
DistanceSpacing: 1.1
BeatDivisor: 4
GridSize: 4
TimelineZoom: 1.4

[Metadata]
Title:Kuusou Forest
TitleUnicode:空想フォレスト
Artist:Jin ft. Takumi Yoshida
ArtistUnicode:じん ft. ヨシダタクミ
Creator:Moway
Version:Easy
Source:メカクシティアクターズ
Tags:カゲロウプロジェクト 想像フォレスト souzou 自然の敵p shizen no teki-p fantasy imaginary imagination vocaloid ia kagerou project mekakucity actors phatmans after school cut version marry kozakura
BeatmapID:681394
BeatmapSetID:304072

[Difficulty]
HPDrainRate:2
CircleSize:3
OverallDifficulty:2
ApproachRate:3
SliderMultiplier:0.9
SliderTickRate:1

[Events]
//Background and Video events
0,0,"bg.jpg",0,0
//Break Periods
//Storyboard Layer 0 (Background)
//Storyboard Layer 1 (Fail)
//Storyboard Layer 2 (Pass)
//Storyboard Layer 3 (Foreground)
//Storyboard Sound Samples

[TimingPoints]
1040,352.941176470588,4,2,2,50,1,0
1040,-100,4,2,2,50,0,0
23275,-100,4,2,1,60,0,0
34922,-100,4,2,1,70,0,0
63157,-100,4,2,1,75,0,0
68804,-100,4,2,1,80,0,1
80098,-100,4,2,1,80,0,0
80451,-100,4,2,1,80,0,1
80804,-100,4,2,1,80,0,1
91392,-100,4,2,1,80,0,0
101981,-100,4,2,1,50,0,0
102687,-100,4,2,2,50,0,0
113981,-100,4,2,2,40,0,0
115392,-100,4,2,2,30,0,0
116804,-100,4,2,2,20,0,0
118216,-100,4,2,2,5,0,0

[Colours]
Combo1 : 128,255,255
Combo2 : 255,128,192
Combo3 : 255,255,128
Combo4 : 128,255,128

[HitObjects]
175,346,1040,6,0,P|216:351|331:228,1,225,2|0,0:0|0:0,0:0:0:0:
269,152,2275,2,0,P|260:106|275:57,2,90,0|0|0,0:0|0:0|0:0,0:0:0:0:
219,237,3334,2,0,P|181:253|89:231,1,135,0|2,0:0|0:0,0:0:0:0:
23,167,4216,6,0,B|9:123|45:58|45:58|88:99|159:84,1,225,0|0,0:0|0:0,0:0:0:0:
436,155,6157,2,0,P|397:175|303:157,1,135,2|2,0:0|0:0,0:0:0:0:
141,57,7392,6,0,P|180:85|195:172,1,135,0|0,0:0|0:0,0:0:0:0:
135,244,8275,2,0,L|36:243,1,90
77,336,8981,2,0,B|144:336|144:336|189:334|205:301,1,135,2|2,0:0|0:0,0:0:0:0:
256,80,12334,6,0,B|208:168|308:208|256:308,1,225,2|0,0:0|0:0,0:0:0:0:
175,247,13569,2,0,B|111:231|75:263|75:263|35:192,1,180,0|0,0:0|0:0,0:0:0:0:
88,112,14628,2,0,B|110:164|110:164|154:155|208:172,1,135,0|2,0:0|0:0,0:0:0:0:
273,215,15510,6,0,P|326:222|388:168,1,135,0|0,0:0|0:0,0:0:0:0:
417,79,16392,2,0,P|462:108|483:238,1,180,2|0,0:0|0:0,0:0:0:0:
453,318,17451,2,0,L|304:309,1,135,0|2,0:0|0:0,0:0:0:0:
122,280,18687,5,0,0:0:0:0:
308,215,19392,2,0,B|350:167|325:102|325:102|383:84,1,180,2|0,0:0|0:0,0:0:0:0:
470,39,20451,1,0,0:0:0:0:
502,132,20804,1,2,0:0:0:0:
34,198,23628,6,0,L|142:193,1,90,4|2,0:0|0:0,0:0:0:0:
219,166,24334,2,0,L|308:170,1,90,2|2,0:0|0:0,0:0:0:0:
382,236,25039,2,0,P|405:196|400:136,2,90,2|2|2,0:0|0:0|0:0,0:0:0:0:
301,294,26098,1,2,0:0:0:0:
207,260,26451,6,0,P|140:255|80:308,2,135,2|0|2,0:0|0:0|0:0,0:0:0:0:
301,294,27863,2,0,L|326:194,1,90,2|2,0:0|0:0,0:0:0:0:
422,203,28569,2,0,L|447:103,1,90,2|2,0:0|0:0,0:0:0:0:
351,79,29275,6,0,P|331:103|260:98,1,90,2|2,0:0|0:0,0:0:0:0:
177,89,29981,2,0,L|71:63,1,90,0|2,0:0|0:0,0:0:0:0:
20,138,30687,2,0,P|2:174|10:231,2,90,0|2|2,0:0|0:0|0:0,0:0:0:0:
100,195,31745,1,2,0:0:0:0:
86,293,32098,6,0,L|177:285,1,90,0|2,0:0|0:0,0:0:0:0:
209,197,32804,2,0,B|268:193|268:193|316:195|332:243,1,135,2|0,0:0|0:0,0:0:0:0:
366,323,33687,2,0,P|402:302|424:256,1,90
394,165,34392,2,0,B|385:74|385:74|435:93,1,135,0|4,0:0|0:0,0:0:0:0:
491,164,35275,5,8,0:0:0:0:
433,244,35628,2,0,P|403:251|338:232,1,90,2|8,0:0|0:0,0:0:0:0:
259,188,36334,2,0,P|216:174|172:181,1,90,2|8,0:0|0:0,0:0:0:0:
83,226,37039,1,2,0:0:0:0:
8,161,37392,1,8,0:0:0:0:
96,117,37745,6,0,P|109:82|106:26,1,90,2|8,0:0|0:0,0:0:0:0:
196,77,38451,2,0,P|230:81|325:42,1,135,2|0,0:0|0:0,0:0:0:0:
420,33,39334,2,0,L|403:136,1,90,0|0,0:0|0:0,0:0:0:0:
386,218,40039,2,0,P|357:244|268:228,1,135,0|2,0:0|0:0,0:0:0:0:
179,186,40922,5,8,0:0:0:0:
84,214,41275,2,0,P|106:256|153:281,1,90,2|8,0:0|0:0,0:0:0:0:
218,340,41981,2,0,L|314:334,1,90,2|8,0:0|0:0,0:0:0:0:
407,334,42687,2,0,P|416:293|407:237,1,90,2|8,0:0|0:0,0:0:0:0:
390,148,43392,5,2,0:0:0:0:
306,95,43745,1,8,0:0:0:0:
227,155,44098,2,0,L|137:131,1,90,2|8,0:0|0:0,0:0:0:0:
76,55,44804,2,0,P|52:88|44:137,1,90,0|8,0:0|0:0,0:0:0:0:
86,225,45510,2,0,B|98:249|89:291|89:291|170:286,1,135,4|4,0:3|0:0,0:0:0:0:
221,211,46392,6,0,P|266:207|335:265,2,135,2|2|2,0:0|0:0|0:0,0:0:0:0:
140,152,47804,2,0,L|135:58,1,90,2|0,0:0|0:0,0:0:0:0:
233,78,48510,2,0,P|286:87|367:49,1,135,2|2,0:0|0:0,0:0:0:0:
437,117,49392,6,0,L|413:268,1,135,8|2,0:0|0:0,0:0:0:0:
361,333,50275,2,0,B|319:298|319:298|231:299,1,135,4|8,0:0|0:0,0:0:0:0:
150,253,51157,1,2,0:3:0:0:
66,306,51510,1,0,0:0:0:0:
4,228,51863,6,0,B|-3:178|7:126,1,90,4|8,0:0|0:0,0:0:0:0:
89,86,52569,2,0,B|96:136|86:188,1,90,2|8,0:0|0:0,0:0:0:0:
150,253,53275,2,0,P|191:243|258:245,1,90,0|8,0:0|0:0,0:0:0:0:
316,303,53981,2,0,P|357:313|453:289,1,135,2|4,0:0|0:0,0:0:0:0:
488,204,54863,6,0,B|489:116|489:116|432:100,1,135,0|2,0:0|0:0,0:0:0:0:
399,126,55569,2,0,P|357:142|301:126,1,90,2|4,0:0|0:0,0:0:0:0:
221,97,56275,2,0,P|181:84|88:106,1,135,8|8,0:0|0:0,0:0:0:0:
52,133,56981,2,0,L|56:225,1,90,8|4,0:0|0:0,0:0:0:0:
87,316,57687,5,8,0:0:0:0:
174,269,58039,2,0,P|216:251|315:263,1,135,0|8,0:0|0:0,0:0:0:0:
394,296,58922,2,0,P|408:250|417:208,1,90,0|8,0:0|0:0,0:0:0:0:
325,170,59628,2,0,P|334:126|347:83,1,90,2|8,0:0|0:0,0:0:0:0:
442,52,60334,6,0,P|472:73|475:167,2,135,0|0|8,0:0|0:0|0:0,0:0:0:0:
347,83,61745,2,0,P|291:82|253:69,1,90,0|8,0:0|0:0,0:0:0:0:
164,42,62451,1,2,0:0:0:0:
76,88,62804,1,8,0:0:0:0:
127,172,63157,6,0,B|149:198|149:198|130:220|124:256,1,90,4|8,0:0|0:0,0:0:0:0:
226,267,63863,2,0,P|266:257|325:265,1,90,2|8,0:0|0:0,0:0:0:0:
387,328,64569,2,0,P|408:297|407:241,1,90,2|8,0:0|0:0,0:0:0:0:
355,161,65275,1,2,0:0:0:0:
265,117,65628,1,8,0:0:0:0:
256,192,65804,12,8,67392,0:0:0:0:
367,98,68804,6,0,L|362:194,1,90,4|8,0:0|0:0,0:0:0:0:
357,287,69510,2,0,P|319:295|277:270,1,90,2|8,0:0|0:0,0:0:0:0:
198,208,70216,2,0,P|151:206|73:256,2,135,0|0|8,0:0|0:0|0:0,0:0:0:0:
291,174,71628,6,0,L|308:78,1,90,2|8,0:0|0:0,0:0:0:0:
222,32,72334,2,0,L|206:120,1,90,2|8,0:0|0:0,0:0:0:0:
108,136,73039,2,0,P|65:141|18:117,2,90,0|8|2,0:0|0:0|0:0,0:0:0:0:
85,39,74098,1,8,0:0:0:0:
182,58,74451,6,0,P|217:111|215:154,1,90,4|8,0:0|0:0,0:0:0:0:
204,234,75157,2,0,B|251:241|303:221|303:221|357:223,2,135,2|2|8,0:0|0:0|0:0,0:0:0:0:
133,164,76569,1,2,0:0:0:0:
36,186,76922,1,8,0:0:0:0:
70,278,77275,6,0,B|79:316|79:316|70:366,1,90,4|8,0:0|0:0,0:0:0:0:
163,332,77981,1,2,0:0:0:0:
256,364,78334,1,8,0:0:0:0:
338,308,78687,2,0,P|347:271|344:215,1,90,4|8,0:0|0:0,0:0:0:0:
247,203,79392,2,0,P|244:158|253:114,1,90,2|8,0:0|0:0,0:0:0:0:
333,54,80098,5,4,0:0:0:0:
391,134,80451,2,0,B|408:150|431:155|431:155|431:174|455:201,1,90,12|0,0:0|0:0,0:0:0:0:
495,279,81157,1,8,0:0:0:0:
396,265,81510,2,0,P|334:263|259:295,2,135,0|0|8,0:0|0:0|0:0,0:0:0:0:
383,166,82922,6,0,L|277:151,1,90,2|8,0:0|0:0,0:0:0:0:
219,88,83628,2,0,P|201:119|202:182,1,90,2|8,0:0|0:0,0:0:0:0:
211,270,84334,2,0,P|231:309|231:354,2,90,0|8|2,0:0|0:0|0:0,0:0:0:0:
113,252,85392,1,8,0:0:0:0:
50,328,85745,6,0,P|26:298|60:169,1,180,4|2,0:0|0:0,0:0:0:0:
138,116,86804,1,8,0:0:0:0:
196,195,87157,2,0,L|299:185,1,90,0|8,0:0|0:0,0:0:0:0:
312,90,87863,2,0,L|415:80,1,90,2|8,0:0|0:0,0:0:0:0:
479,143,88569,6,0,B|507:183|481:228|481:228|440:218|392:233,1,180,4|2,0:0|0:0,0:0:0:0:
294,216,89628,1,8,0:0:0:0:
207,264,89981,2,0,L|196:358,1,90,4|8,0:0|0:0,0:0:0:0:
99,376,90687,2,0,L|109:286,1,90,8|8,0:0|0:0,0:0:0:0:
124,188,91392,6,0,P|100:152|40:143,1,90,4|8,0:0|0:0,0:0:0:0:
128,70,92098,2,0,P|169:86|264:84,1,135,2|2,0:0|0:0,0:0:0:0:
355,61,92981,2,0,P|371:111|374:168,1,90,2|0,0:0|0:0,0:0:0:0:
355,245,93687,2,0,L|203:234,1,135,2|2,0:0|0:0,0:0:0:0:
130,192,94569,5,8,0:0:0:0:
81,278,94922,2,0,P|45:242|37:160,1,135,2|2,0:0|0:0,0:0:0:0:
109,93,95804,2,0,L|248:89,1,135,2|2,0:0|0:0,0:0:0:0:
336,52,96687,1,8,0:0:0:0:
404,122,97039,6,0,B|447:173|429:228|429:228|367:281,1,180,4|2,0:0|0:0,0:0:0:0:
285,236,98098,1,0,0:0:0:0:
204,294,98451,2,0,B|168:309|168:309|115:295,1,90,0|8,0:0|0:0,0:0:0:0:
62,213,99157,2,0,B|98:198|98:198|151:212,1,90,2|8,0:0|0:0,0:0:0:0:
231,158,99863,6,0,L|247:63,1,90,4|8,0:0|0:0,0:0:0:0:
343,50,100569,2,0,L|328:138,1,90,2|8,0:0|0:0,0:0:0:0:
301,234,101275,2,0,P|297:283|331:323,2,90,4|4|8,0:0|0:0|0:3,0:0:0:0:
369,162,102334,1,4,0:3:0:0:
403,254,102687,6,0,B|447:238|482:189|459:122|459:122|491:102|493:55,1,225,2|0,0:0|0:0,0:0:0:0:
394,48,103922,2,0,L|300:51,2,90,0|0|0,0:0|0:0|0:0,0:0:0:0:
343,133,104981,2,0,P|288:135|212:78,1,135,0|2,0:0|0:0,0:0:0:0:
33,33,106216,2,0,P|58:70|44:170,1,135,0|0,0:0|0:0,0:0:0:0:
310,299,107804,2,0,B|373:297|373:297|409:320|457:313,1,135,2|2,0:0|0:0,0:0:0:0:
451,116,109039,6,0,P|469:169|421:233,1,135,0|0,0:0|0:0,0:0:0:0:
328,218,109922,2,0,L|223:213,1,90,0|0,0:0|0:0,0:0:0:0:
189,127,110628,2,0,L|278:131,1,90,2|0,0:0|0:0,0:0:0:0:
256,192,111157,12,0,118216,0:0:0:0:
