osu file format v14

[General]
AudioFilename: Souzou Forest - Takumi Yoshida.mp3
AudioLeadIn: 0
PreviewTime: 137986
Countdown: 0
SampleSet: Soft
StackLeniency: 0.7
Mode: 0
LetterboxInBreaks: 1
EpilepsyWarning: 1
WidescreenStoryboard: 1

[Editor]
Bookmarks: 23633,46045,115222,131986,171869,183163,252339
DistanceSpacing: 1.5
BeatDivisor: 4
GridSize: 4
TimelineZoom: 1

[Metadata]
Title:Kuusou Forest
TitleUnicode:空想フォレスト
Artist:Jin ft. Takumi Yoshida
ArtistUnicode:じん ft. 吉田拓巳
Creator:Kaivu
Version:Insane
Source:カゲロウプロジェクト
Tags:akareh jin souzou marry fantasy imagination mekakucity actors kagepro shizen no teki p
BeatmapID:1224635
BeatmapSetID:254317

[Difficulty]
HPDrainRate:6
CircleSize:4
OverallDifficulty:6
ApproachRate:8.5
SliderMultiplier:1.6
SliderTickRate:1

[Events]
//Background and Video events
0,0,"BG.png",0,0
//Break Periods
2,160773,171193
//Storyboard Layer 0 (Background)
//Storyboard Layer 1 (Fail)
//Storyboard Layer 2 (Pass)
//Storyboard Layer 3 (Foreground)
//Storyboard Layer 4 (Overlay)
//Storyboard Sound Samples

[TimingPoints]
1045,352.941176470588,4,2,1,100,1,0
23103,-100,4,2,1,100,0,0
67750,-133.333333333333,4,2,1,100,0,0
68809,-100,4,2,2,100,0,1
80015,-100,4,2,2,100,0,0
80103,-100,4,2,2,100,0,1
91397,-100,4,3,1,75,0,0
92809,-100,4,2,1,100,0,0
136927,-133.333333333333,4,2,1,100,0,0
137986,-100,4,2,2,100,0,1
149192,-100,4,2,2,100,0,0
149280,-100,4,2,2,100,0,1
160574,-100,4,2,1,100,0,0
171868,-100,4,2,0,100,0,0
183162,-100,4,2,3,100,0,0
207162,-100,4,2,2,100,0,1
218368,-100,4,2,2,100,0,0
218456,-100,4,2,2,100,0,1
229750,-133.333333333333,4,2,1,100,0,0

[Colours]
Combo1 : 255,255,128
Combo2 : 128,128,255
Combo3 : 255,128,255
Combo4 : 128,255,128

[HitObjects]
376,40,23103,5,0,0:0:0:0:
284,116,23280,2,0,P|276:172|288:204,1,80,8|0,0:0|0:0,0:0:0:0:
376,272,23633,6,0,P|384:216|372:184,1,80,4|0,0:0|0:0,0:0:0:0:
284,116,23986,1,8,0:0:0:0:
188,188,24162,2,0,P|188:272|248:364,1,160
340,356,24692,1,8,0:0:0:0:
264,264,24868,6,0,P|186:247|109:269,1,160
24,352,25397,1,8,0:0:0:0:
20,232,25574,2,0,P|75:175|150:151,1,160
36,112,26103,1,8,0:0:0:0:
120,244,26280,1,0,0:0:0:0:
216,100,26456,6,0,P|294:84|371:106,1,160,4|8,0:0|0:0,0:0:0:0:
364,228,26986,2,0,P|286:244|209:222,1,160
112,156,27515,1,8,0:0:0:0:
216,100,27692,1,0,0:0:0:0:
128,232,27868,6,0,P|132:288|151:316,1,80
256,348,28221,1,8,0:0:0:0:
128,232,28397,2,0,P|75:291|55:369,1,160
12,256,28927,1,8,0:0:0:0:
144,328,29103,1,0,0:0:0:0:
72,176,29280,6,0,P|124:153|158:157,1,80,4|0,0:0|0:0,0:0:0:0:
224,244,29633,1,8,0:0:0:0:
298,128,29809,1,0,0:0:0:0:
304,265,29986,1,0,0:0:0:0:
218,158,30162,1,0,0:0:0:0:
351,196,30339,1,8,0:0:0:0:
145,154,30515,6,0,P|104:221|99:300,1,160
184,384,31044,1,8,0:0:0:0:
184,263,31221,1,0,0:0:0:0:
268,347,31397,1,0,0:0:0:0:
268,226,31574,1,0,0:0:0:0:
352,310,31750,1,8,0:0:0:0:
200,176,31927,6,0,P|271:141|350:142,1,160
428,236,32456,2,0,L|439:156,1,80,8|0,0:0|0:0,0:0:0:0:
452,36,32809,1,0,0:0:0:0:
512,140,32986,1,0,0:0:0:0:
368,72,33162,1,8,0:0:0:0:
368,72,33339,6,0,P|316:131|296:207,1,160
360,312,33868,1,8,0:0:0:0:
296,208,34044,2,0,P|218:192|142:213,1,160
32,160,34574,1,8,0:0:0:0:
72,272,34750,1,2,0:0:0:0:
52,88,34927,6,0,P|120:47|199:41,1,160,4|8,0:0|0:0,0:0:0:0:
308,96,35456,2,0,P|387:89|454:48,1,160,2|0,0:0|0:0,0:0:0:0:
336,20,35986,1,8,0:0:0:0:
204,116,36162,6,0,P|210:195|251:262,1,160,2|0,0:0|0:0,0:0:0:0:
356,324,36692,1,8,0:0:0:0:
440,240,36868,2,0,B|468:208|468:208|504:256|488:324,1,160,2|0,0:0|0:0,0:0:0:0:
356,232,37397,1,8,0:0:0:0:
428,136,37574,1,2,0:0:0:0:
324,80,37750,6,0,L|499:55,1,160,4|8,0:0|0:0,0:0:0:0:
376,0,38280,1,2,0:0:0:0:
428,136,38456,1,0,0:0:0:0:
324,80,38633,1,0,0:0:0:0:
376,216,38809,1,8,0:0:0:0:
272,160,38986,6,0,P|198:186|143:243,1,160,2|0,0:0|0:0,0:0:0:0:
152,364,39515,1,8,0:0:0:0:
56,288,39692,2,0,P|22:217|23:138,1,160,2|0,0:0|0:0,0:0:0:0:
96,40,40221,2,0,L|107:120,1,80,8|2,0:0|0:0,0:0:0:0:
196,200,40574,6,0,L|207:120,1,80,4|0,0:0|0:0,0:0:0:0:
300,44,40927,1,8,0:0:0:0:
284,164,41103,1,2,0:0:0:0:
220,40,41280,1,0,0:0:0:0:
376,64,41456,1,0,0:0:0:0:
284,164,41633,1,8,0:0:0:0:
176,116,41809,6,0,P|118:171|92:245,1,160,2|0,0:0|0:0,0:0:0:0:
212,224,42339,1,8,0:0:0:0:
88,72,42515,2,0,P|159:37|238:39,1,160,2|0,0:0|0:0,0:0:0:0:
348,88,43044,1,8,0:0:0:0:
456,36,43221,1,2,0:0:0:0:
424,152,43397,6,0,P|444:205|471:226,1,80
496,104,43750,1,8,0:0:0:0:
348,88,43927,2,0,P|313:159|315:238,1,160,2|0,0:0|0:0,0:0:0:0:
460,219,44456,1,8,0:0:0:0:
348,88,44633,6,0,P|282:131|244:201,1,160
264,320,45162,1,8,0:0:0:0:
152,280,45339,2,0,L|143:343,2,40,2|4|2,3:0|3:0|3:0,3:0:0:0:
244,201,45692,1,4,3:0:0:0:
88,244,45868,1,8,3:2:0:0:
144,92,46044,6,0,P|223:89|294:124,1,160,4|0,0:0|0:0,0:0:0:0:
384,208,46574,2,0,P|366:172|366:132,1,80,8|0,0:0|0:0,0:0:0:0:
448,44,46927,2,0,P|465:79|465:119,1,80
384,208,47280,1,8,0:0:0:0:
448,44,47456,6,0,P|371:20|293:35,1,160
184,88,47986,1,8,0:0:0:0:
184,88,48162,2,0,P|106:103|30:79,1,160
136,20,48692,1,8,0:0:0:0:
100,176,48868,1,0,0:0:0:0:
184,88,49044,6,0,P|256:144|240:220,1,160,0|8,0:0|0:0,0:0:0:0:
188,312,49574,2,0,P|259:276|338:279,1,160
412,376,50103,1,8,0:0:0:0:
472,268,50280,6,0,P|474:188|439:117,1,160
352,36,50809,2,0,L|341:116,1,80,8|0,0:0|0:0,0:0:0:0:
256,204,51162,2,0,L|245:124,1,80
128,96,51515,1,8,0:0:0:0:
256,36,51692,1,0,0:0:0:0:
124,16,51868,6,0,P|52:72|68:148,1,160,0|8,0:0|0:0,0:0:0:0:
168,176,52397,1,0,0:0:0:0:
72,248,52574,2,0,P|109:237|149:246,1,80
124,364,52927,1,8,0:0:0:0:
216,288,53103,6,0,B|260:252|328:328|380:276,1,160
444,192,53633,1,8,0:0:0:0:
492,300,53809,1,0,0:0:0:0:
364,204,53986,1,0,0:0:0:0:
440,112,54162,1,0,0:0:0:0:
320,128,54339,1,8,0:0:0:0:
480,128,54515,2,0,P|495:205|472:281,1,160
352,284,55044,6,0,L|361:347,3,40,8|0|0|0,0:0|0:0|0:0|0:0,0:0:0:0:
348,264,55397,2,0,P|312:244|273:242,1,80
176,312,55750,1,8,0:0:0:0:
64,268,55927,6,0,P|40:192|55:114,1,160
164,168,56456,2,0,L|153:88,1,80,8|0,0:0|0:0,0:0:0:0:
252,20,56809,2,0,L|241:100,1,80
224,220,57162,1,8,0:0:0:0:
120,156,57339,6,0,P|92:184|79:221,1,80,4|0,0:0|0:0,0:0:0:0:
183,285,57692,2,0,P|210:256|223:219,1,80,0|8,0:0|0:0,0:0:0:0:
196,104,58044,1,0,0:0:0:0:
292,32,58221,2,0,P|331:32|367:50,1,80
336,164,58574,2,0,P|296:163|260:145,1,80,8|0,0:0|0:0,0:0:0:0:
176,60,58927,5,0,0:0:0:0:
56,180,59103,1,0,0:0:0:0:
56,60,59280,1,8,0:0:0:0:
175,180,59456,1,0,0:0:0:0:
175,180,59633,2,0,P|192:215|193:255,1,80
37,255,59986,2,0,P|37:215|55:179,1,80,8|0,0:0|0:0,0:0:0:0:
184,88,60339,6,0,L|359:63,1,160,0|8,0:0|0:0,0:0:0:0:
440,132,60868,2,0,P|369:168|324:234,1,160
408,320,61397,1,8,0:0:0:0:
325,233,61574,6,0,P|254:269|209:335,1,160
92,352,62103,1,8,0:0:0:0:
92,352,62280,2,0,P|77:274|101:198,1,160
196,124,62809,2,0,L|207:204,1,80,8|0,0:0|0:0,0:0:0:0:
112,128,63162,6,0,L|123:48,1,80
270,49,63515,2,0,L|281:129,1,80,8|0,0:0|0:0,0:0:0:0:
352,224,63868,2,0,P|357:145|400:78,1,160,0|8,0:0|0:0,0:0:0:0:
500,12,64397,1,0,0:0:0:0:
460,124,64574,6,0,P|456:203|490:274,1,160,0|8,0:0|0:0,0:0:0:0:
352,224,65103,1,0,0:0:0:0:
352,224,65280,2,0,P|324:252|311:289,1,80
420,344,65633,1,8,0:0:0:0:
352,224,65809,6,0,P|279:190|201:193,1,160
185,305,66339,2,0,L|265:294,1,80,8|0,0:0|0:0,0:0:0:0:
201,193,66692,2,0,L|121:204,1,80
156,88,67044,2,0,L|236:77,1,80,8|0,0:0|0:0,0:0:0:0:
356,60,67397,5,0,0:0:0:0:
356,60,67750,2,0,P|416:92|440:260,1,240.000009155274,4|0,0:0|0:0,0:0:0:0:
284,40,68809,6,0,P|248:83|243:117,1,80,6|0,0:0|0:0,0:0:0:0:
264,224,69162,2,0,P|299:180|304:146,1,80,10|0,0:0|0:0,0:0:0:0:
176,52,69515,2,0,L|165:132,1,80
148,252,69868,1,8,0:0:0:0:
264,224,70044,1,0,0:0:0:0:
100,184,70221,6,0,P|68:230|66:264,2,80,0|0|8,0:0|0:0|0:0,0:0:0:0:
256,144,70750,2,0,P|307:83|325:6,1,160
208,32,71280,1,8,0:0:0:0:
376,108,71456,1,0,0:0:0:0:
256,144,71633,6,0,P|224:190|222:224,1,80,2|0,0:0|0:0,0:0:0:0:
341,212,71986,2,0,P|387:243|421:245,1,80,8|0,0:0|0:0,0:0:0:0:
409,126,72339,2,0,P|440:79|442:45,1,80
323,57,72692,2,0,P|276:25|242:23,1,80,8|0,0:0|0:0,0:0:0:0:
134,22,73044,6,0,P|95:31|65:56,1,80
12,164,73397,2,0,L|1:84,1,80,8|0,0:0|0:0,0:0:0:0:
112,132,73750,2,0,L|101:212,1,80
80,328,74103,1,8,0:0:0:0:
0,240,74280,1,0,0:0:0:0:
188,208,74456,6,0,P|230:274|236:353,1,160,2|8,0:0|0:0,0:0:0:0:
143,275,74986,1,0,0:0:0:0:
127,156,75162,2,0,P|199:128|261:174,1,160,0|8,0:0|0:0,0:0:0:0:
143,275,75692,1,0,0:0:0:0:
32,228,75868,6,0,P|13:192|16:152,1,80
111,81,76221,2,0,P|129:116|126:156,1,80,8|0,0:0|0:0,0:0:0:0:
12,320,76574,2,0,L|92:309,1,80
192,244,76927,2,0,L|112:233,1,80,8|0,0:0|0:0,0:0:0:0:
15,153,77280,5,2,0:0:0:0:
111,81,77456,1,0,0:0:0:0:
192,244,77633,2,0,L|203:164,1,80,8|0,0:0|0:0,0:0:0:0:
300,60,77986,2,0,L|289:140,1,80
269,276,78339,2,0,L|349:265,1,80,8|0,0:0|0:0,0:0:0:0:
422,170,78692,6,0,P|459:182|486:211,1,80
412,306,79044,2,0,P|374:293|347:264,1,80,8|0,0:0|0:0,0:0:0:0:
328,150,79397,2,0,P|290:162|263:191,1,80
224,348,79750,2,0,L|213:268,1,80,8|0,0:0|0:0,0:0:0:0:
184,68,80103,6,0,L|173:148,1,80,6|0,0:0|0:0,0:0:0:0:
64,264,80456,2,0,L|75:184,1,80,10|0,0:0|0:0,0:0:0:0:
184,68,80809,2,0,P|220:82|243:114,1,80
248,236,81162,1,8,0:0:0:0:
173,147,81339,1,0,0:0:0:0:
328,108,81515,6,0,P|367:109|400:131,2,80,0|0|8,0:0|0:0|0:0,0:0:0:0:
190,221,82044,2,0,P|171:185|173:146,1,80
328,108,82397,1,0,0:0:0:0:
328,228,82574,1,8,0:0:0:0:
248,88,82750,1,0,0:0:0:0:
340,16,82927,6,0,P|378:28|405:57,1,80,2|0,0:0|0:0,0:0:0:0:
316,200,83280,2,0,P|278:188|251:159,1,80,8|0,0:0|0:0,0:0:0:0:
196,52,83633,2,0,L|185:132,1,80
76,80,83986,2,0,L|87:160,1,80,8|0,0:0|0:0,0:0:0:0:
112,320,84339,6,0,L|123:240,1,80
185,131,84692,2,0,L|196:211,1,80,8|0,0:0|0:0,0:0:0:0:
268,304,85044,2,0,P|301:324|341:326,1,80
436,256,85397,1,8,0:0:0:0:
416,376,85574,1,0,0:0:0:0:
364,236,85750,6,0,P|330:215|290:213,1,80,2|0,0:0|0:0,0:0:0:0:
196,292,86103,1,8,0:0:0:0:
308,292,86280,1,0,0:0:0:0:
213,213,86456,2,0,P|128:248|124:326,1,160,0|8,0:0|0:0,0:0:0:0:
118,308,86986,1,0,0:0:0:0:
20,376,87162,6,0,P|1:340|2:301,1,80
44,148,87515,2,0,P|62:183|61:222,1,80,8|0,0:0|0:0,0:0:0:0:
8,68,87868,1,0,0:0:0:0:
120,24,88044,1,0,0:0:0:0:
136,144,88221,2,0,P|171:162|210:161,1,80,8|0,0:0|0:0,0:0:0:0:
308,88,88574,6,0,L|297:168,1,80,2|0,0:0|0:0,0:0:0:0:
328,284,88927,2,0,P|399:250|478:254,2,160,8|0|8,0:0|0:0|0:0,0:0:0:0:
248,376,89809,1,0,0:0:0:0:
156,296,89986,5,0,0:0:0:0:
244,216,90162,1,0,0:0:0:0:
176,368,90339,1,8,0:0:0:0:
172,216,90515,2,0,P|87:251|83:329,1,160
236,292,91044,1,8,0:0:0:0:
100,380,91221,1,0,0:0:0:0:
256,108,91927,6,8,L|256:68,2,40
256,228,92280,2,0,L|256:272,4,40,8|8|2|2|12,3:0|0:0|3:0|0:0|3:0,0:0:0:0:
364,172,92809,6,0,P|420:178|447:198,1,80,4|0,0:0|0:0,0:0:0:0:
376,292,93162,1,8,0:0:0:0:
280,164,93339,2,0,L|255:339,1,160
376,292,93868,1,8,0:0:0:0:
192,216,94044,6,0,P|124:259|85:329,1,160
86,327,94573,1,8,0:0:0:0:
20,224,94750,2,0,P|19:144|55:74,1,160
164,20,95280,2,0,L|175:100,1,80,8|0,0:0|0:0,0:0:0:0:
200,256,95633,6,0,P|203:216|224:182,1,80,4|0,0:0|0:0,0:0:0:0:
336,132,95986,1,8,0:0:0:0:
280,240,96162,1,0,0:0:0:0:
400,232,96339,1,0,0:0:0:0:
360,96,96515,1,0,0:0:0:0:
257,161,96691,1,8,0:0:0:0:
365,214,96868,1,0,0:0:0:0:
201,104,97044,6,0,P|180:137|177:177,1,80
256,268,97397,1,8,0:0:0:0:
365,214,97574,2,0,P|441:234|500:286,1,160
408,368,98103,2,0,P|384:335|375:296,1,80,8|0,0:0|0:0,0:0:0:0:
432,148,98456,6,0,P|423:109|399:77,1,80,4|0,0:0|0:0,0:0:0:0:
271,118,98809,1,8,0:0:0:0:
351,6,98985,1,0,0:0:0:0:
349,143,99162,1,0,0:0:0:0:
269,31,99338,1,0,0:0:0:0:
399,77,99515,1,8,0:0:0:0:
200,72,99691,6,0,P|144:125|119:200,1,160
203,287,100220,1,8,0:0:0:0:
288,201,100397,1,0,0:0:0:0:
372,285,100573,1,0,0:0:0:0:
457,199,100750,1,0,0:0:0:0:
372,285,100926,1,8,0:0:0:0:
288,201,101103,6,0,P|286:281|321:352,1,160
200,332,101632,2,0,L|211:252,1,80,8|0,0:0|0:0,0:0:0:0:
228,132,101985,1,0,0:0:0:0:
148,220,102162,1,0,0:0:0:0:
288,201,102338,1,8,0:0:0:0:
152,108,102515,6,0,L|327:133,1,160
428,148,103044,1,8,0:0:0:0:
346,58,103221,2,0,P|299:122|287:200,1,160
352,344,103750,2,0,P|353:304|339:267,1,80,8|2,0:0|0:0,0:0:0:0:
220,240,104103,5,4,0:0:0:0:
132,320,104280,1,0,0:0:0:0:
104,204,104456,1,8,0:0:0:0:
216,316,104633,2,0,P|295:309|362:268,1,160,2|0,0:0|0:0,0:0:0:0:
412,156,105162,1,8,0:0:0:0:
304,100,105339,6,0,P|237:162|259:236,1,160,2|0,0:0|0:0,0:0:0:0:
362,267,105868,1,8,0:0:0:0:
308,372,106044,2,0,P|379:338|458:340,1,160,2|0,0:0|0:0,0:0:0:0:
420,228,106573,1,8,0:0:0:0:
276,296,106750,1,2,0:0:0:0:
316,184,106927,6,0,P|236:181|164:215,1,160,4|8,0:0|0:0,0:0:0:0:
112,324,107456,1,2,0:0:0:0:
44,228,107632,1,0,0:0:0:0:
164,215,107809,1,0,0:0:0:0:
96,119,107986,1,8,0:0:0:0:
216,108,108162,6,0,P|290:134|345:191,1,160,2|0,0:0|0:0,0:0:0:0:
332,312,108691,1,8,0:0:0:0:
264,212,108868,2,0,P|290:137|346:82,1,160,2|0,0:0|0:0,0:0:0:0:
460,44,109397,2,0,P|442:79|440:119,1,80,8|2,0:0|0:0,0:0:0:0:
504,224,109750,5,4,0:0:0:0:
504,224,110103,1,8,0:0:0:0:
440,119,110279,1,2,0:0:0:0:
284,160,110456,1,0,0:0:0:0:
400,192,110633,1,0,0:0:0:0:
336,87,110809,1,8,0:0:0:0:
336,87,110986,6,0,P|256:84|185:118,1,160,2|0,0:0|0:0,0:0:0:0:
182,277,111515,1,8,0:0:0:0:
244,176,111692,1,2,0:0:0:0:
244,176,111868,1,0,0:0:0:0:
126,193,112044,1,0,0:0:0:0:
270,262,112220,1,8,0:0:0:0:
332,161,112397,1,2,0:0:0:0:
400,260,112574,6,0,L|411:180,1,80
300,228,112926,1,8,0:0:0:0:
240,108,113103,2,0,P|205:179|207:258,1,160,2|0,0:0|0:0,0:0:0:0:
260,368,113632,1,8,0:0:0:0:
348,284,113809,6,0,P|423:261|501:277,1,160
428,372,114338,1,8,0:0:0:0:
348,284,114515,2,0,L|357:221,2,40,2|4|2,3:0|3:0|3:0,3:0:0:0:
296,176,114868,1,4,3:0:0:0:
276,292,115044,1,8,3:2:0:0:
184,216,115221,6,0,P|126:269|100:344,1,160,4|0,0:0|0:0,0:0:0:0:
276,292,115750,2,0,P|316:294|350:314,1,80,8|0,0:0|0:0,0:0:0:0:
248,376,116103,2,0,P|207:373|173:353,1,80
184,216,116456,1,8,0:0:0:0:
40,280,116633,6,0,P|6:208|9:129,1,160
114,187,117162,1,8,0:0:0:0:
220,128,117339,2,0,P|222:207|188:278,1,160
296,228,117868,1,8,0:0:0:0:
304,348,118044,1,0,0:0:0:0:
360,184,118221,6,0,P|413:243|430:320,1,160,0|8,0:0|0:0,0:0:0:0:
360,184,118750,2,0,P|431:148|510:151,1,160
416,76,119279,1,8,0:0:0:0:
452,228,119456,2,0,P|381:264|302:261,1,160
240,160,119985,2,0,L|229:240,1,80,8|0,0:0|0:0,0:0:0:0:
164,136,120338,2,0,L|153:216,1,80
136,336,120691,1,8,0:0:0:0:
72,232,120868,1,0,0:0:0:0:
229,239,121044,6,0,P|282:184|264:109,1,160,0|8,0:0|0:0,0:0:0:0:
144,104,121573,1,0,0:0:0:0:
220,12,121750,2,0,P|257:1|297:10,1,80
380,96,122103,1,8,0:0:0:0:
260,80,122280,6,0,P|224:151|227:230,1,160
336,176,122809,1,8,0:0:0:0:
300,292,122985,1,0,0:0:0:0:
152,200,123162,2,0,P|134:236|134:276,1,80
224,352,123515,1,8,0:0:0:0:
226,229,123692,2,0,B|270:193|338:269|390:217,1,160
468,144,124221,6,0,L|477:207,3,40,8|0|0|0,0:0|0:0|0:0|0:0,0:0:0:0:
464,124,124573,2,0,P|428:104|389:102,1,80
284,160,124926,1,8,0:0:0:0:
196,56,125103,6,0,P|250:2|325:20,1,160
284,160,125632,2,0,L|273:80,1,80,8|0,0:0|0:0,0:0:0:0:
389,101,125985,2,0,L|378:181,1,80
360,300,126338,1,8,0:0:0:0:
260,232,126515,6,0,P|232:260|219:297,1,80,4|0,0:0|0:0,0:0:0:0:
196,180,126868,2,0,P|156:180|121:196,1,80,0|8,0:0|0:0,0:0:0:0:
56,300,127220,1,0,0:0:0:0:
24,184,127397,2,0,P|24:145|42:109,2,80,0|0|8,0:0|0:0|0:0,0:0:0:0:
56,300,127927,1,0,0:0:0:0:
152,228,128103,5,0,0:0:0:0:
272,212,128279,1,0,0:0:0:0:
200,308,128456,1,8,0:0:0:0:
320,292,128632,1,0,0:0:0:0:
212,156,128809,2,0,P|247:136|287:132,1,80
364,224,129162,2,0,L|375:144,1,80,8|0,0:0|0:0,0:0:0:0:
448,40,129515,6,0,L|470:199,1,160,0|8,0:0|0:0,0:0:0:0:
368,72,130044,2,0,P|297:108|252:174,1,160
248,292,130573,1,8,0:0:0:0:
248,292,130750,6,0,P|202:226|131:190,1,160
60,288,131279,1,8,0:0:0:0:
8,180,131456,2,0,P|44:109|110:64,1,160
216,124,131986,2,0,P|252:106|278:75,1,80,8|0,0:0|0:0,0:0:0:0:
376,148,132338,6,0,L|365:228,1,80
456,96,132691,2,0,L|467:176,1,80,8|0,0:0|0:0,0:0:0:0:
368,48,133044,2,0,P|290:64|231:117,1,160,0|8,0:0|0:0,0:0:0:0:
212,236,133573,1,0,0:0:0:0:
144,136,133750,6,0,P|101:202|96:281,1,160,0|8,0:0|0:0,0:0:0:0:
196,348,134279,1,0,0:0:0:0:
287,218,134456,2,0,P|247:218|212:234,1,80
120,360,134809,1,8,0:0:0:0:
16,300,134986,6,0,P|13:220|47:149,1,160
140,72,135515,2,0,L|129:152,1,80,8|0,0:0|0:0,0:0:0:0:
214,66,135868,2,0,L|224:146,1,80
284,40,136221,2,0,L|314:114,1,80,8|0,0:0|0:0,0:0:0:0:
360,224,136573,5,0,0:0:0:0:
360,224,136927,2,0,P|243:223|170:313,1,240.000009155274,4|0,0:0|0:0,0:0:0:0:
20,124,137986,6,0,P|32:86|60:58,1,80,6|0,0:0|0:0,0:0:0:0:
176,96,138339,2,0,L|256:85,1,80,10|0,0:0|0:0,0:0:0:0:
308,192,138692,2,0,L|228:181,1,80
108,164,139045,1,8,0:0:0:0:
161,271,139221,1,0,0:0:0:0:
56,104,139398,6,0,P|28:152|29:186,2,80,0|0|8,0:0|0:0|0:0,0:0:0:0:
192,28,139927,2,0,P|243:89|261:166,1,160
216,276,140456,1,8,0:0:0:0:
324,204,140633,1,0,0:0:0:0:
376,280,140809,6,0,P|348:308|311:321,1,80,2|0,0:0|0:0,0:0:0:0:
324,204,141162,2,0,P|351:175|388:162,1,80,8|0,0:0|0:0,0:0:0:0:
484,236,141515,2,0,L|495:156,1,80
399,82,141868,2,0,L|388:162,1,80,8|0,0:0|0:0,0:0:0:0:
276,208,142221,6,0,L|287:128,1,80
191,54,142574,2,0,L|180:134,1,80,8|0,0:0|0:0,0:0:0:0:
160,252,142927,2,0,P|131:224|118:187,1,80
191,54,143280,1,8,0:0:0:0:
76,96,143457,1,0,0:0:0:0:
264,28,143633,6,0,P|333:64|378:129,1,160,2|8,0:0|0:0,0:0:0:0:
300,220,144163,1,0,0:0:0:0:
168,128,144339,2,0,P|240:100|302:146,1,160,0|8,0:0|0:0,0:0:0:0:
223,234,144869,1,0,0:0:0:0:
168,128,145045,6,0,P|149:164|152:204,1,80
207,308,145398,2,0,P|225:273|222:233,1,80,8|0,0:0|0:0,0:0:0:0:
72,213,145751,2,0,L|152:202,1,80
8,136,146104,2,0,L|88:125,1,80,8|0,0:0|0:0,0:0:0:0:
176,44,146456,5,2,0:0:0:0:
176,44,146633,1,0,0:0:0:0:
152,164,146810,2,0,P|178:193|216:205,1,80,8|0,0:0|0:0,0:0:0:0:
308,128,147163,2,0,L|297:208,1,80
400,272,147516,2,0,L|389:192,1,80,8|0,0:0|0:0,0:0:0:0:
376,72,147869,6,0,P|413:84|440:113,1,80
308,128,148221,2,0,P|270:115|243:86,1,80,8|0,0:0|0:0,0:0:0:0:
328,0,148574,2,0,L|248:11,1,80
136,52,148927,2,0,L|56:41,1,80,8|0,0:0|0:0,0:0:0:0:
184,140,149280,6,0,L|173:220,1,80,6|0,0:0|0:0,0:0:0:0:
280,168,149633,2,0,L|291:88,1,80,10|0,0:0|0:0,0:0:0:0:
136,52,149986,2,0,P|100:66|77:98,1,80
172,228,150339,1,8,0:0:0:0:
148,128,150516,1,0,0:0:0:0:
56,204,150692,6,0,L|45:284,2,80,0|0|8,0:0|0:0|0:0,0:0:0:0:
212,164,151221,2,0,P|252:165|285:186,1,80
296,308,151574,1,0,0:0:0:0:
352,156,151751,1,8,0:0:0:0:
364,278,151927,1,0,0:0:0:0:
244,251,152104,6,0,P|256:213|285:186,1,80,2|0,0:0|0:0,0:0:0:0:
432,152,152456,2,0,P|460:124|472:87,1,80,8|0,0:0|0:0,0:0:0:0:
368,24,152809,2,0,P|339:51|327:88,1,80
372,200,153163,2,0,L|383:280,1,80,8|0,0:0|0:0,0:0:0:0:
276,332,153516,6,0,L|287:252,1,80
216,156,153869,2,0,L|205:236,1,80,8|0,0:0|0:0,0:0:0:0:
132,328,154221,2,0,L|121:248,1,80
140,132,154574,1,8,0:0:0:0:
56,220,154751,1,0,0:0:0:0:
216,156,154927,6,0,P|255:158|289:179,1,80,2|0,0:0|0:0,0:0:0:0:
328,292,155280,1,8,0:0:0:0:
348,132,155457,1,0,0:0:0:0:
252,268,155633,2,0,P|324:211|394:247,1,160,0|8,0:0|0:0,0:0:0:0:
440,336,156163,1,0,0:0:0:0:
472,176,156339,6,0,L|483:256,1,80
392,153,156692,2,0,L|381:233,1,80,8|0,0:0|0:0,0:0:0:0:
448,88,157045,1,0,0:0:0:0:
340,36,157221,1,0,0:0:0:0:
244,108,157398,2,0,P|279:126|318:125,1,80,8|0,0:0|0:0,0:0:0:0:
176,40,157751,6,0,L|165:120,1,80,2|0,0:0|0:0,0:0:0:0:
148,236,158103,1,8,0:0:0:0:
88,132,158280,1,0,0:0:0:0:
244,108,158456,2,0,L|255:188,1,80
332,280,158809,2,0,L|343:200,1,80,8|0,0:0|0:0,0:0:0:0:
360,80,159163,5,0,0:0:0:0:
244,108,159339,1,0,0:0:0:0:
412,128,159516,1,8,0:0:0:0:
260,28,159692,2,0,P|175:63|171:141,1,160
212,232,160221,1,8,0:0:0:0:
244,108,160397,2,0,P|281:120|308:148,1,80,0|4,0:0|0:0,0:0:0:0:
80,92,171868,5,4,0:0:0:0:
156,232,172044,1,0,0:0:0:0:
116,164,172221,1,8,0:0:0:0:
116,324,172397,1,0,0:0:0:0:
8,272,172574,2,0,P|23:235|54:210,1,80
192,164,172927,2,0,P|222:139|238:102,1,80,8|0,0:0|0:0,0:0:0:0:
148,24,173280,6,0,L|228:13,1,80
380,60,173633,2,0,L|300:49,1,80,8|0,0:0|0:0,0:0:0:0:
158,112,173986,2,0,L|238:101,1,80
390,148,174339,2,0,L|310:137,1,80,8|0,0:0|0:0,0:0:0:0:
204,196,174692,6,0,P|173:221|158:257,1,80
260,320,175044,2,0,P|290:294|305:258,1,80,8|0,0:0|0:0,0:0:0:0:
310,137,175397,1,0,0:0:0:0:
413,279,175574,1,0,0:0:0:0:
305,257,175750,1,8,0:0:0:0:
446,129,175927,6,0,P|449:206|415:278,1,160
300,320,176456,2,0,P|315:283|346:258,1,80,8|0,0:0|0:0,0:0:0:0:
261,173,176809,2,0,P|297:158|337:162,1,80
337,42,177162,2,0,P|373:57|398:88,1,80,8|0,0:0|0:0,0:0:0:0:
261,173,177515,6,0,P|191:137|147:72,1,160,0|8,0:0|0:0,0:0:0:0:
146,70,178044,1,0,0:0:0:0:
36,24,178221,2,0,P|12:55|6:94,1,80
92,180,178574,1,8,0:0:0:0:
146,70,178750,6,0,P|217:35|296:38,1,160
404,92,179280,1,8,0:0:0:0:
284,112,179456,2,0,P|213:148|169:214,1,160
116,324,179986,2,0,L|105:244,1,80,8|0,0:0|0:0,0:0:0:0:
224,272,180339,6,0,L|235:352,1,80
300,252,180692,2,0,P|331:228|371:223,1,80,8|0,0:0|0:0,0:0:0:0:
460,304,181044,2,0,P|483:272|488:232,1,80
440,120,181397,1,8,0:0:0:0:
370,222,181574,6,0,P|291:216|224:173,1,160
156,76,182103,2,0,P|125:100|110:138,1,80,8|0,0:0|0:0,0:0:0:0:
234,248,182456,2,0,P|219:212|224:173,1,80,8|8,0:0|0:0,0:0:0:0:
336,188,182809,2,0,P|360:219|398:234,1,80,8|8,0:0|0:0,0:0:0:0:
480,172,183162,5,6,0:0:0:0:
492,276,183339,1,0,0:0:0:0:
397,233,183515,1,10,0:0:0:0:
409,337,183692,1,0,0:0:0:0:
312,296,183868,2,0,P|238:322|184:380,1,160,2|10,0:0|0:0,0:0:0:0:
183,380,184397,1,0,0:0:0:0:
84,344,184574,6,0,P|80:264|114:193,1,160,2|10,0:0|0:0,0:0:0:0:
182,273,185103,1,0,0:0:0:0:
114,193,185280,1,2,0:0:0:0:
216,177,185456,1,0,0:0:0:0:
148,97,185633,1,10,0:0:0:0:
250,81,185809,1,0,0:0:0:0:
182,1,185986,6,0,P|107:27|53:85,2,160,6|10|2,0:0|0:0|0:0,0:0:0:0:
250,81,186868,1,0,0:0:0:0:
344,36,187044,2,0,L|355:116,1,80,10|0,0:0|0:0,0:0:0:0:
368,220,187397,5,2,0:0:0:0:
448,156,187574,1,0,0:0:0:0:
354,115,187750,1,10,0:0:0:0:
434,51,187927,1,0,0:0:0:0:
340,10,188103,2,0,P|301:18|272:46,1,80,2|0,0:0|0:0,0:0:0:0:
240,144,188456,1,14,0:0:0:0:
52,52,188809,6,0,L|41:132,1,80,6|0,0:0|0:0,0:0:0:0:
28,236,189162,1,10,0:0:0:0:
128,272,189339,1,0,0:0:0:0:
212,204,189515,2,0,P|236:235|240:274,1,80,2|0,0:0|0:0,0:0:0:0:
160,340,189868,1,10,0:0:0:0:
256,376,190044,1,0,0:0:0:0:
240,274,190221,6,0,P|168:239|89:243,2,160,2|10|2,0:0|0:0|0:0,0:0:0:0:
256,376,191103,1,0,0:0:0:0:
340,312,191280,1,10,0:0:0:0:
432,356,191456,1,0,0:0:0:0:
408,256,191633,6,0,P|427:179|481:120,2,160,6|10|2,0:0|0:0|0:0,0:0:0:0:
504,300,192515,1,0,0:0:0:0:
408,256,192692,2,0,L|328:267,1,80,10|0,0:0|0:0,0:0:0:0:
236,312,193044,5,2,0:0:0:0:
208,189,193220,1,0,0:0:0:0:
300,274,193397,1,10,0:0:0:0:
176,260,193574,1,0,0:0:0:0:
285,199,193750,2,0,P|356:222|371:300,1,160,2|14,0:0|0:0,0:0:0:0:
181,181,194456,6,0,P|173:225|177:265,1,80,6|0,0:0|0:0,0:0:0:0:
148,108,194809,2,0,P|119:142|102:178,1,80,10|0,0:0|0:0,0:0:0:0:
164,32,195162,2,0,P|79:61|14:107,1,160,2|10,0:0|0:0,0:0:0:0:
148,108,195692,1,0,0:0:0:0:
92,196,195868,6,0,P|111:273|165:332,2,160,2|10|2,0:0|0:0|0:0,0:0:0:0:
148,108,196750,1,0,0:0:0:0:
252,108,196927,1,10,0:0:0:0:
196,196,197103,1,0,0:0:0:0:
300,192,197280,6,0,B|360:192|389:236|389:236|452:236,2,160,6|10|2,0:0|0:0|0:0,0:0:0:0:
244,280,198162,1,0,0:0:0:0:
196,196,198339,2,0,P|199:156|223:125,1,80,10|0,0:0|0:0,0:0:0:0:
324,100,198692,5,2,0:0:0:0:
234,46,198868,1,0,0:0:0:0:
136,76,199044,1,10,0:0:0:0:
136,76,199221,1,0,0:0:0:0:
234,46,199397,2,0,L|223:126,1,80,2|0,0:0|0:0,0:0:0:0:
324,100,199750,2,0,L|313:180,1,80,14|0,0:0|0:0,0:0:0:0:
412,148,200103,5,6,0:0:0:0:
313,179,200279,1,0,0:0:0:0:
388,252,200456,1,10,0:0:0:0:
290,282,200633,1,0,0:0:0:0:
324,100,200810,2,0,L|313:180,1,80,2|0,0:0|0:0,0:0:0:0:
215,209,201162,2,0,P|192:132|210:54,2,160,10|2|10,0:0|0:0|0:0,0:0:0:0:
290,282,202044,5,0,0:0:0:0:
388,252,202221,2,0,P|428:255|459:279,1,80,2|0,0:0|0:0,0:0:0:0:
290,282,202574,2,0,P|250:279|219:255,1,80,10|0,0:0|0:0,0:0:0:0:
284,172,202927,2,0,B|328:136|396:212|448:160,2,160,4|0|0,0:0|0:0|0:0,0:0:0:0:
256,192,203986,12,0,205750,0:0:0:0:
120,244,207162,6,0,L|200:233,1,80,6|0,0:0|0:0,0:0:0:0:
296,160,207515,2,0,P|240:151|208:164,1,80,10|0,0:0|0:0,0:0:0:0:
216,304,207868,2,0,P|254:312|293:302,1,80
388,232,208221,1,8,0:0:0:0:
416,348,208397,1,0,0:0:0:0:
476,200,208574,6,0,L|465:280,2,80,0|0|8,0:0|0:0|0:0,0:0:0:0:
380,68,209103,2,0,P|303:79|272:150,1,160
324,260,209633,1,8,0:0:0:0:
352,144,209809,1,0,0:0:0:0:
192,152,209986,6,0,P|160:198|158:232,1,80,2|0,0:0|0:0,0:0:0:0:
212,328,210339,2,0,P|244:282|246:248,1,80,8|0,0:0|0:0,0:0:0:0:
192,152,210692,2,0,P|201:113|226:83,1,80,0|0,0:0|0:0,0:0:0:0:
344,52,211044,2,0,L|424:63,1,80,8|0,0:0|0:0,0:0:0:0:
508,148,211397,6,0,L|428:159,1,80
343,244,211750,2,0,L|423:255,1,80,8|0,0:0|0:0,0:0:0:0:
507,340,212103,2,0,L|427:351,1,80
308,372,212456,1,8,0:0:0:0:
308,372,212633,1,0,0:0:0:0:
342,243,212809,6,0,P|276:201|197:196,1,160,2|8,0:0|0:0,0:0:0:0:
156,312,213339,1,0,0:0:0:0:
116,204,213515,2,0,P|144:132|220:118,1,160,0|8,0:0|0:0,0:0:0:0:
342,243,214044,6,0,P|384:176|389:97,1,160
296,16,214574,2,0,L|376:5,1,80,8|0,0:0|0:0,0:0:0:0:
309,107,214927,2,0,L|389:96,1,80
322,198,215280,2,0,L|402:187,1,80,8|0,0:0|0:0,0:0:0:0:
256,154,215633,6,0,P|241:190|248:230,1,80,2|0,0:0|0:0,0:0:0:0:
349,353,215986,2,0,P|363:316|356:276,1,80,8|0,0:0|0:0,0:0:0:0:
201,300,216339,2,0,P|237:314|277:307,1,80
402,207,216692,2,0,P|365:192|325:199,1,80,8|0,0:0|0:0,0:0:0:0:
201,300,217044,6,0,P|186:263|193:223,1,80
294,101,217397,2,0,P|308:137|301:177,1,80,8|0,0:0|0:0,0:0:0:0:
148,154,217750,2,0,P|184:139|224:146,1,80
349,247,218103,2,0,P|312:261|272:254,1,80,8|0,0:0|0:0,0:0:0:0:
148,154,218456,6,0,L|137:234,1,80,6|0,0:0|0:0,0:0:0:0:
56,324,218809,2,0,L|45:244,1,80,10|0,0:0|0:0,0:0:0:0:
148,154,219162,2,0,P|186:158|216:183,1,80
252,300,219515,1,8,0:0:0:0:
152,232,219692,1,0,0:0:0:0:
312,220,219868,6,0,L|323:140,2,80,0|0|8,0:0|0:0|0:0,0:0:0:0:
436,320,220397,2,0,P|455:284|453:245,1,80
404,136,220750,1,0,0:0:0:0:
312,220,220927,1,8,0:0:0:0:
468,176,221103,1,0,0:0:0:0:
376,48,221280,6,0,P|336:46|301:65,1,80,2|0,0:0|0:0,0:0:0:0:
243,172,221633,2,0,B|200:172|200:172|172:148,1,80,8|0,0:0|0:0,0:0:0:0:
88,64,221986,2,0,L|77:144,1,80
56,260,222339,2,0,P|91:241|130:242,1,80,8|0,0:0|0:0,0:0:0:0:
240,296,222692,6,0,P|279:297|314:278,1,80
392,188,223044,2,0,L|403:268,1,80,8|0,0:0|0:0,0:0:0:0:
480,360,223397,2,0,L|491:280,1,80
508,160,223750,1,8,0:0:0:0:
490,280,223927,1,0,0:0:0:0:
428,180,224103,6,0,P|394:159|354:157,2,80,2|0|8,0:0|0:0|0:0,0:0:0:0:
490,280,224633,1,0,0:0:0:0:
371,236,224809,2,0,P|286:271|282:349,1,160,0|8,0:0|0:0,0:0:0:0:
413,303,225339,2,0,P|448:218|396:160,1,160
304,124,225868,2,0,P|291:161|263:188,1,80,8|0,0:0|0:0,0:0:0:0:
148,160,226221,1,0,0:0:0:0:
220,64,226397,1,0,0:0:0:0:
196,224,226574,2,0,P|208:261|236:288,1,80,8|0,0:0|0:0,0:0:0:0:
336,220,226927,6,0,L|325:300,1,80,2|0,0:0|0:0,0:0:0:0:
410,384,227280,1,8,0:0:0:0:
325,299,227456,1,0,0:0:0:0:
239,384,227633,1,0,0:0:0:0:
154,299,227809,1,0,0:0:0:0:
154,299,227986,2,0,L|234:288,1,80,8|0,0:0|0:0,0:0:0:0:
352,272,228339,6,0,P|428:290|489:341,2,160,0|8|0,0:0|0:0|0:0,0:0:0:0:
256,361,229221,1,0,0:0:0:0:
256,361,229397,2,0,P|235:327|232:287,1,80,8|0,0:0|0:0,0:0:0:0:
256,144,229750,6,0,B|264:124|289:56|416:-44|526:149|441:318|320:216|289:335|256:335|256:335|256:335|256:335|222:335|192:216|70:318|-14:149|95:-44|222:56|247:124|256:144,1,960.000036621095,4|0,0:0|0:0,0:0:0:0:
