osu file format v14

[General]
AudioFilename: Souzou Forest - Takumi Yoshida.mp3
AudioLeadIn: 0
PreviewTime: 137986
Countdown: 0
SampleSet: Soft
StackLeniency: 0.7
Mode: 0
LetterboxInBreaks: 1
EpilepsyWarning: 1
WidescreenStoryboard: 1

[Editor]
Bookmarks: 23633,46045,80810,115222,171869,183163,252339
DistanceSpacing: 1.5
BeatDivisor: 4
GridSize: 8
TimelineZoom: 1.3

[Metadata]
Title:Kuusou Forest
TitleUnicode:空想フォレスト
Artist:Jin ft. Takumi Yoshida
ArtistUnicode:じん ft. 吉田拓巳
Creator:Kaivu
Version:Fantasy
Source:カゲロウプロジェクト
Tags:akareh jin souzou marry fantasy imagination mekakucity actors kagepro shizen no teki p
BeatmapID:583355
BeatmapSetID:254317

[Difficulty]
HPDrainRate:7
CircleSize:4
OverallDifficulty:7
ApproachRate:9
SliderMultiplier:1.8
SliderTickRate:1

[Events]
//Background and Video events
0,0,"BG.png",0,0
//Break Periods
2,160773,171268
//Storyboard Layer 0 (Background)
//Storyboard Layer 1 (Fail)
//Storyboard Layer 2 (Pass)
//Storyboard Layer 3 (Foreground)
//Storyboard Sound Samples

[TimingPoints]
1045,352.941176470588,4,2,1,100,1,0
23103,-100,4,2,1,100,0,0
67750,-133.333333333333,4,2,1,100,0,0
68103,-133.333333333333,4,3,1,75,0,0
68809,-100,4,2,2,100,0,1
80015,-100,4,2,2,100,0,0
80103,-100,4,2,2,100,0,1
91397,-100,4,2,2,5,0,1
91927,-100,4,3,1,75,0,0
92809,-100,4,2,1,100,0,0
136927,-133.333333333333,4,2,1,100,0,0
137368,-133.333333333333,4,3,1,75,0,0
137986,-100,4,2,2,100,0,1
149192,-100,4,2,2,100,0,0
149280,-100,4,2,2,100,0,1
160574,-100,4,2,1,100,0,0
171868,-100,4,2,0,100,0,0
183162,-100,4,2,3,100,0,0
207162,-100,4,2,2,100,0,1
218368,-100,4,2,2,100,0,0
218456,-100,4,2,2,100,0,1
229750,-133.333333333333,4,2,1,100,0,0

[Colours]
Combo1 : 255,255,128
Combo2 : 128,128,255
Combo3 : 255,128,255
Combo4 : 128,255,128

[HitObjects]
48,112,23103,5,0,0:0:0:0:
120,32,23280,2,0,L|144:120,1,90,8|0,0:0|0:0,0:0:0:0:
184,296,23633,6,0,L|216:200,1,90,4|0,0:0|0:0,0:0:0:0:
240,104,23986,1,8,0:0:0:0:
296,192,24162,2,0,P|336:224|392:216,1,90
160,136,24515,2,0,P|120:104|64:112,1,90,0|8,0:0|0:0,0:0:0:0:
32,280,24868,6,0,L|128:248,1,90
228,216,25221,1,0,0:0:0:0:
208,328,25397,1,8,0:0:0:0:
152,156,25574,2,0,P|240:120|316:172,1,180
368,264,26103,1,8,0:0:0:0:
424,160,26280,1,0,0:0:0:0:
264,248,26456,6,0,P|280:312|312:336,1,90,4|0,0:0|0:0,0:0:0:0:
328,152,26809,1,8,0:0:0:0:
208,168,26986,2,0,P|174:224|179:264,1,90
232,344,27339,1,0,0:0:0:0:
112,336,27515,1,8,0:0:0:0:
280,264,27692,6,0,L|392:288,1,90
352,168,28044,2,0,L|432:232,1,90,0|8,0:0|0:0,0:0:0:0:
332,60,28397,2,0,P|268:96|248:208,1,180
248,216,28839,1,0,0:0:0:0:
256,232,28927,1,8,0:0:0:0:
352,168,29103,1,0,0:0:0:0:
184,280,29280,6,0,L|120:192,1,90,4|0,0:0|0:0,0:0:0:0:
64,112,29633,1,8,0:0:0:0:
8,216,29809,1,0,0:0:0:0:
160,120,29986,1,0,0:0:0:0:
120,8,30162,1,0,0:0:0:0:
64,112,30339,1,8,0:0:0:0:
216,24,30515,6,0,B|248:72|248:72|224:208,1,180
152,280,31044,1,8,0:0:0:0:
226,192,31221,1,0,0:0:0:0:
272,296,31397,1,0,0:0:0:0:
160,160,31574,1,0,0:0:0:0:
80,240,31750,1,8,0:0:0:0:
216,112,31927,6,0,L|312:112,1,90
408,64,32280,1,0,0:0:0:0:
392,184,32456,1,8,0:0:0:0:
306,112,32633,1,0,0:0:0:0:
480,136,32809,2,0,P|496:192|472:240,1,90
408,312,33162,1,8,0:0:0:0:
272,192,33339,6,0,L|256:288,1,90
200,112,33692,2,0,L|184:208,1,90,0|8,0:0|0:0,0:0:0:0:
136,32,34044,2,0,P|72:80|56:192,1,180
144,248,34574,1,8,0:0:0:0:
40,296,34750,1,2,0:0:0:0:
144,152,34927,6,0,P|208:176|224:200,1,90,4|0,0:0|0:0,0:0:0:0:
232,312,35280,1,8,0:0:0:0:
344,176,35456,2,0,L|272:264,1,90,2|0,0:0|0:0,0:0:0:0:
328,352,35809,1,0,0:0:0:0:
400,256,35986,1,8,0:0:0:0:
264,136,36162,6,0,P|224:120|160:128,1,90,2|0,0:0|0:0,0:0:0:0:
80,184,36515,1,0,0:0:0:0:
184,232,36691,1,8,0:0:0:0:
88,80,36868,2,0,P|40:136|56:240,1,180,2|0,0:0|0:0,0:0:0:0:
64,256,37309,1,0,0:0:0:0:
80,272,37397,1,8,0:0:0:0:
8,368,37574,1,2,0:0:0:0:
128,208,37750,6,0,B|192:200|192:200|224:224,1,90,4|0,0:0|0:0,0:0:0:0:
313,307,38103,1,8,0:0:0:0:
361,172,38280,1,2,0:0:0:0:
409,307,38456,1,0,0:0:0:0:
284,220,38633,1,0,0:0:0:0:
438,220,38809,1,8,0:0:0:0:
280,344,38986,6,0,P|240:320|192:320,1,90,2|0,0:0|0:0,0:0:0:0:
88,352,39339,1,0,0:0:0:0:
197,318,39515,1,8,0:0:0:0:
24,280,39691,2,0,B|56:160|56:160|128:144,1,180,2|0,0:0|0:0,0:0:0:0:
228,124,40221,1,8,0:0:0:0:
152,32,40397,1,2,0:0:0:0:
192,208,40574,6,0,P|232:224|288:216,1,90,4|0,0:0|0:0,0:0:0:0:
368,144,40927,1,8,0:0:0:0:
384,256,41103,1,2,0:0:0:0:
272,112,41280,1,0,0:0:0:0:
360,32,41456,1,2,0:0:0:0:
472,80,41633,1,8,0:0:0:0:
280,32,41809,6,0,P|192:40|120:120,1,180,2|0,0:0|0:0,0:0:0:0:
224,168,42338,1,8,0:0:0:0:
88,288,42515,2,0,L|280:248,1,180,2|0,0:0|0:0,0:0:0:0:
380,228,43044,1,8,0:0:0:0:
376,112,43221,6,0,P|336:120|284:164,1,90,2|0,0:0|0:0,0:0:0:0:
380,228,43574,1,0,0:0:0:0:
208,176,43750,1,8,0:0:0:0:
320,32,43927,2,0,L|284:208,1,180,2|0,0:0|0:0,0:0:0:0:
392,160,44456,1,8,0:0:0:0:
212,80,44633,6,0,L|177:257,1,180
284,208,45162,1,8,0:0:0:0:
104,128,45339,2,0,L|88:80,2,45,2|4|2,3:0|3:0|3:0,3:0:0:0:
144,240,45692,1,4,3:0:0:0:
32,216,45868,1,8,3:2:0:0:
200,160,46044,6,0,P|228:192|240:240,1,90,4|0,0:0|0:0,0:0:0:0:
88,320,46397,2,0,P|60:288|48:240,1,90,0|8,0:0|0:0,0:0:0:0:
208,336,46750,1,0,0:0:0:0:
272,240,46927,1,0,0:0:0:0:
328,344,47103,1,0,0:0:0:0:
176,248,47280,1,8,0:0:0:0:
376,136,47456,6,0,L|280:136,1,90
179,94,47809,1,0,0:0:0:0:
275,30,47986,1,8,0:0:0:0:
195,190,48162,2,0,P|219:222|275:238,1,90
286,136,48515,1,0,0:0:0:0:
184,288,48692,1,8,0:0:0:0:
120,120,48868,1,0,0:0:0:0:
264,238,49044,6,0,L|352:208,1,90
456,168,49397,1,8,0:0:0:0:
408,64,49574,2,0,P|368:92|344:148,1,90
456,168,49927,1,0,0:0:0:0:
456,168,50103,1,8,0:0:0:0:
280,192,50280,6,0,B|336:240|336:240|456:240,1,180
360,320,50809,2,0,L|264:320,1,90,8|0,0:0|0:0,0:0:0:0:
88,272,51162,2,0,L|184:232,1,90
280,192,51515,1,8,0:0:0:0:
192,120,51692,1,0,0:0:0:0:
248,288,51868,6,0,P|304:312|344:304,1,90
440,264,52221,1,8,0:0:0:0:
336,216,52397,1,0,0:0:0:0:
440,168,52574,1,0,0:0:0:0:
336,120,52750,2,0,L|336:24,1,90,0|8,0:0|0:0,0:0:0:0:
216,160,53103,6,0,L|216:264,1,90
216,367,53456,1,0,0:0:0:0:
128,296,53633,1,8,0:0:0:0:
304,296,53809,1,0,0:0:0:0:
128,296,53986,1,0,0:0:0:0:
216,367,54162,2,0,L|216:272,1,90,0|8,0:0|0:0,0:0:0:0:
296,208,54515,2,0,P|256:144|152:168,1,180
80,232,55044,6,0,L|120:280,3,45,8|0|0|0,0:0|0:0|0:0|0:0,0:0:0:0:
64,208,55397,2,0,P|48:160|72:96,1,90
128,32,55750,1,8,0:0:0:0:
162,156,55927,2,0,L|336:104,1,180
392,32,56368,2,0,L|336:16,3,45,0|8|0|0,0:0|0:0|0:0|0:0,0:0:0:0:
496,56,56809,1,0,0:0:0:0:
416,136,56985,2,0,P|423:174|464:224,1,90,0|8,0:0|0:0,0:0:0:0:
488,360,57339,6,0,L|392:296,1,90,4|0,0:0|0:0,0:0:0:0:
264,208,57692,2,0,L|264:312,1,90,0|8,0:0|0:0,0:0:0:0:
360,232,58044,1,0,0:0:0:0:
192,168,58221,1,0,0:0:0:0:
200,344,58397,2,0,P|144:320|128:288,1,90,0|8,0:0|0:0,0:0:0:0:
152,184,58750,1,0,0:0:0:0:
56,336,58927,5,0,0:0:0:0:
216,256,59103,1,0,0:0:0:0:
32,264,59280,1,8,0:0:0:0:
114,102,59456,2,0,L|152:184,1,90
200,56,59809,1,0,0:0:0:0:
296,120,59986,2,0,P|347:145|390:139,1,90,8|0,0:0|0:0,0:0:0:0:
200,56,60339,6,0,L|176:160,1,90
152,256,60692,1,8,0:0:0:0:
288,136,60868,2,0,L|264:240,1,90
240,336,61221,1,0,0:0:0:0:
152,256,61397,1,8,0:0:0:0:
328,296,61574,6,0,B|392:296|392:296|432:272,1,90
448,168,61927,1,0,0:0:0:0:
488,344,62103,1,8,0:0:0:0:
368,208,62280,2,0,P|304:192|264:200,1,90
176,256,62633,1,0,0:0:0:0:
64,224,62809,1,8,0:0:0:0:
176,256,62986,1,0,0:0:0:0:
32,144,63162,6,0,P|80:104|200:104,1,180,0|8,0:0|0:0,0:0:0:0:
288,168,63692,2,0,L|376:144,1,90
432,40,64044,1,0,0:0:0:0:
432,40,64221,2,0,L|345:63,1,90,8|0,0:0|0:0,0:0:0:0:
448,120,64574,6,0,P|472:168|464:224,1,90
416,304,64927,1,8,0:0:0:0:
352,208,65103,1,0,0:0:0:0:
288,304,65280,1,0,0:0:0:0:
224,208,65456,2,0,L|128:208,1,90,0|8,0:0|0:0,0:0:0:0:
32,64,65809,6,0,B|96:64|96:64|136:96|136:96|208:96,1,180
312,56,66339,2,0,P|368:32|416:40,1,90,8|0,0:0|0:0,0:0:0:0:
472,144,66692,1,0,0:0:0:0:
336,152,66868,1,0,0:0:0:0:
395,33,67044,1,8,0:0:0:0:
472,144,67221,1,0,0:0:0:0:
336,152,67397,2,8,P|275:144|237:113,1,90,0|0,0:0|0:0,0:0:0:0:
128,48,67750,6,0,P|48:112|56:224,1,202.500007724762,4|0,0:0|0:0,0:0:0:0:
56,224,68368,1,0,0:0:0:0:
68,236,68456,1,0,0:0:0:0:
464,40,68809,6,0,L|368:88,1,90,6|0,0:0|0:0,0:0:0:0:
168,64,69162,2,0,L|208:160,1,90,10|0,0:0|0:0,0:0:0:0:
432,248,69515,2,0,L|328:240,1,90
208,232,69868,1,8,0:0:0:0:
80,272,70044,1,0,0:0:0:0:
264,104,70221,6,0,L|352:136,2,90,0|0|8,0:0|0:0|0:0,0:0:0:0:
96,40,70750,2,0,L|136:224,1,180
160,352,71280,2,0,L|216:264,1,90,8|0,0:0|0:0,0:0:0:0:
288,160,71633,5,2,0:0:0:0:
424,184,71809,1,0,0:0:0:0:
248,232,71986,1,8,0:0:0:0:
336,80,72162,1,0,0:0:0:0:
344,264,72339,2,0,P|392:296|440:296,1,90
240,168,72692,2,0,P|192:136|144:136,1,90,8|0,0:0|0:0,0:0:0:0:
40,272,73044,5,0,0:0:0:0:
168,320,73221,1,0,0:0:0:0:
128,144,73397,2,0,L|152:248,1,90,8|0,0:0|0:0,0:0:0:0:
247,78,73750,2,0,L|239:174,1,90
368,208,74103,1,8,0:0:0:0:
272,304,74280,1,0,0:0:0:0:
312,104,74456,6,0,P|256:56|144:48,1,180,2|8,0:0|0:0,0:0:0:0:
153,181,74986,1,0,0:0:0:0:
28,52,75162,2,0,L|60:252,1,180,0|8,0:0|0:0,0:0:0:0:
80,368,75692,1,0,0:0:0:0:
160,208,75868,6,0,L|252:228,1,90
432,264,76221,2,0,L|344:288,1,90,8|0,0:0|0:0,0:0:0:0:
168,336,76574,2,0,L|184:232,1,90
216,24,76927,2,0,L|230:112,1,90,8|0,0:0|0:0,0:0:0:0:
248,248,77280,1,2,0:0:0:0:
320,136,77456,1,0,0:0:0:0:
368,312,77633,6,0,P|416:336|464:336,1,90,8|0,0:0|0:0,0:0:0:0:
296,240,77986,2,0,P|272:288|272:336,1,90
368,168,78339,2,0,P|320:144|272:144,1,90,8|0,0:0|0:0,0:0:0:0:
264,144,78603,1,0,0:0:0:0:
240,152,78692,6,0,P|192:176|144:176,1,90
56,24,79044,2,0,L|40:120,1,90,8|0,0:0|0:0,0:0:0:0:
36,136,79309,1,0,0:0:0:0:
32,160,79397,2,0,B|32:208|32:208|64:248,1,90
192,120,79750,2,0,B|192:72|192:72|160:32,1,90,8|0,0:0|0:0,0:0:0:0:
152,216,80103,6,0,L|248:232,1,90,6|0,0:0|0:0,0:0:0:0:
240,16,80456,2,0,L|280:112,1,90,10|0,0:0|0:0,0:0:0:0:
368,328,80809,2,0,L|408:232,1,90
456,120,81162,1,8,0:0:0:0:
496,248,81338,1,0,0:0:0:0:
320,64,81515,6,0,L|285:147,2,90,0|0|8,0:0|0:0|0:0,0:0:0:0:
184,184,82044,2,0,P|256:248|368:216,1,180
216,104,82574,2,0,P|164:100|112:136,1,90,8|0,0:0|0:0,0:0:0:0:
285,146,82927,5,2,0:0:0:0:
400,80,83103,1,0,0:0:0:0:
320,240,83280,1,8,0:0:0:0:
320,64,83456,1,0,0:0:0:0:
448,192,83633,2,0,L|432:312,1,90
360,120,83986,2,0,L|349:209,1,90,8|0,0:0|0:0,0:0:0:0:
184,144,84338,5,0,0:0:0:0:
288,232,84515,1,0,0:0:0:0:
112,208,84691,2,0,P|112:256|152:312,1,90,8|0,0:0|0:0,0:0:0:0:
64,128,85044,2,0,P|30:161|18:229,1,90
176,112,85397,1,8,0:0:0:0:
256,216,85574,2,0,L|296:152,1,45
304,168,85750,6,0,L|400:168,2,90,2|0|8,0:0|0:0|0:0,0:0:0:0:
224,280,86280,1,0,0:0:0:0:
352,96,86456,2,0,P|272:40|168:56,1,180,0|8,0:0|0:0,0:0:0:0:
136,200,86986,1,0,0:0:0:0:
56,96,87162,6,0,P|101:103|144:136,1,90
152,280,87515,2,0,P|107:272|70:247,1,90,8|0,0:0|0:0,0:0:0:0:
208,88,87868,1,0,0:0:0:0:
136,200,88044,1,0,0:0:0:0:
293,118,88221,2,0,L|279:207,1,90,8|0,0:0|0:0,0:0:0:0:
276,228,88486,6,0,L|267:286,1,45,0|2,0:0|0:0,0:0:0:0:
152,256,88750,1,0,0:0:0:0:
344,344,88927,2,0,L|358:255,1,90,8|0,0:0|0:0,0:0:0:0:
472,184,89280,2,0,L|458:273,1,90
216,312,89633,2,0,L|230:223,1,90,8|0,0:0|0:0,0:0:0:0:
236,200,89897,1,0,0:0:0:0:
240,176,89986,6,0,P|264:136|320:112,1,90
400,208,90339,1,8,0:0:0:0:
448,80,90515,2,0,L|456:280,1,180
344,352,91044,1,8,0:0:0:0:
464,352,91221,2,0,P|392:240|256:268,1,270
96,344,91927,5,8,0:0:0:0:
96,344,92015,1,8,0:0:0:0:
96,344,92103,1,8,0:0:0:0:
104,208,92280,2,0,L|64:176,4,45,8|8|2|2|12,0:0|0:0|0:0|0:0|0:0,0:0:0:0:
104,208,92809,6,0,B|168:184|168:184|208:192,1,90,4|0,0:0|0:0,0:0:0:0:
304,216,93162,1,8,0:0:0:0:
264,104,93339,2,0,L|304:216,1,90
416,152,93692,2,0,L|376:264,1,90,0|8,0:0|0:0,0:0:0:0:
130,285,94044,6,0,L|160:200,1,90
224,360,94397,1,0,0:0:0:0:
352,228,94573,1,8,0:0:0:0:
130,284,94750,2,0,P|48:240|40:144,1,180
128,88,95279,1,8,0:0:0:0:
24,32,95456,1,0,0:0:0:0:
119,181,95632,6,0,L|223:165,1,90,4|0,0:0|0:0,0:0:0:0:
320,208,95985,1,8,0:0:0:0:
207,167,96162,1,0,0:0:0:0:
344,112,96339,1,0,0:0:0:0:
207,167,96515,1,0,0:0:0:0:
304,24,96691,1,8,0:0:0:0:
320,208,96868,6,0,P|368:240|432:232,1,90
464,144,97221,2,0,L|480:232,1,90,0|8,0:0|0:0,0:0:0:0:
384,80,97574,2,0,L|344:296,1,180
348,280,98015,1,0,0:0:0:0:
344,300,98103,1,8,0:0:0:0:
288,200,98279,1,0,0:0:0:0:
128,344,98456,6,0,P|72:320|48:280,1,90,4|0,0:0|0:0,0:0:0:0:
152,232,98809,1,8,0:0:0:0:
128,344,98985,1,0,0:0:0:0:
48,184,99162,1,0,0:0:0:0:
152,232,99338,1,0,0:0:0:0:
55,297,99515,1,8,0:0:0:0:
136,128,99691,6,0,P|232:128|320:208,1,180
232,272,100220,1,8,0:0:0:0:
352,272,100397,1,0,0:0:0:0:
208,176,100573,1,0,0:0:0:0:
290,93,100750,1,0,0:0:0:0:
372,175,100926,1,8,0:0:0:0:
454,92,101103,6,0,P|488:128|496:176,1,90
376,24,101456,1,0,0:0:0:0:
352,136,101632,1,8,0:0:0:0:
272,56,101809,1,0,0:0:0:0:
454,92,101986,2,0,P|488:128|496:176,1,90
400,320,102338,1,8,0:0:0:0:
232,248,102515,6,0,L|320:224,1,90
144,192,102868,2,0,L|232:168,1,90,0|8,0:0|0:0,0:0:0:0:
80,64,103221,2,0,B|24:176|24:176|48:248,1,180
144,288,103750,1,8,0:0:0:0:
40,344,103926,1,2,0:0:0:0:
128,192,104103,5,4,0:0:0:0:
240,208,104280,1,0,0:0:0:0:
96,288,104456,1,8,0:0:0:0:
256,344,104632,2,0,P|276:296|344:268,1,90,2|0,0:0|0:0,0:0:0:0:
464,216,104985,1,0,0:0:0:0:
384,304,105162,1,8,0:0:0:0:
416,128,105339,6,0,L|464:312,1,180,2|0,0:0|0:0,0:0:0:0:
344,168,105867,1,8,0:0:0:0:
344,168,106044,2,0,B|306:312|306:312|248:344,1,180,2|0,0:0|0:0,0:0:0:0:
256,336,106486,1,0,0:0:0:0:
232,344,106574,2,0,P|176:336|136:296,1,90,8|2,0:0|0:0,0:0:0:0:
48,136,106926,6,0,B|112:128|112:128|144:152,1,90,4|0,0:0|0:0,0:0:0:0:
224,216,107279,1,8,0:0:0:0:
240,96,107456,1,2,0:0:0:0:
128,240,107632,1,0,0:0:0:0:
208,328,107809,1,0,0:0:0:0:
224,216,107985,1,8,0:0:0:0:
112,360,108162,6,0,P|56:328|40:288,1,90,2|0,0:0|0:0,0:0:0:0:
48,192,108515,1,0,0:0:0:0:
136,264,108691,1,8,0:0:0:0:
168,88,108868,2,0,B|264:72|264:72|328:88|352:136,1,180,2|0,0:0|0:0,0:0:0:0:
408,200,109397,1,8,0:0:0:0:
296,224,109573,1,2,0:0:0:0:
432,104,109750,5,4,0:0:0:0:
432,104,110103,5,8,0:0:0:0:
464,216,110279,1,2,0:0:0:0:
304,136,110456,1,0,0:0:0:0:
408,80,110632,1,2,0:0:0:0:
400,200,110809,1,8,0:0:0:0:
328,40,110986,6,0,P|224:32|144:88,1,180,2|0,0:0|0:0,0:0:0:0:
48,48,111514,1,8,0:0:0:0:
161,68,111692,1,2,0:0:0:0:
72,144,111868,1,0,0:0:0:0:
184,168,112044,1,0,0:0:0:0:
96,240,112220,1,8,0:0:0:0:
208,264,112397,6,0,P|240:288|264:352,1,90,2|0,0:0|0:0,0:0:0:0:
248,104,112750,1,0,0:0:0:0:
360,152,112927,1,8,0:0:0:0:
232,24,113103,2,0,P|152:80|152:192,1,180,2|0,0:0|0:0,0:0:0:0:
176,264,113632,1,8,0:0:0:0:
248,104,113809,6,0,P|304:184|416:184,1,180,2|0,0:0|0:0,0:0:0:0:
488,160,114338,1,8,0:0:0:0:
352,56,114515,2,0,L|392:16,2,45,2|4|2,3:0|3:0|3:0,3:0:0:0:
272,144,114868,1,4,3:0:0:0:
232,32,115044,1,8,3:2:0:0:
368,144,115220,6,0,L|368:248,1,90,4|0,0:0|0:0,0:0:0:0:
224,336,115573,2,0,L|224:240,1,90,0|8,0:0|0:0,0:0:0:0:
143,164,115926,1,0,0:0:0:0:
225,81,116103,1,0,0:0:0:0:
307,163,116279,1,0,0:0:0:0:
224,246,116456,1,8,0:0:0:0:
304,80,116632,6,0,P|336:48|392:40,1,90
392,152,116985,1,0,0:0:0:0:
480,80,117162,1,8,0:0:0:0:
304,80,117339,2,0,P|272:48|216:40,1,90
112,56,117691,1,0,0:0:0:0:
144,168,117868,1,8,0:0:0:0:
48,104,118044,1,0,0:0:0:0:
224,136,118220,6,0,L|216:256,1,90
208,344,118574,1,8,0:0:0:0:
304,168,118750,2,0,L|296:288,1,90
288,376,119104,1,0,0:0:0:0:
288,376,119279,1,8,0:0:0:0:
136,272,119456,6,0,P|200:216|312:224,1,180
392,272,119985,2,0,P|440:280|488:256,1,90,8|0,0:0|0:0,0:0:0:0:
432,88,120338,2,0,B|384:136|384:136|368:200,1,90
392,272,120691,1,8,0:0:0:0:
488,208,120868,1,0,0:0:0:0:
312,236,121044,6,0,P|304:284|328:332,1,90
424,272,121397,1,8,0:0:0:0:
288,160,121574,2,0,P|248:188|231:239,1,90
288,328,121926,2,0,L|184:344,1,90,0|8,0:0|0:0,0:0:0:0:
40,256,122280,6,0,B|128:240|128:240|192:208|200:160,1,180
240,288,122809,1,8,0:0:0:0:
128,144,122985,1,0,0:0:0:0:
216,72,123162,1,0,0:0:0:0:
312,144,123339,2,0,L|400:130,1,90,0|8,0:0|0:0,0:0:0:0:
224,160,123692,2,0,P|264:220|384:196,1,180
440,128,124221,6,0,L|480:176,3,45,8|0|0|0,0:0|0:0|0:0|0:0,0:0:0:0:
424,104,124573,2,0,P|440:64|496:32,1,90
392,192,124926,1,8,0:0:0:0:
312,88,125103,2,0,P|224:72|136:128,1,180
88,184,125544,2,0,L|32:160,3,45,0|8|0|0,0:0|0:0|0:0|0:0,0:0:0:0:
192,224,125985,1,0,0:0:0:0:
256,128,126162,2,0,L|280:256,1,90,0|8,0:0|0:0,0:0:0:0:
392,352,126515,6,0,L|408:263,1,90,4|0,0:0|0:0,0:0:0:0:
320,80,126868,2,0,P|280:48|224:56,1,90,0|8,0:0|0:0,0:0:0:0:
144,104,127220,1,0,0:0:0:0:
56,24,127397,1,0,0:0:0:0:
216,112,127573,2,0,L|192:224,1,90,0|8,0:0|0:0,0:0:0:0:
95,263,127926,1,0,0:0:0:0:
209,233,128103,5,0,0:0:0:0:
239,345,128279,1,0,0:0:0:0:
125,375,128456,1,8,0:0:0:0:
209,233,128632,2,0,P|265:225|321:257,1,90
392,304,128986,1,0,0:0:0:0:
488,152,129162,2,0,L|464:256,1,90,8|0,0:0|0:0,0:0:0:0:
416,64,129515,6,0,L|392:168,1,90
368,264,129868,1,8,0:0:0:0:
256,128,130044,2,0,P|200:128|152:160,1,90
88,224,130397,1,0,0:0:0:0:
16,136,130573,1,8,0:0:0:0:
170,241,130750,6,0,P|211:258|256:256,1,90
88,312,131103,1,0,0:0:0:0:
152,144,131279,1,8,0:0:0:0:
280,280,131456,2,0,L|368:224,1,90
456,168,131809,1,0,0:0:0:0:
456,288,131985,1,8,0:0:0:0:
456,168,132162,1,0,0:0:0:0:
368,335,132339,6,0,P|281:320|225:252,1,180,0|8,0:0|0:0,0:0:0:0:
244,140,132868,2,0,P|286:153|317:185,1,90
168,192,133220,1,0,0:0:0:0:
168,192,133397,2,0,P|147:152|148:107,1,90,8|0,0:0|0:0,0:0:0:0:
225,252,133750,6,0,P|185:272|140:271,1,90
56,112,134103,2,0,L|40:208,1,90,8|0,0:0|0:0,0:0:0:0:
124,283,134456,1,0,0:0:0:0:
227,227,134633,1,0,0:0:0:0:
336,256,134809,1,8,0:0:0:0:
168,80,134986,6,0,P|248:40|336:56,1,180
448,40,135515,2,0,L|424:136,1,90,8|0,0:0|0:0,0:0:0:0:
312,160,135868,1,0,0:0:0:0:
400,240,136044,1,0,0:0:0:0:
352,64,136220,1,8,0:0:0:0:
432,144,136397,1,0,0:0:0:0:
296,256,136573,2,0,P|235:248|197:217,1,90
448,40,136927,6,0,P|488:112|464:224,1,202.500007724762,4|0,0:0|0:0,0:0:0:0:
456,240,137544,1,0,0:0:0:0:
444,252,137633,1,0,0:0:0:0:
56,24,137986,6,0,P|18:72|13:121,1,90,6|0,0:0|0:0,0:0:0:0:
224,160,138339,2,0,P|210:117|180:84,1,90,10|0,0:0|0:0,0:0:0:0:
24,280,138692,2,0,P|37:322|67:355,1,90
184,288,139044,1,8,0:0:0:0:
304,352,139220,1,0,0:0:0:0:
376,112,139397,6,0,L|480:88,2,90,0|0|8,0:0|0:0|0:0,0:0:0:0:
208,40,139927,2,0,B|176:96|176:96|216:216,1,180
256,336,140456,2,0,L|312:248,1,90,8|0,0:0|0:0,0:0:0:0:
272,128,140809,5,2,0:0:0:0:
392,64,140985,1,0,0:0:0:0:
320,232,141162,1,8,0:0:0:0:
320,56,141338,1,0,0:0:0:0:
440,192,141515,2,0,P|472:240|464:304,1,90
248,272,141868,2,0,P|236:328|185:368,1,90,8|0,0:0|0:0,0:0:0:0:
48,288,142220,5,0,0:0:0:0:
128,176,142397,1,0,0:0:0:0:
240,320,142573,2,0,L|344:296,1,90,8|0,0:0|0:0,0:0:0:0:
448,160,142928,2,0,L|360:180,1,90
232,208,143280,1,8,0:0:0:0:
327,299,143456,1,0,0:0:0:0:
272,96,143633,6,0,P|192:56|88:80,1,180,2|8,0:0|0:0,0:0:0:0:
168,192,144162,1,0,0:0:0:0:
72,288,144339,2,0,P|152:328|256:304,1,180,0|8,0:0|0:0,0:0:0:0:
312,200,144868,1,0,0:0:0:0:
480,256,145044,6,0,L|432:352,1,90
439,155,145397,2,0,L|391:251,1,90,8|0,0:0|0:0,0:0:0:0:
398,54,145750,2,0,L|350:150,1,90
128,104,146103,2,0,P|144:160|192:200,1,90,8|0,0:0|0:0,0:0:0:0:
288,240,146456,5,2,0:0:0:0:
280,104,146632,1,0,0:0:0:0:
184,288,146809,2,0,B|128:320|128:320|72:320,1,90,8|0,0:0|0:0,0:0:0:0:
288,240,147162,2,0,P|264:288|264:336,1,90
368,168,147515,2,0,L|288:88,1,90,8|0,0:0|0:0,0:0:0:0:
288,88,147779,1,0,0:0:0:0:
272,72,147868,6,0,L|359:50,1,90
176,32,148221,2,0,P|152:80|152:128,1,90,8|0,0:0|0:0,0:0:0:0:
152,136,148485,1,0,0:0:0:0:
160,160,148574,2,0,P|184:208|184:256,1,90
40,344,148926,2,0,B|40:296|40:296|72:256,1,90,8|0,0:0|0:0,0:0:0:0:
224,184,149279,6,0,L|320:200,1,90,6|0,0:0|0:0,0:0:0:0:
440,24,149632,2,0,P|464:72|448:144,1,90,10|0,0:0|0:0,0:0:0:0:
384,352,149986,2,0,P|360:304|376:232,1,90
424,152,150338,1,8,0:0:0:0:
480,272,150514,1,0,0:0:0:0:
256,124,150692,6,0,P|272:73|335:33,2,90,0|0|8,0:0|0:0|0:0,0:0:0:0:
360,268,151221,2,0,P|288:332|176:300,1,180
96,256,151750,2,0,L|182:229,1,90,8|0,0:0|0:0,0:0:0:0:
216,56,152103,5,2,0:0:0:0:
288,168,152279,1,0,0:0:0:0:
352,48,152456,1,8,0:0:0:0:
200,144,152632,1,0,0:0:0:0:
104,48,152809,2,0,P|48:72|24:104,1,90
136,176,153162,2,0,P|113:232|119:272,1,90,8|0,0:0|0:0,0:0:0:0:
184,88,153514,5,0,0:0:0:0:
319,88,153691,1,0,0:0:0:0:
223,183,153867,2,0,L|223:295,1,90,8|0,0:0|0:0,0:0:0:0:
320,120,154220,2,0,L|320:232,1,90
256,40,154573,1,8,0:0:0:0:
128,80,154750,1,0,0:0:0:0:
128,80,154839,1,0,0:0:0:0:
128,80,154927,6,0,P|96:112|80:176,2,90,2|0|8,0:0|0:0|0:0,0:0:0:0:
256,40,155456,1,0,0:0:0:0:
424,96,155633,2,0,P|488:176|480:288,1,180,0|8,0:0|0:0,0:0:0:0:
392,344,156162,1,0,0:0:0:0:
256,336,156338,6,0,P|263:291|296:248,1,90
256,120,156691,2,0,P|301:128|338:153,1,90,8|0,0:0|0:0,0:0:0:0:
424,256,157044,1,0,0:0:0:0:
424,256,157220,1,0,0:0:0:0:
256,192,157397,2,0,L|160:224,1,90,8|0,0:0|0:0,0:0:0:0:
148,228,157662,6,0,L|116:260,1,45,0|2,0:0|0:0,0:0:0:0:
232,336,157926,1,0,0:0:0:0:
56,368,158103,2,0,P|24:304|24:272,1,90,8|0,0:0|0:0,0:0:0:0:
120,136,158456,2,0,P|152:200|152:232,1,90
24,168,158809,1,8,0:0:0:0:
128,312,158986,6,0,L|176:320,2,45
48,200,159339,1,0,0:0:0:0:
176,232,159515,1,8,0:0:0:0:
104,72,159691,2,0,P|192:32|304:64,1,180
392,112,160220,1,8,0:0:0:0:
240,212,160397,2,0,L|336:200,1,90,0|4,0:0|0:0,0:0:0:0:
304,48,171868,5,4,0:0:0:0:
192,80,172044,1,0,0:0:0:0:
192,80,172132,1,0,0:0:0:0:
192,80,172221,2,0,L|176:176,1,90,8|0,0:0|0:0,0:0:0:0:
152,288,172574,1,0,0:0:0:0:
96,184,172750,1,0,0:0:0:0:
264,248,172927,1,8,0:0:0:0:
200,40,173103,1,0,0:0:0:0:
282,122,173280,5,0,0:0:0:0:
364,39,173456,1,0,0:0:0:0:
362,216,173633,1,8,0:0:0:0:
296,48,173809,1,0,0:0:0:0:
392,112,173986,1,0,0:0:0:0:
288,160,174162,1,0,0:0:0:0:
112,120,174339,1,8,0:0:0:0:
272,32,174515,1,0,0:0:0:0:
192,120,174692,5,0,0:0:0:0:
240,224,174868,1,0,0:0:0:0:
208,48,175043,1,8,0:0:0:0:
40,112,175221,1,0,0:0:0:0:
136,184,175396,1,0,0:0:0:0:
40,256,175574,1,0,0:0:0:0:
200,344,175749,1,8,0:0:0:0:
304,192,175927,6,0,P|392:189|463:241,1,180
304,192,176456,2,0,P|272:160|216:144,1,90,8|0,0:0|0:0,0:0:0:0:
232,232,176809,2,0,P|188:220|131:234,1,90
184,304,177162,2,0,P|140:315|98:356,2,90,8|0|0,0:0|0:0|0:0,0:0:0:0:
320,328,177691,5,0,0:0:0:0:
320,328,177780,1,0,0:0:0:0:
320,328,177868,2,0,P|377:331|412:311,1,90,8|0,0:0|0:0,0:0:0:0:
496,224,178221,1,0,0:0:0:0:
400,136,178397,1,0,0:0:0:0:
408,272,178574,1,8,0:0:0:0:
480,80,178750,6,0,P|384:40|296:56,1,180
208,136,179280,1,8,0:0:0:0:
104,48,179456,2,0,B|56:232,1,180
192,200,179985,1,8,0:0:0:0:
192,200,180162,2,0,B|264:264,1,90
160,352,180515,5,0,0:0:0:0:
160,352,180603,1,0,0:0:0:0:
160,352,180691,2,0,L|256:336,1,90,8|0,0:0|0:0,0:0:0:0:
384,312,181044,2,0,P|432:312|488:344,2,90,0|0|8,0:0|0:0|0:0,0:0:0:0:
248,336,181574,6,0,P|144:320|80:248,1,180
72,120,182103,2,0,P|128:128|168:168,1,90,8|0,0:0|0:0,0:0:0:0:
288,224,182456,2,0,P|352:224|392:200,1,90,8|8,0:0|0:0,0:0:0:0:
296,80,182809,2,0,L|184:72,1,90,8|8,0:0|0:0,0:0:0:0:
72,64,183162,5,6,0:0:0:0:
112,192,183338,1,0,0:0:0:0:
72,320,183515,1,10,0:0:0:0:
200,280,183691,1,0,0:0:0:0:
320,344,183868,2,0,P|400:312|448:216,1,180,2|10,0:0|0:0,0:0:0:0:
432,96,184397,1,0,0:0:0:0:
296,72,184574,6,0,P|216:104|168:200,1,180,2|10,0:0|0:0,0:0:0:0:
232,304,185103,1,0,0:0:0:0:
104,352,185280,1,2,0:0:0:0:
128,216,185456,1,0,0:0:0:0:
232,304,185632,2,0,P|272:328|344:328,1,90,10|0,0:0|0:0,0:0:0:0:
464,232,185985,5,6,0:0:0:0:
264,48,186338,1,10,0:0:0:0:
392,320,186691,1,2,0:0:0:0:
156,271,187044,5,10,0:0:0:0:
206,122,187221,1,0,0:0:0:0:
256,271,187397,1,2,0:0:0:0:
126,182,187574,1,0,0:0:0:0:
285,182,187750,1,10,0:0:0:0:
156,271,187927,1,0,0:0:0:0:
206,122,188103,1,2,0:0:0:0:
408,280,188456,1,14,0:0:0:0:
216,136,188809,5,6,0:0:0:0:
112,56,188985,1,0,0:0:0:0:
200,160,189162,1,10,0:0:0:0:
64,176,189338,1,0,0:0:0:0:
200,200,189515,2,0,P|248:216|296:208,1,90,2|0,0:0|0:0,0:0:0:0:
416,176,189868,1,10,0:0:0:0:
320,88,190044,1,0,0:0:0:0:
376,264,190221,5,2,0:0:0:0:
120,344,190574,1,10,0:0:0:0:
320,336,190927,1,2,0:0:0:0:
224,264,191103,1,0,0:0:0:0:
352,344,191280,1,10,0:0:0:0:
280,184,191456,1,0,0:0:0:0:
336,32,191632,5,6,0:0:0:0:
416,216,191985,1,10,0:0:0:0:
88,320,192339,2,0,P|176:248|200:160,1,180,2|10,0:0|0:0,0:0:0:0:
112,40,192868,1,0,0:0:0:0:
144,128,193044,5,2,0:0:0:0:
216,40,193221,1,0,0:0:0:0:
288,144,193397,1,10,0:0:0:0:
384,32,193574,1,0,0:0:0:0:
472,168,193750,2,0,P|448:224|408:248,1,90,2|0,0:0|0:0,0:0:0:0:
264,312,194103,1,14,0:0:0:0:
248,112,194456,6,0,P|216:72|224:8,1,90,6|0,0:0|0:0,0:0:0:0:
352,96,194809,2,0,P|392:63|456:72,1,90,10|0,0:0|0:0,0:0:0:0:
320,192,195162,2,0,P|373:258|360:365,1,180,2|10,0:0|0:0,0:0:0:0:
187,349,195691,1,0,0:0:0:0:
64,292,195868,5,2,0:0:0:0:
160,40,196221,1,10,0:0:0:0:
336,240,196574,1,2,0:0:0:0:
464,208,196750,1,0,0:0:0:0:
496,336,196927,1,10,0:0:0:0:
368,368,197103,1,0,0:0:0:0:
336,240,197280,5,6,0:0:0:0:
88,128,197632,1,10,0:0:0:0:
344,40,197985,1,2,0:0:0:0:
240,288,198338,1,10,0:0:0:0:
240,288,198515,1,0,0:0:0:0:
192,360,198691,5,2,0:0:0:0:
208,256,198868,1,0,0:0:0:0:
104,328,199044,1,10,0:0:0:0:
200,224,199221,1,0,0:0:0:0:
40,248,199397,2,0,P|40:192|72:160,1,90,2|0,0:0|0:0,0:0:0:0:
232,112,199750,1,14,0:0:0:0:
392,192,199927,1,0,0:0:0:0:
360,320,200103,5,6,0:0:0:0:
248,240,200280,1,0,0:0:0:0:
336,136,200456,1,10,0:0:0:0:
440,216,200632,1,0,0:0:0:0:
360,320,200809,2,0,P|320:344|264:344,1,90,2|0,0:0|0:0,0:0:0:0:
144,312,201162,1,10,0:0:0:0:
72,48,201515,5,2,0:0:0:0:
40,320,201868,1,10,0:0:0:0:
104,200,202044,1,0,0:0:0:0:
240,176,202221,1,2,0:0:0:0:
368,224,202397,2,0,P|408:256|432:304,1,90,0|10,0:0|0:0,0:0:0:0:
296,336,202750,1,0,0:0:0:0:
232,216,202927,6,0,P|256:112|336:64,2,180,4|0|0,0:0|0:0|0:0,0:0:0:0:
256,192,203985,12,0,205749,0:0:0:0:
40,224,207162,6,0,P|72:199|120:191,1,90,6|0,0:0|0:0,0:0:0:0:
336,240,207515,2,0,L|432:224,1,90,10|0,0:0|0:0,0:0:0:0:
264,32,207868,2,0,B|224:80|224:80|224:144,1,90
248,240,208221,1,8,0:0:0:0:
120,200,208397,1,0,0:0:0:0:
360,128,208574,6,0,P|400:133|439:162,2,90,0|0|8,0:0|0:0|0:0,0:0:0:0:
200,216,209103,2,0,P|104:216|24:144,1,180
48,32,209633,1,8,0:0:0:0:
152,120,209809,1,0,0:0:0:0:
48,280,209986,6,0,P|34:320|48:376,1,90,2|0,0:0|0:0,0:0:0:0:
136,264,210339,1,8,0:0:0:0:
256,328,210515,1,0,0:0:0:0:
256,328,210692,2,0,L|368:304,1,90
128,184,211044,2,0,L|39:202,1,90,8|0,0:0|0:0,0:0:0:0:
112,88,211397,5,0,0:0:0:0:
216,168,211574,1,0,0:0:0:0:
344,40,211750,2,0,L|448:40,1,90,8|0,0:0|0:0,0:0:0:0:
306,168,212103,2,0,L|216:168,1,90
392,120,212456,1,8,0:0:0:0:
488,216,212633,1,0,0:0:0:0:
304,88,212809,6,0,P|256:144|248:256,1,180,2|8,0:0|0:0,0:0:0:0:
344,344,213339,1,0,0:0:0:0:
328,208,213515,2,0,P|272:160|160:152,1,180,0|8,0:0|0:0,0:0:0:0:
80,304,214044,6,0,P|32:248|24:136,1,180
96,32,214574,2,0,B|160:32|160:32|192:56,1,90,8|0,0:0|0:0,0:0:0:0:
288,128,214927,2,0,B|352:128|352:128|384:104,1,90
200,60,215280,2,0,L|132:136,1,90,8|0,0:0|0:0,0:0:0:0:
40,224,215633,5,2,0:0:0:0:
16,96,215809,1,0,0:0:0:0:
128,232,215986,2,0,P|176:256|224:256,1,90,8|0,0:0|0:0,0:0:0:0:
296,152,216339,2,0,L|312:264,1,90
408,88,216692,2,0,L|400:184,1,90,8|0,0:0|0:0,0:0:0:0:
396,200,216956,1,0,0:0:0:0:
396,224,217045,6,0,P|432:264|440:312,1,90
328,368,217397,2,0,P|292:328|284:280,1,90,8|0,0:0|0:0,0:0:0:0:
288,272,217662,1,0,0:0:0:0:
296,248,217750,2,0,P|256:212|208:204,1,90
104,272,218103,2,0,P|51:283|5:266,1,90,8|0,0:0|0:0,0:0:0:0:
152,152,218456,6,0,L|183:237,1,90,6|0,0:0|0:0,0:0:0:0:
272,40,218809,2,0,L|280:130,1,90,10|0,0:0|0:0,0:0:0:0:
416,344,219162,2,0,P|453:313|478:243,1,90
408,160,219515,1,8,0:0:0:0:
472,276,219691,1,0,0:0:0:0:
232,200,219868,6,0,P|184:208|128:256,2,90,0|0|8,0:0|0:0|0:0,0:0:0:0:
392,288,220397,2,0,P|456:208|440:104,1,180
360,40,220927,1,8,0:0:0:0:
272,152,221103,1,0,0:0:0:0:
454,134,221280,6,0,P|478:182|470:246,1,90,2|0,0:0|0:0,0:0:0:0:
432,344,221633,1,8,0:0:0:0:
328,264,221809,1,0,0:0:0:0:
168,352,221986,2,0,L|56:320,1,90
16,160,222339,2,0,L|102:135,1,90,8|0,0:0|0:0,0:0:0:0:
232,96,222691,5,0,0:0:0:0:
208,232,222868,1,0,0:0:0:0:
152,48,223044,2,0,L|65:72,1,90,8|0,0:0|0:0,0:0:0:0:
208,232,223397,2,0,L|320:200,1,90
336,80,223750,1,8,0:0:0:0:
448,152,223927,2,0,L|480:224,1,45
472,216,224103,6,0,P|456:256|400:296,2,90,2|0|8,0:0|0:0|0:0,0:0:0:0:
416,80,224633,1,0,0:0:0:0:
291,196,224809,2,0,P|236:127|240:40,1,180,0|8,0:0|0:0,0:0:0:0:
415,79,225339,6,0,P|471:148|467:236,1,180
291,196,225868,2,0,L|168:168,1,90,8|0,0:0|0:0,0:0:0:0:
72,200,226221,1,0,0:0:0:0:
160,304,226397,1,0,0:0:0:0:
120,128,226574,2,0,P|162:100|226:91,1,90,8|0,0:0|0:0,0:0:0:0:
226,91,226839,1,0,0:0:0:0:
248,96,226927,6,0,P|296:112|360:103,1,90,2|0,0:0|0:0,0:0:0:0:
472,24,227280,2,0,L|496:136,1,90,8|0,0:0|0:0,0:0:0:0:
408,272,227633,2,0,L|422:183,1,90
296,48,227986,2,0,P|250:59|199:110,1,90,8|0,0:0|0:0,0:0:0:0:
205,104,228250,1,0,0:0:0:0:
194,127,228339,6,0,P|160:160|91:178,1,90,0|0,0:0|0:0,0:0:0:0:
32,80,228692,1,8,0:0:0:0:
168,56,228868,1,0,0:0:0:0:
64,240,229044,2,0,L|168:272,1,90
280,232,229397,1,8,0:0:0:0:
240,360,229574,1,0,0:0:0:0:
256,144,229750,6,0,B|264:116|292:40|434:-70|556:144|462:332|327:218|292:351|256:351|256:351|256:351|256:351|218:351|184:218|48:332|-44:144|76:-70|218:40|245:116|256:144,1,1080.00004119873,4|0,0:0|0:0,0:0:0:0:
