osu file format v14

[General]
AudioFilename: Souzou Forest - Takumi Yoshida.mp3
AudioLeadIn: 0
PreviewTime: 137986
Countdown: 0
SampleSet: Soft
StackLeniency: 0.7
Mode: 0
LetterboxInBreaks: 1
EpilepsyWarning: 1
WidescreenStoryboard: 1

[Editor]
Bookmarks: 23633,46045,115222,171869,183163,252339
DistanceSpacing: 1
BeatDivisor: 4
GridSize: 4
TimelineZoom: 1.1

[Metadata]
Title:Kuusou Forest
TitleUnicode:空想フォレスト
Artist:Jin ft. Takumi Yoshida
ArtistUnicode:じん ft. 吉田拓巳
Creator:Kaivu
Version:Easy
Source:カゲロウプロジェクト
Tags:akareh jin souzou marry fantasy imagination mekakucity actors kagepro shizen no teki p
BeatmapID:986089
BeatmapSetID:254317

[Difficulty]
HPDrainRate:3
CircleSize:2
OverallDifficulty:3
ApproachRate:4
SliderMultiplier:1
SliderTickRate:1

[Events]
//Background and Video events
0,0,"BG.png",0,0
//Break Periods
2,91244,102783
2,160774,181842
//Storyboard Layer 0 (Background)
//Storyboard Layer 1 (Fail)
//Storyboard Layer 2 (Pass)
//Storyboard Layer 3 (Foreground)
//Storyboard Sound Samples

[TimingPoints]
1045,352.941176470588,4,2,1,100,1,0
23104,-100,4,2,1,100,0,0
23986,-100,4,2,4,100,0,0
24074,-100,4,2,1,100,0,0
35280,-100,4,2,4,100,0,0
35368,-100,4,2,1,100,0,0
36692,-100,4,2,4,100,0,0
36780,-100,4,2,1,100,0,0
45162,-100,4,2,4,100,0,0
45250,-100,4,2,1,100,0,0
60692,-100,4,2,4,100,0,0
60780,-100,4,2,1,100,0,0
68809,-100,4,2,2,100,0,1
80015,-100,4,2,2,100,0,0
80103,-100,4,2,2,100,0,1
91397,-100,4,2,1,100,0,0
104456,-100,4,2,4,100,0,0
104544,-100,4,2,1,100,0,0
105868,-100,4,2,4,100,0,0
105956,-100,4,2,1,100,0,0
114339,-100,4,2,4,100,0,0
114427,-100,4,2,1,100,0,0
129868,-100,4,2,4,100,0,0
129956,-100,4,2,1,100,0,0
137986,-100,4,2,2,100,0,1
149192,-100,4,2,2,100,0,0
149280,-100,4,2,2,100,0,1
160574,-100,4,2,1,100,0,0
171869,-100,4,2,0,100,0,0
183163,-100,4,2,3,100,0,0
207162,-100,4,2,2,100,0,1
218368,-100,4,2,2,100,0,0
218456,-100,4,2,2,100,0,1
229750,-100,4,2,1,100,0,0

[Colours]
Combo1 : 255,255,128
Combo2 : 128,128,255
Combo3 : 255,128,255
Combo4 : 128,255,128

[HitObjects]
320,192,23281,5,0,0:0:0:0:
248,120,23633,6,0,P|160:88|64:152,1,200,4|0,0:0|0:0,0:0:0:0:
168,200,24692,1,8,0:0:0:0:
88,272,25044,2,0,L|168:360,1,100,0|8,0:0|0:0,0:0:0:0:
264,344,25750,2,0,L|331:270,1,100,0|8,0:0|0:0,0:0:0:0:
440,272,26457,6,0,B|448:240|440:208|440:208|448:200|448:200|432:160|440:128,2,150,4|0|8,0:0|0:0|0:0,0:0:0:0:
344,232,27868,2,0,B|352:264|344:296|344:296|352:304|352:304|336:344|344:376,2,150,0|0|8,0:0|0:0|0:0,0:0:0:0:
312,136,29280,6,0,P|264:168|244:208,1,100,4|8,0:0|0:0,0:0:0:0:
240,304,29986,2,0,P|176:340|96:320,2,150,0|0|8,0:0|0:0|0:0,0:0:0:0:
160,240,31397,1,0,0:0:0:0:
244,204,31750,1,8,0:0:0:0:
168,136,32104,6,0,L|48:136,1,100,4|8,0:0|0:0,0:0:0:0:
112,48,32810,2,0,L|216:48,1,100,0|8,0:0|0:0,0:0:0:0:
312,48,33515,2,0,P|331:118|402:161,2,150,0|0|8,0:0|0:0|0:0,0:0:0:0:
408,64,34927,6,0,B|432:84|480:64|480:64|528:152|472:196,1,200,6|0,0:0|0:0,0:0:0:0:
424,256,35986,1,8,0:0:0:0:
336,208,36339,2,0,P|256:192|152:240,1,200,0|0,0:0|0:0,0:0:0:0:
96,328,37397,1,8,0:0:0:0:
200,328,37750,6,0,L|320:328,1,100,4|8,0:0|0:0,0:0:0:0:
352,240,38456,2,0,L|248:240,1,100,0|8,0:0|0:0,0:0:0:0:
184,168,39162,2,0,B|224:112|288:184|328:120,2,150,0|0|8,0:0|0:0|0:0,0:0:0:0:
152,264,40574,6,0,P|109:239|83:196,1,100,4|8,0:0|0:0,0:0:0:0:
112,104,41280,2,0,L|-16:208,2,150,0|0|8,0:0|0:0|0:0,0:0:0:0:
208,72,42692,2,0,P|200:168|216:240,2,150,0|0|8,0:0|0:0|0:0,0:0:0:0:
304,40,44104,6,0,L|416:64,1,100,0|8,0:0|0:0,0:0:0:0:
500,80,44809,2,0,P|528:172|455:247,1,200
304,224,46044,1,4,0:0:0:0:
192,120,46574,6,0,L|176:224,1,100,8|0,0:0|0:0,0:0:0:0:
80,184,47280,2,0,L|91:288,2,100,8|0|8,0:0|0:0|0:0,0:0:0:0:
64,88,48339,1,0,0:0:0:0:
160,120,48692,1,8,0:0:0:0:
240,56,49044,6,0,P|336:48|408:64,2,150,0|0|8,0:0|0:0|0:0,0:0:0:0:
160,120,50456,2,0,P|152:168|152:224,2,100,0|8|0,0:0|0:0|0:0,0:0:0:0:
240,56,51515,1,8,0:0:0:0:
328,112,51868,6,0,L|344:232,1,100,0|8,0:0|0:0,0:0:0:0:
253,255,52574,2,0,L|239:155,1,100,0|8,0:0|0:0,0:0:0:0:
152,112,53280,2,0,B|128:152|112:168|112:168|104:208,1,100,0|8,0:0|0:0,0:0:0:0:
96,296,53986,2,0,B|149:339|192:253|247:305,2,150,0|0|8,0:0|0:0|0:0,0:0:0:0:
136,208,55397,6,0,P|226:175|300:172,2,150,0|0|8,0:0|0:0|0:0,0:0:0:0:
96,296,56809,1,0,0:0:0:0:
24,160,57339,6,0,P|65:72|114:18,1,150,4|8,0:0|0:0,0:0:0:0:
176,104,58221,1,0,0:0:0:0:
264,48,58575,2,0,P|312:40|368:40,2,100,8|0|8,0:0|0:0|0:0,0:0:0:0:
176,104,59633,2,0,L|168:208,1,100,0|8,0:0|0:0,0:0:0:0:
264,168,60339,6,0,L|246:390,1,200
360,264,61575,2,0,P|424:228|504:248,2,150,0|8|0,0:0|0:0|0:0,0:0:0:0:
248,367,63162,6,0,P|240:319|240:263,1,100,0|8,0:0|0:0,0:0:0:0:
264,168,63868,2,0,P|263:118|255:68,1,100,0|8,0:0|0:0,0:0:0:0:
155,67,64574,2,0,P|145:117|146:167,1,100,0|8,0:0|0:0,0:0:0:0:
201,262,65280,6,0,P|129:277|59:235,2,150,0|0|8,0:0|0:0|0:0,0:0:0:0:
264,168,66692,2,0,P|335:152|406:194,2,150,0|0|8,0:0|0:0|0:0,0:0:0:0:
264,168,68809,6,0,B|236:120|236:120|192:96,2,100,6|10|0,0:0|0:0|0:0,0:0:0:0:
269,279,69868,1,8,0:0:0:0:
360,220,70221,2,0,B|392:212|424:220|424:220|432:212|432:212|472:228|504:220,2,150,0|0|8,0:0|0:0|0:0,0:0:0:0:
269,279,71633,6,0,P|211:275|174:250,1,100,2|8,0:0|0:0,0:0:0:0:
248,180,72339,2,0,P|200:148|180:108,1,100,0|8,0:0|0:0,0:0:0:0:
256,47,73044,2,0,P|298:72|324:115,1,100,0|8,0:0|0:0,0:0:0:0:
398,44,73750,2,0,P|422:86|423:136,1,100,0|8,0:0|0:0,0:0:0:0:
360,216,74456,6,0,B|276:224|244:176|244:176|205:182|168:192,2,200,2|0|0,0:0|0:0|0:0,0:0:0:0:
456,192,76221,1,8,0:0:0:0:
472,288,76574,2,0,B|440:328|440:328|384:328,1,100,0|8,0:0|0:0,0:0:0:0:
288,328,77280,5,2,0:0:0:0:
344,240,77633,2,0,L|344:136,2,100,8|0|8,0:0|0:0|0:0,0:0:0:0:
288,328,78692,1,0,0:0:0:0:
240,240,79044,2,0,L|240:136,2,100,8|0|8,0:0|0:0|0:0,0:0:0:0:
192,328,80103,6,0,P|145:315|109:280,1,100,6|10,0:0|0:0,0:0:0:0:
108,179,80809,2,0,P|143:144|191:131,1,100,0|8,0:0|0:0,0:0:0:0:
288,128,81515,2,0,B|344:128|344:128|376:144|376:144|448:144,2,150,0|0|8,0:0|0:0|0:0,0:0:0:0:
191,131,82927,6,0,L|175:235,1,100,2|8,0:0|0:0,0:0:0:0:
256,288,83633,2,0,L|271:189,1,100,0|8,0:0|0:0,0:0:0:0:
366,157,84339,2,0,L|350:261,1,100,0|8,0:0|0:0,0:0:0:0:
431,314,85045,2,0,L|446:215,1,100,0|8,0:0|0:0,0:0:0:0:
464,116,85750,6,0,B|400:64|400:64|264:64,1,200,2|0,0:0|0:0,0:0:0:0:
224,156,86809,1,8,0:0:0:0:
128,100,87162,2,0,P|61:172|49:270,1,200
140,332,88221,1,8,0:0:0:0:
250,332,88574,5,2,0:0:0:0:
320,248,88927,2,0,L|440:248,2,100,8|0|8,0:0|0:0|0:0,0:0:0:0:
216,216,89986,2,0,B|208:184|216:152|216:152|208:144|208:144|224:104|216:72,2,150,0|0|8,0:0|0:0|0:0,0:0:0:0:
96,216,104103,6,0,B|160:224|160:224|224:184|304:200,1,200,6|0,0:0|0:0,0:0:0:0:
376,248,105162,1,8,0:0:0:0:
288,288,105515,2,0,P|242:201|256:104,1,200
320,32,106573,1,8,0:0:0:0:
352,128,106927,6,0,B|401:120|401:120|450:128,1,100,4|8,0:0|0:0,0:0:0:0:
450,228,107633,2,0,B|400:235|400:235|351:228,1,100,0|8,0:0|0:0,0:0:0:0:
264,176,108339,2,0,P|256:272|272:344,2,150,0|0|8,0:0|0:0|0:0,0:0:0:0:
296,80,109750,6,0,P|338:106|362:150,1,100,4|8,0:0|0:0,0:0:0:0:
264,176,110456,2,0,P|208:128|199:46,2,150,0|0|8,0:0|0:0|0:0,0:0:0:0:
362,149,111868,2,0,P|417:196|426:278,2,150,0|0|8,0:0|0:0|0:0,0:0:0:0:
264,176,113280,6,0,L|166:196,1,100,0|8,0:0|0:0,0:0:0:0:
68,220,113986,2,0,B|60:180|28:156|28:156|56:96|56:96|96:112|128:96,1,200
248,48,115221,1,4,0:0:0:0:
392,96,115750,6,0,P|400:144|400:200,1,100,8|0,0:0|0:0,0:0:0:0:
304,192,116456,2,0,P|296:240|296:296,1,100,8|0,0:0|0:0,0:0:0:0:
384,336,117162,2,0,L|168:328,1,200,8|8,0:0|0:0,0:0:0:0:
84,348,118221,6,0,P|48:284|68:204,2,150,0|0|8,0:0|0:0|0:0,0:0:0:0:
148,268,119633,2,0,P|182:232|195:183,1,100,0|8,0:3|0:0,0:0:0:0:
144,100,120339,2,0,L|244:93,1,100,0|8,0:0|0:0,0:0:0:0:
194,184,121044,6,0,L|294:177,1,100,0|8,0:0|0:0,0:0:0:0:
388,216,121750,2,0,P|326:288|263:329,2,150,0|0|8,0:0|0:0|0:0,0:0:0:0:
480,184,123162,6,0,P|463:278|429:344,2,150,0|0|8,0:0|0:0|0:0,0:0:0:0:
442,87,124574,2,0,B|386:87|386:87|354:103|354:103|282:103,2,150,0|0|8,0:0|0:0|0:0,0:0:0:0:
480,184,125986,1,0,0:0:0:0:
360,280,126515,6,0,B|328:288|296:280|296:280|288:288|288:288|248:272|216:280,1,150,4|8,0:0|0:0,0:0:0:0:
128,336,127398,1,0,0:0:0:0:
72,248,127750,2,0,P|38:284|25:332,2,100,8|0|8,0:0|0:0|0:0,0:0:0:0:
176,240,128810,2,0,L|183:140,1,100,0|8,0:0|0:0,0:0:0:0:
144,48,129515,6,0,P|205:101|319:112,1,200
456,48,130750,2,0,B|492:112|492:112|472:192,2,150,0|8|0,0:0|0:0|0:0,0:0:0:0:
304,48,132339,6,0,P|304:97|312:147,1,100,0|8,0:0|0:0,0:0:0:0:
216,160,133044,2,0,P|241:203|272:241,1,100,0|8,0:0|0:0,0:0:0:0:
192,296,133750,2,0,P|235:320|282:338,1,100,0|8,0:0|0:0,0:0:0:0:
256,192,134456,12,0,136574,0:0:0:0:
472,344,137986,6,0,L|368:344,2,100,6|10|0,0:0|0:0|0:0,0:0:0:0:
496,248,139045,1,8,0:0:0:0:
408,200,139397,2,0,P|312:192|240:208,2,150,0|0|8,0:0|0:0|0:0,0:0:0:0:
496,248,140809,6,0,L|512:136,1,100,2|8,0:0|0:0,0:0:0:0:
439,78,141515,2,0,L|327:94,1,100,0|8,0:0|0:0,0:0:0:0:
269,163,142221,2,0,L|254:261,1,100,0|8,0:0|0:0,0:0:0:0:
325,332,142927,2,0,L|423:317,1,100,0|8,0:0|0:0,0:0:0:0:
496,248,143633,6,0,P|450:180|343:140,2,200,2|0|0,0:0|0:0|0:0,0:0:0:0:
512,344,145398,1,8,0:0:0:0:
416,312,145750,2,0,P|367:316|313:331,1,100,0|8,0:0|0:0,0:0:0:0:
224,368,146457,5,2,0:0:0:0:
152,304,146810,2,0,L|32:304,2,100,8|0|8,0:0|0:0|0:0,0:0:0:0:
232,248,147868,1,0,0:0:0:0:
160,184,148221,2,0,L|40:184,2,100,8|0|8,0:0|0:0|0:0,0:0:0:0:
232,120,149280,6,0,B|232:80|232:80|232:40|264:32,1,100,6|10,0:0|0:0,0:0:0:0:
361,32,149986,2,0,B|390:39|390:79|390:79|390:119,1,100,0|8,0:0|0:0,0:0:0:0:
316,184,150692,2,0,B|272:237|358:280|306:335,2,150,0|0|8,0:0|0:0|0:0,0:0:0:0:
390,118,152103,6,0,P|413:171|408:215,1,100,2|8,0:0|0:0,0:0:0:0:
316,184,152809,2,0,L|216:184,1,100,0|8,0:0|0:0,0:0:0:0:
144,120,153515,2,0,P|120:173|125:217,1,100,2|8,0:0|0:0,0:0:0:0:
200,272,154221,2,0,L|300:272,1,100,0|8,0:0|0:0,0:0:0:0:
352,360,154927,6,0,L|152:360,1,200,2|0,0:0|0:0,0:0:0:0:
56,336,155986,1,8,0:0:0:0:
128,264,156339,2,0,P|164:190|145:77,1,200
56,32,157398,1,8,0:0:0:0:
64,128,157751,5,2,0:0:0:0:
145,77,158104,2,0,L|265:77,2,100,8|0|8,0:0|0:0|0:0,0:0:0:0:
192,168,159163,2,0,B|344:168,2,150,0|0|8,0:0|0:0|0:0,0:0:0:0:
144,256,160574,1,4,0:0:0:0:
312,136,183162,5,6,0:0:0:0:
112,136,183868,1,8,0:0:0:0:
208,320,184574,2,0,L|96:344,1,100,2|0,0:0|0:0,0:0:0:0:
128,240,185280,2,0,L|225:219,1,100,8|0,0:0|0:0,0:0:0:0:
324,196,185986,5,6,0:0:0:0:
464,336,186692,1,8,0:0:0:0:
324,196,187397,2,0,P|276:228|256:268,2,100,2|0|8,0:0|0:0|0:0,0:0:0:0:
424,208,188456,1,4,0:0:0:0:
504,152,188809,5,6,0:0:0:0:
336,40,189515,1,8,0:0:0:0:
200,192,190221,2,0,L|200:296,1,100,2|0,0:0|0:0,0:0:0:0:
104,256,190927,2,0,L|104:144,1,100,8|0,0:0|0:0,0:0:0:0:
104,56,191633,5,6,0:0:0:0:
304,56,192339,1,8,0:0:0:0:
208,232,193044,2,0,B|248:224|248:224|272:232|320:232,2,100,2|0|8,0:0|0:0|0:0,0:0:0:0:
112,256,194103,2,0,P|112:206|135:163,1,100,4|12,0:0|0:0,0:0:0:0:
200,344,195162,5,8,0:0:0:0:
400,344,195868,2,0,P|448:312|468:272,1,100,2|0,0:0|0:0,0:0:0:0:
392,208,196574,2,0,P|344:240|324:280,1,100,8|0,0:0|0:0,0:0:0:0:
400,344,197280,5,6,0:0:0:0:
280,168,197986,1,8,0:0:0:0:
136,304,198692,2,0,L|16:304,2,100,2|0|8,0:0|0:0|0:0,0:0:0:0:
236,304,199750,2,0,L|352:304,1,100,4|12,0:0|0:0,0:0:0:0:
280,112,200809,5,8,0:0:0:0:
236,304,201515,2,0,L|120:304,1,100,2|0,0:0|0:0,0:0:0:0:
176,208,202221,2,0,L|296:208,1,100,8|0,0:0|0:0,0:0:0:0:
256,192,202927,12,0,205749,0:0:0:0:
136,152,207162,6,0,L|144:256,2,100,6|10|0,0:0|0:0|0:0,0:0:0:0:
52,96,208221,1,8,0:0:0:0:
36,196,208574,2,0,L|48:364,2,150,0|0|8,0:0|0:0|0:0,0:0:0:0:
52,96,209986,6,0,P|95:57|139:49,1,100,2|8,0:0|0:0,0:0:0:0:
244,48,210692,2,0,L|244:152,1,100,0|8,0:0|0:0,0:0:0:0:
135,149,211397,2,0,L|135:49,1,100,0|8,0:0|0:0,0:0:0:0:
243,47,212103,2,0,P|291:60|327:94,1,100,0|8,0:0|0:0,0:0:0:0:
292,188,212809,6,0,B|352:208|392:176|412:148|412:148|447:154|484:164,2,200,2|0|0,0:0|0:0|0:0,0:0:0:0:
196,160,214574,1,8,0:0:0:0:
208,256,214927,2,0,L|109:271,1,100,0|8,0:0|0:0,0:0:0:0:
8,240,215633,5,2,0:0:0:0:
40,344,215986,2,0,P|81:368|131:370,2,100,8|0|8,0:0|0:0|0:0,0:0:0:0:
109,271,217044,1,0,0:0:0:0:
180,200,217397,2,0,P|138:175|88:173,2,100,8|0|8,0:0|0:0|0:0,0:0:0:0:
256,272,218456,6,0,P|303:259|339:224,1,100,6|10,0:0|0:0,0:0:0:0:
288,140,219162,2,0,L|387:132,1,100,0|8,0:0|0:0,0:0:0:0:
476,180,219868,2,0,P|513:239|497:330,2,150,0|0|8,0:0|0:0|0:0,0:0:0:0:
388,132,221280,6,0,P|358:170|350:220,1,100,2|8,0:0|0:0,0:0:0:0:
412,300,221986,2,0,L|312:307,1,100,0|8,0:0|0:0,0:0:0:0:
212,316,222692,2,0,L|220:216,1,100,0|8,0:0|0:0,0:0:0:0:
176,128,223397,2,0,P|168:79|138:39,1,100,0|8,0:0|0:0,0:0:0:0:
76,120,224103,6,0,P|28:176|48:296,1,200,2|0,0:0|0:0,0:0:0:0:
132,344,225162,1,8,0:0:0:0:
196,268,225515,2,0,B|268:252|316:300|316:300|388:292,1,200
484,280,226574,1,8,0:0:0:0:
432,196,226927,5,2,0:0:0:0:
496,120,227280,2,0,L|496:8,2,100,8|0|8,0:0|0:0|0:0,0:0:0:0:
412,68,228339,1,0,0:0:0:0:
436,268,229044,1,0,0:0:0:0:
256,152,229750,6,0,B|261:132|282:73|386:-6|476:150|406:288|307:204|282:302|256:302|256:302|256:302|256:302|228:302|203:204|103:288|35:150|123:-6|228:73|249:132|256:152,1,800,4|0,0:0|0:0,0:0:0:0:
