osu file format v14

[General]
AudioFilename: audio.mp3
AudioLeadIn: 0
PreviewTime: 68830
Countdown: 0
SampleSet: Soft
StackLeniency: 0.7
Mode: 0
LetterboxInBreaks: 0
WidescreenStoryboard: 0

[Editor]
DistanceSpacing: 0.7
BeatDivisor: 4
GridSize: 4
TimelineZoom: 1.9

[Metadata]
Title:Kuusou Forest
TitleUnicode:空想フォレスト
Artist:Jin ft. Takumi Yoshida (phatmans after school)
ArtistUnicode:じん ft. ヨシダタクミ(phatmans after school)
Creator:Trust
Version:captin's Insane
Source:メカクシティアクターズ
Tags:mekakucity actors kagerou project imagination forest marry kozakura captin1 luxodeh
BeatmapID:916387
BeatmapSetID:424179

[Difficulty]
HPDrainRate:6
CircleSize:4.2
OverallDifficulty:8
ApproachRate:9
SliderMultiplier:1.8
SliderTickRate:2

[Events]
//Background and Video events
0,0,"souzou-forest.jpg",0,0
//Break Periods
//Storyboard Layer 0 (Background)
//Storyboard Layer 1 (Fail)
//Storyboard Layer 2 (Pass)
//Storyboard Layer 3 (Foreground)
//Storyboard Sound Samples

[TimingPoints]
1072,352.941176470588,4,2,1,70,1,0
23660,-100,4,2,1,60,0,0
67777,-133.333333333333,4,2,1,60,0,0
68307,-100,4,2,1,60,0,0
68748,-100,4,2,1,5,0,0
68836,-100,4,2,1,70,0,1
91424,-100,4,2,1,70,0,0
136954,-133.333333333333,4,2,1,70,0,0
137483,-100,4,2,1,70,0,0
137924,-100,4,2,1,5,0,0
138013,-100,4,2,1,70,0,1
160601,-100,4,2,1,70,0,0
207189,-100,4,2,1,70,0,1
229689,-100,4,2,1,70,0,0
229777,-100,4,2,1,70,0,1
229866,-100,4,2,1,70,0,0

[Colours]
Combo1 : 128,128,255
Combo2 : 255,128,255
Combo3 : 0,128,255
Combo4 : 255,128,128

[HitObjects]
302,226,23130,5,2,0:0:0:0:
106,191,23307,2,0,P|134:222|224:221,1,135,4|0,0:0|0:0,0:0:0:0:
302,226,23660,6,0,P|311:271|316:320,1,90,4|0,0:0|0:0,0:0:0:0:
139,353,24013,1,2,0:0:0:0:
139,353,24189,2,0,P|143:308|152:264,1,90,0|2,0:0|0:0,0:0:0:0:
268,203,24542,2,0,P|263:158|254:114,1,90,0|2,0:0|0:0,0:0:0:0:
81,195,24895,6,0,P|129:194|170:186,2,90,0|2|0,0:0|0:0|0:0,0:0:0:0:
8,121,25424,1,2,0:0:0:0:
29,286,25601,2,0,P|73:294|118:295,1,90,0|2,0:0|0:0,0:0:0:0:
261,214,25954,1,0,0:0:0:0:
201,80,26130,2,0,P|156:80|111:89,1,90,2|0,0:0|0:0,0:0:0:0:
276,133,26483,6,0,B|366:169|363:111|451:147,1,180,2|2,0:0|0:0,0:0:0:0:
176,198,27013,2,0,P|121:199|80:206,1,90,0|0,0:0|0:0,0:0:0:0:
312,284,27366,1,0,0:0:0:0:
401,207,27542,1,2,0:0:0:0:
230,273,27719,6,0,P|236:320|360:352,1,180,0|0,0:0|0:0,0:0:0:0:
465,248,28248,2,0,P|459:196|459:152,1,90,2|0,0:0|0:0,0:0:0:0:
314,141,28601,2,0,P|320:89|320:45,1,90,2|0,0:0|0:0,0:0:0:0:
239,235,28954,1,2,0:0:0:0:
208,118,29130,1,0,0:0:0:0:
359,214,29307,6,0,L|251:213,1,90,2|0,0:0|0:0,0:0:0:0:
82,268,29660,2,0,L|190:267,1,90,2|0,0:0|0:0,0:0:0:0:
271,308,30013,1,2,0:0:0:0:
134,341,30189,1,0,0:0:0:0:
166,167,30366,1,2,0:0:0:0:
251,329,30542,5,0,0:0:0:0:
251,329,30630,1,0,0:0:0:0:
251,329,30719,2,0,P|301:329|344:333,1,90,2|0,0:0|0:0,0:0:0:0:
493,233,31071,2,0,P|443:233|400:237,1,90,2|0,0:0|0:0,0:0:0:0:
198,270,31424,1,2,0:0:0:0:
409,309,31601,1,0,0:0:0:0:
271,208,31777,1,2,0:0:0:0:
113,278,31954,1,0,0:0:0:0:
275,291,32130,6,0,P|327:286|377:286,1,90,2|0,0:0|0:0,0:0:0:0:
488,147,32483,1,2,0:0:0:0:
318,164,32660,1,0,0:0:0:0:
318,164,32836,2,0,P|365:166|414:162,1,90,2|0,0:0|0:0,0:0:0:0:
240,98,33189,1,2,0:0:0:0:
169,234,33366,6,0,P|168:280|173:328,1,90,0|2,0:0|0:0,0:0:0:0:
337,171,33719,2,0,P|338:217|333:265,1,90,0|0,0:0|0:0,0:0:0:0:
87,277,34071,1,0,0:0:0:0:
175,150,34248,1,2,0:0:0:0:
240,288,34424,2,0,L|185:288,1,45,0|0,0:0|0:0,0:0:0:0:
44,344,34601,2,0,P|10:292|39:213,1,135,8|0,0:0|0:0,0:0:0:0:
96,184,34954,6,0,P|99:133|99:85,1,90,4|0,0:0|0:0,0:0:0:0:
156,263,35307,1,8,0:0:0:0:
15,207,35483,1,0,0:0:0:0:
179,178,35660,1,2,0:0:0:0:
46,228,35836,1,0,0:0:0:0:
228,239,36013,1,8,0:0:0:0:
177,64,36189,6,0,P|170:121|170:167,1,90,0|2,0:0|0:0,0:0:0:0:
210,343,36542,1,0,0:0:0:0:
143,269,36719,1,8,0:0:0:0:
304,297,36895,2,0,P|348:295|393:289,1,90,0|2,0:0|0:0,0:0:0:0:
455,184,37248,1,0,0:0:0:0:
296,200,37424,1,8,0:0:0:0:
421,210,37601,1,0,0:0:0:0:
328,168,37777,6,0,P|266:151|152:181,1,180,2|8,0:0|0:0,0:0:0:0:
85,279,38307,1,0,0:0:0:0:
248,258,38483,2,0,P|294:263|337:276,1,90,2|0,0:0|0:0,0:0:0:0:
124,285,38836,1,8,0:0:0:0:
237,151,39013,1,0,0:0:0:0:
237,151,39366,5,0,0:0:0:0:
223,331,39542,1,8,0:0:0:0:
165,208,39719,1,0,0:0:0:0:
290,253,39895,2,0,P|342:257|388:253,2,90,2|0|8,0:0|0:0|0:0,0:0:0:0:
127,301,40424,5,0,0:0:0:0:
127,301,40513,1,0,0:0:0:0:
127,301,40601,2,0,P|79:255|99:131,1,180,2|8,0:0|0:0,0:0:0:0:
206,245,41130,1,0,0:0:0:0:
266,324,41307,2,0,P|312:323|359:308,1,90,2|0,0:0|0:0,0:0:0:0:
377,150,41660,1,8,0:0:0:0:
429,328,41836,5,0,0:0:0:0:
429,328,41924,1,0,0:0:0:0:
429,328,42013,2,0,L|431:230,1,90,2|0,0:0|0:0,0:0:0:0:
448,73,42366,1,8,0:0:0:0:
343,237,42542,2,0,P|293:260|171:215,1,180,0|0,0:0|0:0,0:0:0:0:
12,282,43071,2,0,P|65:277|108:279,1,90,8|0,0:0|0:0,0:0:0:0:
196,335,43424,6,0,P|286:337|380:312,2,180,2|8|2,0:0|0:0|0:0,0:0:0:0:
26,226,44307,1,2,0:0:0:0:
173,356,44483,1,8,0:0:0:0:
111,144,44660,2,0,P|109:199|111:244,1,90,4|0,0:0|0:0,0:0:0:0:
34,347,45013,1,2,0:0:0:0:
203,198,45189,6,0,P|260:191|305:196,1,90,8|2,0:0|0:0,0:0:0:0:
362,229,45454,1,0,0:0:0:0:
362,229,45542,2,0,L|414:228,1,45,8|8,0:3|0:3,0:0:0:0:
250,284,45719,2,0,L|198:283,1,45,0|0,3:0|0:0,0:0:0:0:
292,103,45895,1,8,0:0:0:0:
328,304,46071,6,0,P|387:331|493:269,1,180,4|2,0:0|0:0,0:0:0:0:
217,266,46601,2,0,P|165:269|108:280,1,90,8|0,0:0|0:0,0:0:0:0:
309,318,46954,1,2,0:0:0:0:
270,165,47130,2,0,P|225:157|180:155,1,90,2|8,0:0|0:0,0:0:0:0:
71,325,47483,6,0,P|93:273|77:191,1,135,2|0,0:0|0:0,0:0:0:0:
14,154,47836,1,2,0:0:0:0:
195,191,48013,1,8,0:0:0:0:
5,259,48189,1,0,0:0:0:0:
5,259,48277,1,0,0:0:0:0:
5,259,48366,2,0,L|101:259,1,90,2|0,0:0|0:0,0:0:0:0:
250,277,48719,1,8,0:0:0:0:
78,293,48895,1,0,0:0:0:0:
212,200,49071,6,0,P|270:200|309:216,1,90,2|2,0:0|0:0,0:0:0:0:
109,268,49424,1,8,0:0:0:0:
280,298,49601,1,2,0:0:0:0:
311,295,49689,1,0,0:0:0:0:
342,293,49777,1,4,0:3:0:0:
212,200,49954,1,0,0:0:0:0:
205,370,50130,1,8,0:0:0:0:
288,221,50307,6,0,P|297:161|290:36,1,180,4|0,0:0|0:0,0:0:0:0:
398,170,50836,1,8,0:0:0:0:
201,129,51013,1,0,0:0:0:0:
201,129,51101,1,0,0:0:0:0:
201,129,51189,2,0,L|89:133,1,90,2|2,0:0|0:0,0:0:0:0:
309,78,51542,1,8,0:3:0:0:
129,58,51719,1,0,0:0:0:0:
276,149,51895,6,0,P|367:128|436:183,1,180,4|8,0:0|0:0,0:0:0:0:
379,347,52424,1,0,0:0:0:0:
346,209,52601,1,2,0:0:0:0:
452,295,52777,1,2,0:0:0:0:
293,278,52954,1,8,0:0:0:0:
155,354,53130,6,0,P|102:357|29:262,1,180,2|2,0:0|0:0,0:0:0:0:
247,304,53660,2,0,P|296:310|346:309,1,90,8|2,0:0|0:0,0:0:0:0:
195,223,54013,1,2,0:0:0:0:
350,222,54189,1,2,0:0:0:0:
237,344,54366,1,8,0:0:0:0:
101,245,54542,6,0,P|90:193|90:147,1,90,4|0,0:0|0:0,0:0:0:0:
231,116,54895,2,0,L|237:71,3,45,2|0|8|0,0:0|0:0|0:0|0:0,0:0:0:0:
259,184,55248,1,0,0:0:0:0:
257,215,55336,1,0,0:0:0:0:
248,245,55424,2,0,L|245:289,1,45,2|0,0:0|0:0,0:0:0:0:
337,270,55601,2,0,L|340:314,1,45,2|0,0:0|0:0,0:0:0:0:
426,269,55777,1,8,0:0:0:0:
178,195,55954,6,0,P|132:209|46:156,1,135,4|0,0:0|0:0,0:0:0:0:
47,143,56307,1,8,0:0:0:0:
161,295,56483,1,8,0:0:0:0:
192,297,56571,1,0,0:0:0:0:
224,294,56660,2,0,P|253:290|290:279,1,45,2|0,0:0|0:0,0:0:0:0:
327,369,56836,1,8,0:0:0:0:
444,242,57013,1,8,0:0:0:0:
444,242,57101,1,8,0:0:0:0:
444,242,57189,1,8,0:0:0:0:
444,242,57277,1,8,0:0:0:0:
444,242,57366,6,0,L|349:242,1,90,4|0,0:0|0:0,0:0:0:0:
181,181,57719,2,0,P|177:142|174:120,1,45,8|0,0:0|0:0,0:0:0:0:
148,43,57895,2,0,P|207:59|243:62,1,90,12|0,0:0|0:0,0:0:0:0:
312,46,58160,1,0,0:0:0:0:
312,46,58248,1,2,0:0:0:0:
100,113,58424,2,0,P|48:119|11:118,1,90,2|8,0:0|0:0,0:0:0:0:
237,76,58777,1,2,0:0:0:0:
220,284,58954,5,0,0:0:0:0:
186,140,59130,1,2,0:0:0:0:
206,310,59307,1,8,0:0:0:0:
283,150,59483,2,0,L|331:141,2,45,0|0|2,0:0|0:0|0:0,0:0:0:0:
68,191,59836,1,2,0:0:0:0:
246,236,60013,2,0,P|200:234|139:239,1,90,8|2,0:0|0:0,0:0:0:0:
347,279,60366,6,0,P|392:277|454:282,1,90,0|0,0:0|0:0,0:0:0:0:
223,322,60719,1,8,0:0:0:0:
287,177,60895,1,4,0:3:0:0:
286,208,60983,1,0,0:0:0:0:
285,239,61071,1,8,0:3:0:0:
90,319,61248,1,2,0:0:0:0:
203,193,61424,1,8,0:0:0:0:
103,43,61601,6,0,L|113:181,1,135,4|0,0:0|0:0,0:0:0:0:
89,204,61954,1,2,0:0:0:0:
276,100,62130,1,8,0:0:0:0:
287,302,62307,1,0,0:0:0:0:
287,302,62395,1,0,0:0:0:0:
287,302,62483,2,0,P|299:255|306:209,1,90,2|2,0:0|0:0,0:0:0:0:
151,117,62836,1,8,0:0:0:0:
276,100,63013,1,0,0:0:0:0:
276,100,63101,1,0,0:0:0:0:
276,100,63189,6,0,P|356:136|434:96,2,180,4|12|2,0:0|0:0|0:0,0:0:0:0:
110,79,64071,1,0,0:0:0:0:
285,197,64248,2,0,P|334:208|380:208,1,90,8|0,0:0|0:0,0:0:0:0:
195,161,64601,6,0,P|140:149|73:195,1,135,2|0,0:0|0:0,0:0:0:0:
41,260,64954,2,0,L|39:352,1,90,8|0,0:0|0:0,0:0:0:0:
216,245,65307,1,2,0:0:0:0:
286,363,65483,2,0,L|284:273,1,90,2|8,0:0|0:0,0:0:0:0:
131,106,65836,6,0,P|114:180|214:241,1,180,4|8,0:0|0:0,0:0:0:0:
406,212,66366,1,8,0:0:0:0:
330,101,66542,1,0,0:0:0:0:
313,127,66630,1,0,0:0:0:0:
302,157,66719,1,8,0:3:0:0:
301,188,66807,1,0,0:0:0:0:
309,218,66895,1,8,0:3:0:0:
311,249,66983,1,0,0:0:0:0:
302,279,67071,1,8,0:3:0:0:
289,308,67160,1,0,0:0:0:0:
265,329,67248,2,0,L|220:333,1,45,0|0,0:0|0:0,0:0:0:0:
128,294,67424,6,0,P|117:340|130:380,1,90,8|2,0:0|0:0,0:0:0:0:
212,217,67777,2,0,L|217:76,1,135.000005149842,4|0,0:0|0:0,0:0:0:0:
128,199,68307,5,2,0:0:0:0:
134,229,68395,1,2,0:0:0:0:
150,255,68483,2,0,P|192:287|270:261,1,135,12|0,0:0|0:0,0:0:0:0:
328,324,68836,6,0,P|381:329|425:340,1,90,4|0,0:1|0:0,0:0:0:0:
250,147,69189,2,0,P|303:142|347:131,1,90,8|0,0:0|0:0,0:0:0:0:
121,248,69542,2,0,P|174:253|218:264,1,90,2|6,0:0|0:0,0:0:0:0:
37,291,69895,1,8,0:0:0:0:
13,127,70071,1,2,0:0:0:0:
60,305,70248,5,0,0:0:0:0:
244,328,70424,2,0,P|294:327|340:317,1,90,2|8,0:0|0:0,0:0:0:0:
389,115,70777,1,4,0:0:0:0:
336,235,70954,1,2,0:0:0:0:
467,154,71130,1,6,0:0:0:0:
354,37,71307,2,0,P|304:29|248:33,1,90,8|4,0:0|0:0,0:0:0:0:
191,160,71660,6,0,P|154:193|53:161,1,135,2|0,0:0|0:0,0:0:0:0:
10,224,72013,2,0,P|8:269|12:314,1,90,8|0,0:0|0:0,0:0:0:0:
280,195,72366,2,0,P|282:150|278:105,1,90,2|2,0:0|0:0,0:0:0:0:
26,108,72719,1,8,0:0:0:0:
181,137,72895,1,2,0:0:0:0:
0,190,73071,6,0,P|50:183|99:182,1,90,0|2,0:0|0:0,0:0:0:0:
246,256,73424,2,0,P|310:259|350:190,1,135,12|0,0:0|0:0,0:0:0:0:
330,139,73777,1,6,0:0:0:0:
176,217,73954,1,2,0:0:0:0:
320,312,74130,1,8,0:0:0:0:
263,195,74307,1,0,0:0:0:0:
108,348,74483,6,0,P|63:333|59:199,2,180,4|12|2,0:1|0:0|0:0,0:0:0:0:
269,298,75366,1,2,0:0:0:0:
432,337,75542,2,0,P|379:341|335:337,1,90,8|2,0:0|0:0,0:0:0:0:
127,257,75895,6,0,L|122:148,1,90,0|2,0:0|0:0,0:0:0:0:
258,78,76248,2,0,P|195:101|133:79,1,135,8|0,0:0|0:0,0:0:0:0:
73,16,76601,1,2,0:0:0:0:
34,169,76777,1,6,0:0:0:0:
196,124,76954,2,0,P|199:171|198:216,1,90,12|2,0:0|0:0,0:0:0:0:
111,341,77307,6,0,P|63:339|14:346,1,90,2|0,0:0|0:0,0:0:0:0:
188,298,77660,2,0,P|234:320|324:288,1,135,8|0,0:0|0:0,0:0:0:0:
396,310,78013,2,0,P|390:251|388:217,1,90,6|2,0:0|0:0,0:0:0:0:
249,175,78366,2,0,P|255:116|257:82,1,90,12|2,0:0|0:0,0:0:0:0:
168,273,78719,5,4,0:0:0:0:
158,102,78895,1,6,0:0:0:0:
134,314,79071,2,0,P|137:259|137:218,1,90,8|4,0:0|0:0,0:0:0:0:
56,38,79424,1,2,0:0:0:0:
53,225,79601,1,6,0:0:0:0:
136,62,79777,1,12,0:0:0:0:
21,141,79954,1,2,0:0:0:0:
225,160,80130,6,0,P|284:161|340:149,1,90,4|0,0:1|0:0,0:0:0:0:
430,306,80483,2,0,P|385:300|340:302,1,90,12|0,0:0|0:0,0:0:0:0:
369,102,80836,2,0,P|428:103|484:91,1,90,2|2,0:0|0:0,0:0:0:0:
290,77,81189,1,8,0:0:0:0:
110,145,81366,1,2,0:0:0:0:
312,113,81542,5,0,0:0:0:0:
163,52,81719,2,0,P|112:62|68:62,1,90,2|12,0:0|0:0,0:0:0:0:
36,255,82071,1,0,0:0:0:0:
157,167,82248,1,6,0:0:0:0:
4,144,82424,1,2,0:0:0:0:
147,211,82601,2,0,P|191:208|236:202,1,90,8|2,0:0|0:0,0:0:0:0:
437,282,82954,6,0,P|382:246|304:262,1,135,2|0,0:0|0:0,0:0:0:0:
248,316,83307,2,0,L|152:309,1,90,8|0,0:0|0:0,0:0:0:0:
376,328,83660,1,2,0:0:0:0:
260,190,83836,1,2,0:0:0:0:
98,271,84013,2,0,P|95:318|98:361,1,90,8|2,0:0|0:0,0:0:0:0:
270,222,84366,6,0,P|273:266|270:311,1,90,0|2,0:0|0:0,0:0:0:0:
26,246,84719,2,0,P|23:201|26:156,1,90,12|0,0:0|0:0,0:0:0:0:
169,249,85071,1,6,0:0:0:0:
160,79,85248,1,2,0:0:0:0:
91,293,85424,1,8,0:0:0:0:
113,139,85601,1,0,0:0:0:0:
336,172,85777,5,6,0:0:0:0:
182,220,85954,1,0,0:0:0:0:
35,78,86130,2,0,P|91:45|199:99,1,180,12|2,0:0|0:0,0:0:0:0:
233,289,86660,1,2,0:0:0:0:
282,137,86836,2,0,P|284:186|281:239,1,90,8|2,0:0|0:0,0:0:0:0:
121,348,87189,5,0,0:0:0:0:
121,348,87366,1,2,0:0:0:0:
265,307,87542,2,0,P|314:303|363:307,1,90,8|4,0:0|0:0,0:0:0:0:
153,179,87895,1,2,0:0:0:0:
199,351,88071,1,6,0:0:0:0:
335,234,88248,1,12,0:0:0:0:
341,203,88336,1,0,0:0:0:0:
342,171,88424,1,0,0:0:0:0:
99,131,88601,6,0,P|152:147|236:120,1,135,6|0,0:0|0:0,0:0:0:0:
304,99,88954,2,0,L|396:102,1,90,8|0,0:0|0:0,0:0:0:0:
181,226,89307,2,0,L|89:229,1,90,6|2,0:0|0:0,0:0:0:0:
270,75,89660,1,12,0:0:0:0:
256,259,89836,1,2,0:0:0:0:
189,93,90013,5,12,0:0:0:0:
380,139,90189,1,2,0:0:0:0:
166,171,90366,1,8,0:3:0:0:
134,173,90454,1,0,0:0:0:0:
102,173,90542,2,0,L|93:217,1,45,8|0,0:3|0:0,0:0:0:0:
249,214,90719,2,0,L|259:280,1,45,8|0,0:3|0:0,0:0:0:0:
457,240,90895,1,2,0:0:0:0:
401,337,91071,1,2,0:3:0:0:
359,197,91248,1,0,0:0:0:0:
222,249,91424,6,0,L|216:296,2,45,0|0|0,0:0|0:0|0:0,0:0:0:0:
333,176,91777,2,0,L|329:58,1,90,0|2,0:0|0:0,0:0:0:0:
329,54,92042,1,2,0:0:0:0:
329,22,92130,1,8,0:0:0:0:
126,46,92307,1,8,0:0:0:0:
113,74,92395,1,8,0:0:0:0:
109,105,92483,2,0,L|107:155,1,45,8|0,3:0|0:0,0:0:0:0:
216,94,92660,2,0,L|218:144,1,45,0|0,0:0|0:0,0:0:0:0:
293,211,92836,6,0,P|355:217|408:206,1,90,4|0,0:0|0:0,0:0:0:0:
473,334,93189,1,2,0:0:0:0:
473,334,93366,2,0,P|428:338|383:331,1,90,0|2,0:0|0:0,0:0:0:0:
224,243,93719,2,0,P|179:238|134:245,1,90,0|2,0:0|0:0,0:0:0:0:
26,359,94071,6,0,P|36:302|38:262,2,90,0|2|0,0:0|0:0|0:0,0:0:0:0:
181,318,94601,1,2,0:0:0:0:
339,329,94777,2,0,P|392:337|435:348,1,90,0|2,0:0|0:0,0:0:0:0:
214,328,95130,1,0,0:0:0:0:
356,254,95307,2,0,P|409:246|452:235,1,90,2|0,0:0|0:0,0:0:0:0:
465,214,95571,1,0,0:0:0:0:
482,187,95660,5,2,0:0:0:0:
341,148,95836,1,0,0:0:0:0:
246,262,96013,2,0,P|242:314|242:357,1,90,2|0,0:0|0:0,0:0:0:0:
100,192,96366,2,0,P|104:244|104:287,1,90,2|0,0:0|0:0,0:0:0:0:
249,374,96719,1,2,0:0:0:0:
392,279,96895,5,0,0:0:0:0:
392,279,96983,1,0,0:0:0:0:
392,279,97071,2,0,L|485:277,1,90,2|0,0:0|0:0,0:0:0:0:
285,191,97424,2,0,L|192:189,1,90,2|0,0:0|0:0,0:0:0:0:
96,110,97777,2,0,L|99:156,2,45,2|0|0,0:0|0:0|0:0,0:0:0:0:
146,280,98130,2,0,L|143:326,1,45,2|0,0:0|0:0,0:0:0:0:
225,311,98307,6,0,P|269:322|323:318,1,90,0|2,0:0|0:0,0:0:0:0:
461,262,98660,1,0,0:0:0:0:
279,227,98836,2,0,P|330:240|373:236,1,90,2|0,0:0|0:0,0:0:0:0:
482,134,99189,2,0,P|437:132|394:144,1,90,2|0,0:0|0:0,0:0:0:0:
323,317,99542,1,2,0:0:0:0:
203,312,99719,6,0,L|18:306,1,180,0|0,0:0|0:0,0:0:0:0:
306,237,100248,2,0,P|353:244|400:244,1,90,2|0,0:0|0:0,0:0:0:0:
261,164,100601,1,2,0:0:0:0:
282,310,100777,1,0,0:0:0:0:
432,311,100954,1,2,0:0:0:0:
306,237,101130,1,0,0:0:0:0:
179,289,101307,6,0,P|132:295|79:296,1,90,2|0,0:0|0:0,0:0:0:0:
199,217,101660,1,2,0:0:0:0:
49,205,101836,1,0,0:0:0:0:
220,141,102013,1,2,0:0:0:0:
220,141,102101,1,0,0:0:0:0:
220,141,102189,1,0,0:0:0:0:
179,289,102366,1,2,0:0:0:0:
128,158,102542,6,0,P|126:107|128:67,1,90,0|0,0:0|0:0,0:0:0:0:
315,33,102895,2,0,P|316:77|314:122,1,90,0|2,0:0|0:0,0:0:0:0:
240,295,103248,1,0,0:0:0:0:
227,157,103424,1,2,0:0:0:0:
321,326,103601,1,2,0:0:0:0:
146,234,103777,2,0,P|93:233|50:237,1,90,12|0,0:0|0:0,0:0:0:0:
277,171,104130,5,6,0:0:0:0:
250,341,104307,1,0,0:0:0:0:
181,202,104483,1,8,0:0:0:0:
274,355,104660,2,0,P|266:290|267:249,1,90,0|2,0:0|0:0,0:0:0:0:
171,124,105013,2,0,P|169:168|163:213,1,90,0|8,0:0|0:0,0:0:0:0:
6,339,105366,6,0,P|64:338|105:331,1,90,0|2,0:0|0:0,0:0:0:0:
238,232,105719,1,0,0:0:0:0:
89,209,105895,1,8,0:0:0:0:
212,251,106071,1,0,0:0:0:0:
212,251,106160,1,0,0:0:0:0:
212,251,106248,2,0,L|312:248,1,90,2|0,0:0|0:0,0:0:0:0:
421,189,106601,2,0,P|436:235|437:283,1,90,8|0,0:0|0:0,0:0:0:0:
252,331,106954,6,0,L|147:327,1,90,2|0,0:0|0:0,0:0:0:0:
10,199,107307,2,0,L|115:195,1,90,8|0,0:0|0:0,0:0:0:0:
222,125,107660,1,2,0:0:0:0:
144,260,107836,1,0,0:0:0:0:
144,83,108013,1,8,0:0:0:0:
164,240,108189,2,0,L|165:290,1,45,0|0,0:0|0:0,0:0:0:0:
228,345,108366,6,0,P|281:355|324:344,1,90,2|0,0:0|0:0,0:0:0:0:
469,212,108719,2,0,P|424:204|381:214,1,90,8|0,0:0|0:0,0:0:0:0:
428,315,109071,1,2,0:0:0:0:
420,132,109248,1,0,0:0:0:0:
278,195,109424,2,0,P|272:249|276:304,1,90,8|0,0:0|0:0,0:0:0:0:
65,325,109777,6,0,P|127:337|190:291,1,135,2|0,0:0|0:0,0:0:0:0:
202,221,110130,2,0,L|201:123,1,90,8|0,0:0|0:0,0:0:0:0:
115,261,110483,1,2,0:0:0:0:
292,248,110660,1,0,0:0:0:0:
120,170,110836,1,8,0:0:0:0:
40,342,111013,6,0,P|85:350|134:350,2,90,0|2|0,0:0|0:0|0:0,0:0:0:0:
221,327,111542,2,0,P|265:319|310:318,1,90,8|0,0:0|0:0,0:0:0:0:
436,352,111895,1,2,0:0:0:0:
348,245,112071,2,0,P|303:237|258:236,1,90,0|8,0:0|0:0,0:0:0:0:
90,256,112424,1,0,0:0:0:0:
171,375,112601,6,0,P|179:313|180:267,1,90,2|0,0:0|0:0,0:0:0:0:
71,125,112954,2,0,P|73:169|80:214,1,90,8|0,0:0|0:0,0:0:0:0:
264,277,113307,1,2,0:0:0:0:
70,286,113483,1,2,0:0:0:0:
206,359,113660,1,8,0:0:0:0:
17,223,113836,6,0,P|78:251|186:204,1,180,4|2,0:0|0:0,0:0:0:0:
266,46,114366,2,0,P|270:94|269:144,1,90,8|0,0:0|0:0,0:0:0:0:
260,211,114630,1,0,0:0:0:0:
260,211,114719,2,0,L|261:262,1,45,8|8,0:3|0:3,0:0:0:0:
349,278,114895,2,0,L|348:329,1,45,2|0,0:0|0:0,0:0:0:0:
189,309,115071,1,8,0:0:0:0:
336,200,115248,6,0,P|407:171|505:224,1,180,4|2,0:0|0:0,0:0:0:0:
219,262,115777,2,0,P|172:262|124:254,1,90,8|0,0:0|0:0,0:0:0:0:
64,213,116042,1,0,0:0:0:0:
64,213,116130,1,2,0:0:0:0:
274,181,116307,2,0,P|318:174|363:174,1,90,2|8,0:0|0:0,0:0:0:0:
495,279,116660,6,0,P|455:214|448:139,1,135,2|0,0:0|0:0,0:0:0:0:
490,87,117013,1,2,0:0:0:0:
383,251,117189,1,8,0:0:0:0:
417,63,117366,1,0,0:0:0:0:
417,63,117454,1,0,0:0:0:0:
417,63,117542,2,0,L|419:162,1,90,2|2,0:0|0:0,0:0:0:0:
398,302,117895,1,8,0:0:0:0:
196,247,118071,1,2,0:0:0:0:
341,259,118248,6,0,P|391:254|434:236,1,90,0|2,0:0|0:0,0:0:0:0:
209,204,118601,1,8,0:0:0:0:
94,282,118777,1,8,0:3:0:0:
87,313,118866,1,8,0:3:0:0:
87,344,118954,1,4,0:3:0:0:
3,187,119130,2,0,P|8:129|8:85,1,90,2|8,0:0|0:0,0:0:0:0:
111,260,119483,6,0,P|157:293|269:243,1,180,6|2,0:0|0:0,0:0:0:0:
413,211,120013,1,8,0:0:0:0:
230,184,120189,2,0,L|184:193,2,45,0|0|2,0:0|0:0|0:0,0:0:0:0:
396,135,120542,1,2,0:0:0:0:
364,334,120719,2,0,P|350:282|347:230,1,90,8|0,0:0|0:0,0:0:0:0:
365,63,121071,6,0,L|154:69,1,180,6|8,0:0|0:0,0:0:0:0:
43,164,121601,1,0,0:0:0:0:
162,146,121777,1,2,0:0:0:0:
3,77,121954,1,2,0:0:0:0:
18,252,122130,1,8,0:0:0:0:
214,252,122307,6,0,P|193:201|78:195,1,180,2|2,0:0|0:0,0:0:0:0:
120,347,122836,2,0,P|130:286|131:245,1,90,8|0,0:0|0:0,0:0:0:0:
46,90,123189,1,2,0:0:0:0:
50,267,123366,1,2,0:0:0:0:
0,156,123542,1,8,0:0:0:0:
168,189,123719,6,0,P|221:191|281:189,1,90,6|0,0:0|0:0,0:0:0:0:
348,309,124071,2,0,L|392:318,3,45,2|0|8|0,0:0|0:0|0:0|0:0,0:0:0:0:
278,278,124424,1,0,0:0:0:0:
247,285,124513,1,0,0:0:0:0:
220,301,124601,2,0,L|217:348,1,45,2|0,0:0|0:0,0:0:0:0:
134,347,124777,2,0,L|136:302,1,45,2|0,0:0|0:0,0:0:0:0:
53,287,124954,1,8,0:0:0:0:
210,225,125130,6,0,P|257:259|391:219,1,180,6|2,0:0|0:0,0:0:0:0:
309,49,125660,1,8,0:0:0:0:
293,76,125748,1,0,0:0:0:0:
288,107,125836,2,0,L|286:163,1,45,8|8,0:3|0:3,0:0:0:0:
313,235,126013,2,0,L|311:291,1,45,4|0,0:3|0:0,0:0:0:0:
225,357,126189,1,8,0:3:0:0:
204,180,126366,1,8,0:0:0:0:
292,243,126542,6,0,P|300:310|328:372,1,135,6|0,0:0|0:0,0:0:0:0:
381,306,126895,2,0,L|376:253,1,45,12|0,0:0|0:0,0:0:0:0:
217,274,127071,2,0,P|209:328|212:378,1,90,12|0,0:0|0:0,0:0:0:0:
211,364,127336,1,0,0:0:0:0:
211,364,127424,1,2,0:0:0:0:
381,306,127601,2,0,P|434:310|483:310,1,90,2|8,0:0|0:0,0:0:0:0:
246,206,127954,1,2,0:0:0:0:
383,334,128130,5,0,0:0:0:0:
388,137,128307,1,2,0:0:0:0:
354,341,128483,1,8,0:0:0:0:
441,207,128660,2,0,L|446:253,2,45,0|0|2,0:0|0:0|0:0,0:0:0:0:
231,227,129013,1,2,0:0:0:0:
421,183,129189,2,0,P|367:185|324:184,1,90,8|2,0:0|0:0,0:0:0:0:
126,282,129542,6,0,P|122:326|121:372,2,90,0|2|8,0:0|0:0|0:0,0:0:0:0:
197,167,130071,1,8,0:3:0:0:
198,198,130160,1,8,0:3:0:0:
200,229,130248,1,2,0:0:0:0:
28,277,130424,2,0,P|25:230|25:182,1,90,2|8,0:0|0:0,0:0:0:0:
243,313,130777,6,0,P|256:248|259:164,1,135,6|0,0:0|0:0,0:0:0:0:
224,111,131130,1,2,0:0:0:0:
172,258,131307,1,8,0:0:0:0:
337,213,131483,2,0,P|386:207|436:209,1,90,0|2,0:0|0:0,0:0:0:0:
214,187,131836,2,0,P|169:187|124:181,1,90,2|8,0:0|0:0,0:0:0:0:
288,133,132189,1,0,0:0:0:0:
368,300,132366,6,0,P|326:352|214:322,2,180,6|8|2,0:0|0:0|0:0,0:0:0:0:
268,119,133248,1,2,0:0:0:0:
288,283,133424,2,0,P|293:230|291:190,1,90,8|0,0:0|0:0,0:0:0:0:
145,57,133777,6,0,P|126:115|183:186,1,135,2|0,0:0|0:0,0:0:0:0:
205,242,134130,2,0,P|205:288|201:337,1,90,8|0,0:0|0:0,0:0:0:0:
63,193,134483,1,2,0:0:0:0:
240,170,134660,1,2,0:0:0:0:
176,352,134836,1,8,0:0:0:0:
8,189,135013,6,0,P|60:125|157:170,1,180,6|8,0:0|0:0,0:0:0:0:
261,353,135542,1,8,0:0:0:0:
378,346,135719,1,0,0:0:0:0:
404,329,135807,1,0,0:0:0:0:
420,302,135895,1,8,0:3:0:0:
421,270,135983,1,0,0:0:0:0:
410,240,136071,1,8,0:3:0:0:
383,222,136160,1,0,0:0:0:0:
365,196,136248,1,8,0:3:0:0:
360,164,136336,1,0,0:0:0:0:
365,133,136424,2,0,L|376:83,1,45,0|0,0:0|0:0,0:0:0:0:
454,40,136601,6,0,P|468:81|460:125,1,90,8|2,0:0|0:0,0:0:0:0:
270,147,136954,2,0,L|123:144,1,135.000005149842,4|0,0:0|0:0,0:0:0:0:
12,281,137483,5,2,0:0:0:0:
29,255,137571,1,0,0:0:0:0:
51,233,137660,2,0,P|115:210|175:255,1,135,4|0,0:0|0:0,0:0:0:0:
170,323,138013,6,0,P|236:317|277:319,1,90,4|0,0:1|0:0,0:0:0:0:
291,178,138366,2,0,P|335:183|380:183,1,90,8|0,0:0|0:0,0:0:0:0:
132,62,138719,2,0,P|176:62|221:67,1,90,2|6,0:0|0:0,0:0:0:0:
370,114,139071,1,8,0:0:0:0:
208,183,139248,1,2,0:0:0:0:
379,86,139424,5,0,0:0:0:0:
446,270,139601,2,0,P|450:328|449:359,1,90,2|8,0:0|0:0,0:0:0:0:
246,318,139954,1,4,0:0:0:0:
345,191,140130,1,2,0:0:0:0:
320,360,140307,1,6,0:0:0:0:
172,274,140483,2,0,P|128:275|80:280,1,90,8|0,0:0|0:0,0:0:0:0:
208,183,140836,6,0,P|273:208|348:162,1,135,2|0,0:0|0:0,0:0:0:0:
416,200,141189,2,0,P|421:146|421:99,1,90,8|0,0:0|0:0,0:0:0:0:
263,33,141542,2,0,P|264:77|268:122,1,90,2|2,0:0|0:0,0:0:0:0:
335,321,141895,1,8,0:0:0:0:
342,176,142071,1,2,0:0:0:0:
205,258,142248,6,0,P|250:263|299:258,1,90,0|2,0:0|0:0,0:0:0:0:
481,219,142601,2,0,L|485:81,1,135,12|0,0:0|0:0,0:0:0:0:
453,17,142954,1,6,0:0:0:0:
506,235,143130,1,2,0:0:0:0:
333,147,143307,1,8,0:0:0:0:
512,155,143483,1,0,0:0:0:0:
437,278,143660,6,0,P|402:322|281:295,2,180,2|12|2,0:0|0:0|0:0,0:0:0:0:
332,147,144542,1,2,0:0:0:0:
214,265,144719,2,0,P|210:314|215:355,1,90,8|2,0:0|0:0,0:0:0:0:
46,322,145071,6,0,P|50:277|46:232,1,90,0|2,0:0|0:0,0:0:0:0:
21,109,145424,2,0,P|85:133|161:113,1,135,8|0,0:0|0:0,0:0:0:0:
205,66,145777,1,2,0:0:0:0:
188,240,145954,1,6,0:0:0:0:
22,202,146130,2,0,P|69:207|119:204,1,90,12|0,0:0|0:0,0:0:0:0:
309,177,146483,6,0,P|353:175|398:179,1,90,2|0,0:0|0:0,0:0:0:0:
254,305,146836,2,0,P|212:339|122:299,1,135,8|0,0:0|0:0,0:0:0:0:
79,264,147189,2,0,P|84:209|86:171,1,90,6|2,0:0|0:0,0:0:0:0:
224,90,147542,2,0,P|226:134|230:179,1,90,4|2,0:0|0:0,0:0:0:0:
376,251,147895,5,4,0:0:0:0:
219,266,148071,1,6,0:0:0:0:
426,218,148248,2,0,P|370:223|334:222,1,90,8|4,0:0|0:0,0:0:0:0:
173,184,148601,1,2,0:0:0:0:
309,286,148777,1,6,0:0:0:0:
346,88,148954,1,12,0:0:0:0:
262,206,149130,1,2,0:0:0:0:
386,194,149307,6,0,P|383:149|385:104,1,90,4|0,0:1|0:0,0:0:0:0:
177,82,149660,2,0,P|178:126|176:171,1,90,12|0,0:0|0:0,0:0:0:0:
262,370,150013,2,0,P|259:325|262:281,1,90,2|2,0:0|0:0,0:0:0:0:
162,185,150366,1,8,0:0:0:0:
181,331,150542,1,2,0:0:0:0:
350,294,150719,5,0,0:0:0:0:
137,260,150895,2,0,P|86:261|43:265,1,90,2|12,0:0|0:0,0:0:0:0:
253,169,151248,1,0,0:0:0:0:
307,283,151424,1,6,0:0:0:0:
220,153,151601,1,2,0:0:0:0:
374,136,151777,2,0,P|425:134|472:138,1,90,8|0,0:0|0:0,0:0:0:0:
477,300,152130,6,0,P|437:328|348:293,1,135,2|0,0:0|0:0,0:0:0:0:
277,317,152483,2,0,P|224:315|179:319,1,90,8|0,0:0|0:0,0:0:0:0:
414,253,152836,1,2,0:0:0:0:
254,285,153013,1,2,0:0:0:0:
113,241,153189,2,0,P|106:197|104:148,1,90,8|2,0:0|0:0,0:0:0:0:
337,258,153542,6,0,P|334:302|327:347,1,90,0|2,0:0|0:0,0:0:0:0:
184,160,153895,2,0,P|186:115|193:70,1,90,12|0,0:0|0:0,0:0:0:0:
410,38,154248,1,6,0:0:0:0:
289,73,154424,1,2,0:0:0:0:
472,212,154601,1,12,0:0:0:0:
309,37,154777,1,0,0:0:0:0:
377,229,154954,5,4,0:1:0:0:
213,164,155130,1,0,0:0:0:0:
460,181,155307,2,0,P|434:142|305:169,1,180,12|2,0:0|0:0,0:0:0:0:
470,274,155836,1,2,0:0:0:0:
376,343,156013,2,0,P|378:298|378:253,1,90,8|2,0:0|0:0,0:0:0:0:
233,80,156366,6,0,P|233:124|230:169,1,90,0|2,0:0|0:0,0:0:0:0:
43,230,156719,2,0,P|92:205|172:237,1,135,8|0,0:0|0:0,0:0:0:0:
172,313,157071,1,2,0:0:0:0:
21,224,157248,1,4,0:0:0:0:
172,138,157424,1,8,0:0:0:0:
203,139,157513,1,0,0:0:0:0:
233,145,157601,1,0,0:0:0:0:
315,290,157777,6,0,P|406:293|502:289,1,180,4|8,0:1|0:0,0:0:0:0:
356,209,158307,1,0,0:0:0:0:
225,290,158483,2,0,P|223:360|224:380,1,90,6|2,0:0|0:0,0:0:0:0:
410,270,158836,1,8,0:0:0:0:
247,272,159013,1,2,0:0:0:0:
419,346,159189,6,0,P|427:298|430:250,1,90,4|2,0:1|0:0,0:0:0:0:
379,75,159542,2,0,L|276:75,1,90,12|8,0:0|0:3,0:0:0:0:
219,108,159807,1,8,0:3:0:0:
219,108,159895,1,2,0:0:0:0:
435,140,160071,1,8,0:3:0:0:
301,101,160248,2,0,L|304:151,1,45,8|0,0:3|0:0,0:0:0:0:
186,179,160424,2,0,L|183:229,1,45,4|0,0:3|0:0,0:0:0:0:
103,315,160601,6,0,P|64:238|106:163,1,180,4|0,0:1|0:0,0:0:0:0:
107,163,161130,1,2,0:0:0:0:
276,213,161307,2,0,P|219:217|181:215,2,90,8|0|0,0:0|0:0|0:0,0:0:0:0:
387,179,161836,1,2,0:0:0:0:
338,294,162013,6,0,P|293:295|248:291,1,90,2|8,0:0|0:0,0:0:0:0:
109,211,162366,1,0,0:0:0:0:
109,211,162542,1,2,0:0:0:0:
310,211,162719,2,0,P|374:202|445:169,1,135,8|0,0:0|0:0,0:0:0:0:
510,166,163071,2,0,P|505:116|502:76,1,90,0|2,0:0|0:0,0:0:0:0:
435,253,163424,6,0,P|425:307|474:366,2,135,6|2|2,0:0|0:0|0:0,0:0:0:0:
455,228,164042,1,0,0:0:0:0:
480,210,164130,1,8,0:0:0:0:
355,356,164307,1,0,0:0:0:0:
241,308,164483,1,2,0:0:0:0:
398,223,164660,6,0,P|346:243|220:202,1,180,6|2,0:0|0:0,0:0:0:0:
87,214,165189,2,0,P|85:263|88:316,1,90,2|2,0:0|0:0,0:0:0:0:
199,151,165542,1,8,0:0:0:0:
184,24,165719,1,2,0:0:0:0:
11,86,165895,2,0,P|9:130|11:175,1,90,8|2,0:3|0:0,0:0:0:0:
239,82,166248,6,0,P|314:62|420:111,1,180,6|0,0:0|0:0,0:0:0:0:
422,235,166777,1,2,0:0:0:0:
274,171,166954,1,8,0:0:0:0:
451,208,167130,2,0,P|448:264|450:311,1,90,0|2,0:0|0:0,0:0:0:0:
316,365,167483,2,0,P|316:320|314:275,1,90,2|0,0:0|0:0,0:0:0:0:
114,207,167836,5,8,0:0:0:0:
114,207,167924,1,0,0:0:0:0:
114,207,168013,2,0,L|223:211,1,90,0|2,0:0|0:0,0:0:0:0:
298,165,168366,1,8,0:0:0:0:
65,132,168542,1,2,0:0:0:0:
155,280,168719,1,0,0:0:0:0:
149,183,168895,1,2,0:0:0:0:
109,345,169071,5,6,0:0:0:0:
45,252,169248,2,0,L|0:250,2,45,0|0|0,0:0|0:0|0:0,0:0:0:0:
182,207,169601,1,2,0:0:0:0:
266,317,169777,2,0,P|314:320|362:317,1,90,8|0,0:0|0:0,0:0:0:0:
165,287,170130,2,0,P|136:300|112:324,1,45,2|0,0:0|0:0,0:0:0:0:
265,221,170307,6,0,P|287:156|290:39,1,180,6|2,0:0|0:0,0:0:0:0:
160,244,170836,2,0,P|165:288|179:341,1,90,8|0,0:0|0:0,0:0:0:0:
258,344,171101,1,0,0:0:0:0:
258,344,171189,2,0,L|309:346,3,45,8|0|0|8,0:3|0:0|0:0|0:0,0:0:0:0:
366,297,171542,1,8,0:0:0:0:
397,293,171630,1,8,0:0:0:0:
428,295,171719,1,8,0:3:0:0:
458,302,171807,1,0,0:3:0:0:
485,316,171895,5,6,0:0:0:0:
424,213,172071,2,0,L|373:211,2,45,0|0|8,0:0|0:0|0:0,0:0:0:0:
330,366,172424,1,0,0:0:0:0:
291,232,172601,2,0,P|286:183|286:131,1,90,2|2,0:0|0:0,0:0:0:0:
364,61,172954,1,8,0:0:0:0:
362,270,173130,6,0,P|310:253|174:282,1,180,2|2,0:0|0:0,0:0:0:0:
185,304,173571,1,0,0:0:0:0:
182,335,173660,1,8,0:0:0:0:
100,199,173836,1,0,0:0:0:0:
30,356,174013,2,0,P|37:299|39:265,1,90,2|2,0:0|0:0,0:0:0:0:
17,64,174366,2,0,P|20:108|25:153,1,90,8|0,0:0|0:0,0:0:0:0:
189,176,174719,5,2,0:0:0:0:
220,174,174807,1,0,0:0:0:0:
251,172,174895,1,0,0:0:0:0:
282,170,174983,1,0,0:0:0:0:
313,168,175071,1,8,0:0:0:0:
167,91,175248,1,0,0:0:0:0:
190,261,175424,1,2,0:0:0:0:
335,195,175601,1,2,0:0:0:0:
136,163,175777,1,8,0:0:0:0:
346,157,175954,6,0,P|400:169|493:135,1,135,6|0,0:0|0:0,0:0:0:0:
500,220,176307,1,2,0:0:0:0:
290,98,176483,2,0,P|237:97|188:105,1,90,8|0,0:0|0:0,0:0:0:0:
0,203,176836,2,0,P|53:202|102:210,1,90,2|2,0:0|0:0,0:0:0:0:
268,230,177189,2,0,P|223:235|178:234,1,90,8|0,0:0|0:0,0:0:0:0:
47,124,177542,6,0,P|40:79|37:35,1,90,6|0,0:0|0:0,0:0:0:0:
37,35,177807,1,0,0:0:0:0:
37,35,177895,1,8,0:0:0:0:
154,167,178071,1,0,0:0:0:0:
0,224,178248,2,0,L|3:273,2,45,2|0|2,0:0|0:0|0:0,0:0:0:0:
159,141,178601,1,8,0:0:0:0:
256,198,178777,6,0,P|269:253|257:375,1,180,2|2,0:0|0:0,0:0:0:0:
168,231,179307,1,8,0:0:0:0:
353,254,179483,2,0,P|408:256|449:252,1,90,0|2,0:0|0:0,0:0:0:0:
272,167,179836,1,2,0:0:0:0:
138,251,180013,2,0,P|133:311|133:348,1,90,8|0,0:0|0:0,0:0:0:0:
254,82,180366,5,6,0:0:0:0:
84,109,180542,1,0,0:0:0:0:
84,109,180630,1,0,0:0:0:0:
84,109,180719,2,0,L|190:110,1,90,8|0,0:0|0:0,0:0:0:0:
334,38,181071,1,2,0:0:0:0:
292,221,181248,2,0,P|284:170|282:112,1,90,2|12,0:0|0:0,0:0:0:0:
429,36,181601,1,2,0:0:0:0:
423,242,181777,5,12,0:0:0:0:
358,137,181954,1,0,0:0:0:0:
492,180,182130,1,12,0:0:0:0:
427,324,182307,1,2,0:0:0:0:
402,344,182395,1,0,0:0:0:0:
371,352,182483,1,8,0:0:0:0:
339,349,182571,1,8,0:0:0:0:
310,335,182660,1,2,0:0:0:0:
287,313,182748,1,2,0:0:0:0:
256,306,182836,1,4,0:0:0:0:
224,308,182924,1,8,0:0:0:0:
194,319,183013,2,0,L|182:376,1,45,2|0,0:0|0:0,0:0:0:0:
111,291,183189,6,0,P|109:229|112:182,1,90,12|0,0:0|0:0,0:0:0:0:
191,40,183542,1,8,0:0:0:0:
207,190,183719,1,2,0:0:0:0:
33,116,183895,2,0,P|82:115|132:106,1,90,8|2,0:0|0:0,0:0:0:0:
315,68,184248,1,8,0:0:0:0:
163,47,184424,1,2,0:0:0:0:
102,190,184601,6,0,P|99:247|100:288,1,90,8|0,0:0|0:0,0:0:0:0:
236,177,184954,1,8,0:0:0:0:
89,111,185130,1,2,0:0:0:0:
18,257,185307,1,8,0:0:0:0:
172,224,185483,1,2,0:0:0:0:
38,224,185660,1,8,0:0:0:0:
154,211,185836,1,2,0:0:0:0:
199,324,186013,6,0,P|245:328|288:328,1,90,12|0,0:0|0:0,0:0:0:0:
485,252,186366,2,0,P|439:256|396:256,1,90,8|2,0:0|0:0,0:0:0:0:
194,184,186719,2,0,P|238:183|283:180,1,90,8|2,0:0|0:0,0:0:0:0:
350,104,187071,1,8,0:0:0:0:
322,255,187248,1,2,0:0:0:0:
404,223,187424,6,0,P|459:220|495:220,2,90,8|0|8,0:0|0:0|0:0,0:0:0:0:
259,307,187954,1,2,0:0:0:0:
177,279,188130,2,0,P|168:230|165:189,1,90,12|2,0:0|0:0,0:0:0:0:
300,51,188483,2,0,P|296:95|288:140,1,90,12|2,0:0|0:0,0:0:0:0:
96,242,188836,5,12,0:0:0:0:
114,94,189013,1,0,0:0:0:0:
216,200,189189,1,8,0:0:0:0:
39,182,189366,1,2,0:0:0:0:
202,160,189542,2,0,P|248:164|296:161,1,90,8|2,0:0|0:0,0:0:0:0:
427,80,189895,1,8,0:0:0:0:
281,86,190071,1,2,0:0:0:0:
481,135,190248,6,0,P|486:183|485:231,1,90,8|0,0:0|0:0,0:0:0:0:
279,256,190601,2,0,P|278:211|283:166,1,90,8|6,0:0|0:0,0:0:0:0:
356,48,190954,1,8,0:0:0:0:
408,198,191130,1,2,0:0:0:0:
281,86,191307,1,8,0:0:0:0:
229,236,191483,1,2,0:0:0:0:
369,322,191660,6,0,P|409:273|371:153,2,180,12|8|12,0:0|0:0|0:0,0:0:0:0:
211,258,192542,1,2,0:0:0:0:
99,293,192719,2,0,P|52:298|1:311,1,90,8|2,0:0|0:0,0:0:0:0:
199,183,193071,5,8,0:0:0:0:
199,353,193248,1,0,0:0:0:0:
134,221,193424,1,8,0:0:0:0:
223,382,193601,1,2,0:0:0:0:
175,152,193777,2,0,P|168:90|168:47,1,90,12|2,0:0|0:0,0:0:0:0:
309,213,194130,1,8,0:0:0:0:
308,244,194219,1,0,0:0:0:0:
305,275,194307,1,2,0:0:0:0:
448,171,194483,6,0,P|455:109|455:66,1,90,12|0,0:0|0:0,0:0:0:0:
392,236,194836,1,8,0:0:0:0:
403,355,195013,1,2,0:0:0:0:
301,184,195189,2,0,P|294:137|292:86,1,90,8|2,0:0|0:0,0:0:0:0:
429,258,195542,1,12,0:0:0:0:
224,216,195719,1,2,0:0:0:0:
224,216,195807,1,2,0:0:0:0:
224,216,195895,6,0,P|169:210|125:210,1,90,8|2,0:0|0:0,0:0:0:0:
423,176,196248,2,0,P|467:175|512:169,1,90,8|2,0:0|0:0,0:0:0:0:
276,148,196601,1,12,0:0:0:0:
299,303,196777,1,2,0:0:0:0:
245,173,196954,2,0,P|237:125|235:75,1,90,8|2,0:0|0:0,0:0:0:0:
278,21,197219,1,2,0:0:0:0:
278,21,197307,5,12,0:0:0:0:
335,197,197483,1,0,0:0:0:0:
155,185,197660,1,12,0:0:0:0:
353,127,197836,1,2,0:0:0:0:
353,127,197924,1,2,0:0:0:0:
353,127,198013,2,0,L|356:235,1,90,8|2,0:0|0:0,0:0:0:0:
223,349,198366,1,12,0:0:0:0:
245,213,198542,1,2,0:0:0:0:
245,213,198630,1,2,0:0:0:0:
245,213,198719,5,8,0:0:0:0:
300,354,198895,1,2,0:0:0:0:
154,297,199071,1,8,0:0:0:0:
339,236,199248,1,2,0:0:0:0:
370,234,199336,1,2,0:0:0:0:
401,231,199424,2,0,L|501:232,1,90,12|2,0:0|0:0,0:0:0:0:
476,158,199689,1,2,0:0:0:0:
476,158,199777,2,0,P|471:100|471:58,1,90,12|2,0:0|0:0,0:0:0:0:
379,263,200130,6,0,P|378:307|373:352,1,90,12|0,0:0|0:0,0:0:0:0:
163,254,200483,1,8,0:0:0:0:
301,236,200660,1,2,0:0:0:0:
134,268,200836,2,0,P|81:275|38:273,1,90,8|2,0:0|0:0,0:0:0:0:
1,217,201101,1,2,0:0:0:0:
1,217,201189,1,12,0:0:0:0:
214,211,201366,1,6,0:0:0:0:
222,241,201454,1,0,0:0:0:0:
225,272,201542,6,0,P|223:320|219:362,1,90,8|2,0:0|0:0,0:0:0:0:
134,193,201895,1,8,0:0:0:0:
312,153,202071,1,2,0:0:0:0:
322,336,202248,1,12,0:0:0:0:
197,104,202424,1,6,0:0:0:0:
211,322,202601,1,8,0:0:0:0:
238,176,202777,1,2,0:0:0:0:
95,237,202954,6,0,P|41:243|1:242,1,90,12|0,0:0|0:0,0:0:0:0:
227,115,203307,2,0,P|271:114|316:120,1,90,8|2,0:0|0:0,0:0:0:0:
137,95,203660,1,8,0:0:0:0:
293,265,203836,1,2,0:0:0:0:
381,50,204013,1,8,0:0:0:0:
207,148,204189,6,0,P|161:179|48:121,1,180,6|2,0:0|0:0,0:0:0:0:
98,283,204719,1,2,0:0:0:0:
128,161,204895,1,2,0:0:0:0:
274,304,205071,1,12,0:0:0:0:
262,144,205248,1,2,0:0:0:0:
417,323,205424,1,12,0:0:0:0:
417,119,205601,1,12,0:0:0:0:
165,52,206836,6,0,L|167:155,1,90,4|0,0:3|0:0,0:0:0:0:
132,211,207101,1,0,0:0:0:0:
132,211,207189,6,0,P|134:269|132:315,1,90,4|0,0:1|0:0,0:0:0:0:
281,251,207542,2,0,P|279:206|282:162,1,90,8|0,0:0|0:0,0:0:0:0:
429,226,207895,2,0,P|431:284|429:330,1,90,2|6,0:0|0:0,0:0:0:0:
257,346,208248,1,8,0:0:0:0:
216,210,208424,1,2,0:0:0:0:
297,352,208601,5,0,0:0:0:0:
135,300,208777,2,0,P|89:292|32:289,1,90,2|8,0:0|0:0,0:0:0:0:
239,218,209130,1,4,0:0:0:0:
206,366,209307,1,2,0:0:0:0:
80,214,209483,1,6,0:0:0:0:
269,207,209660,2,0,P|314:213|363:213,1,90,12|0,0:0|0:0,0:0:0:0:
503,116,210013,6,0,P|463:141|378:123,1,135,2|0,0:0|0:0,0:0:0:0:
295,94,210366,2,0,P|250:94|205:100,1,90,12|0,0:0|0:0,0:0:0:0:
130,275,210719,1,2,0:0:0:0:
124,91,210895,1,2,0:0:0:0:
171,320,211071,2,0,P|162:259|160:223,1,90,8|2,0:0|0:0,0:0:0:0:
42,50,211424,5,0,0:0:0:0:
217,64,211601,1,2,0:0:0:0:
19,174,211777,2,0,P|79:133|159:169,1,135,12|0,0:0|0:0,0:0:0:0:
117,222,212130,2,0,P|117:276|120:325,1,90,6|2,0:0|0:0,0:0:0:0:
332,321,212483,1,8,0:0:0:0:
193,297,212660,1,0,0:0:0:0:
352,289,212836,6,0,P|399:313|503:258,2,180,4|12|2,0:1|0:0|0:0,0:0:0:0:
186,224,213719,2,0,P|133:230|88:230,1,90,2|8,0:0|0:0,0:0:0:0:
312,126,214071,6,0,P|356:126|489:104,1,180,2|2,0:0|0:0,0:0:0:0:
360,244,214601,2,0,P|315:246|261:246,1,90,8|4,0:0|0:0,0:0:0:0:
139,353,214954,1,2,0:0:0:0:
131,211,215130,1,6,0:0:0:0:
251,330,215307,1,12,0:0:0:0:
281,336,215395,1,0,0:0:0:0:
312,338,215483,1,0,0:0:0:0:
185,243,215660,6,0,P|132:251|38:244,1,135,4|0,0:1|0:0,0:0:0:0:
14,180,216013,2,0,L|12:89,1,90,8|0,0:0|0:0,0:0:0:0:
193,30,216366,2,0,L|191:119,1,90,6|2,0:0|0:0,0:0:0:0:
379,212,216719,1,8,0:0:0:0:
367,99,216895,1,2,0:0:0:0:
314,266,217071,6,0,P|313:318|316:362,1,90,4|6,0:0|0:0,0:0:0:0:
186,298,217424,1,8,0:0:0:0:
41,262,217601,1,4,0:0:0:0:
239,238,217777,1,2,0:0:0:0:
79,237,217954,1,4,0:0:0:0:
232,359,218130,1,12,0:0:0:0:
234,164,218307,1,2,0:0:0:0:
38,182,218483,6,0,P|94:187|137:186,1,90,4|0,0:1|0:0,0:0:0:0:
412,113,218836,2,0,P|356:108|313:109,1,90,12|0,0:0|0:0,0:0:0:0:
111,261,219189,2,0,P|155:261|200:256,1,90,2|2,0:0|0:0,0:0:0:0:
382,178,219542,1,8,0:0:0:0:
225,181,219719,1,2,0:0:0:0:
368,202,219895,5,0,0:0:0:0:
272,50,220071,2,0,P|213:45|180:50,1,90,2|12,0:0|0:0,0:0:0:0:
133,240,220424,1,0,0:0:0:0:
127,105,220601,1,6,0:0:0:0:
172,266,220777,1,2,0:0:0:0:
0,173,220954,2,0,P|52:176|94:173,1,90,8|0,0:0|0:0,0:0:0:0:
244,118,221307,6,0,P|302:95|386:130,1,135,2|0,0:0|0:0,0:0:0:0:
430,188,221660,2,0,P|430:237|433:288,1,90,8|0,0:0|0:0,0:0:0:0:
483,107,222013,2,0,P|485:62|485:17,1,90,2|2,0:0|0:0,0:0:0:0:
234,40,222366,1,8,0:0:0:0:
229,196,222542,1,2,0:0:0:0:
312,62,222719,6,0,P|312:117|317:159,1,90,0|2,0:0|0:0,0:0:0:0:
381,344,223071,1,12,0:0:0:0:
376,221,223248,1,0,0:0:0:0:
293,350,223424,1,6,0:0:0:0:
355,179,223601,1,2,0:0:0:0:
418,344,223777,2,0,P|362:330|267:341,1,135,8|0,0:0|0:0,0:0:0:0:
188,358,224130,5,4,0:1:0:0:
438,268,224307,1,0,0:0:0:0:
235,268,224483,2,0,B|145:295|145:253|45:277,1,180,12|2,0:0|0:0,0:0:0:0:
279,182,225013,2,0,P|326:187|383:182,1,90,2|8,0:0|0:0,0:0:0:0:
194,137,225366,6,0,P|148:116|52:133,1,135,2|0,0:0|0:0,0:0:0:0:
3,179,225719,1,2,0:0:0:0:
60,332,225895,2,0,P|61:287|59:242,1,90,8|4,0:0|0:0,0:0:0:0:
16,62,226248,1,2,0:0:0:0:
152,20,226424,1,6,0:0:0:0:
265,136,226601,1,12,0:0:0:0:
233,135,226689,1,0,0:0:0:0:
201,129,226777,1,0,0:0:0:0:
357,87,226954,6,0,P|417:78|488:177,1,180,4|8,0:1|0:0,0:0:0:0:
412,299,227483,1,0,0:0:0:0:
403,160,227660,1,6,0:0:0:0:
453,315,227836,1,2,0:0:0:0:
313,241,228013,2,0,P|260:245|217:243,1,90,12|2,0:0|0:0,0:0:0:0:
63,73,228366,6,0,P|60:120|61:168,1,90,12|2,0:0|0:0,0:0:0:0:
139,361,228719,2,0,P|142:314|141:266,1,90,12|0,0:0|0:0,0:0:0:0:
132,240,228983,1,8,0:0:0:0:
123,209,229071,1,6,0:0:0:0:
60,342,229248,1,8,0:0:0:0:
232,280,229424,1,8,0:0:0:0:
263,276,229513,1,0,0:0:0:0:
294,278,229601,1,4,0:3:0:0:
324,284,229689,1,0,0:0:0:0:
351,298,229777,6,0,P|414:311|450:311,1,90,12|0,0:0|0:0,0:0:0:0:
259,194,230130,2,0,P|185:197|61:233,1,180,8|2,0:0|0:0,0:0:0:0:
232,280,230660,1,2,0:0:0:0:
223,107,230836,1,8,0:0:0:0:
331,244,231013,6,0,P|381:270|492:218,1,180,2|2,0:0|0:0,0:0:0:0:
498,113,231542,1,8,0:0:0:0:
341,64,231719,2,0,P|283:67|236:75,1,90,4|2,0:0|0:0,0:0:0:0:
130,191,232071,2,0,P|174:197|219:198,1,90,4|8,0:0|0:0,0:0:0:0:
380,140,232424,6,0,P|382:193|378:244,2,90,4|2|0,0:0|0:0|0:0,0:0:0:0:
263,90,232954,2,0,P|214:93|168:91,1,90,8|0,0:0|0:0,0:0:0:0:
28,67,233307,1,2,0:0:0:0:
78,220,233483,1,2,0:0:0:0:
94,113,233660,1,8,0:0:0:0:
29,269,233836,6,0,P|97:244|176:261,1,135,2|0,0:0|0:0,0:0:0:0:
203,306,234189,1,2,0:0:0:0:
41,362,234366,1,12,0:0:0:0:
79,197,234542,1,0,0:0:0:0:
159,367,234719,2,0,P|156:323|156:278,1,90,6|2,0:0|0:0,0:0:0:0:
338,236,235071,1,12,0:0:0:0:
323,348,235248,1,0,0:0:0:0:
227,217,235424,6,0,P|181:189|73:240,2,180,4|12|2,0:1|0:0|0:0,0:0:0:0:
382,300,236307,2,0,P|431:306|481:303,1,90,2|8,0:0|0:0,0:0:0:0:
301,333,236660,6,0,L|119:338,1,180,2|2,0:0|0:0,0:0:0:0:
28,360,237189,1,8,0:0:0:0:
168,259,237366,2,0,P|178:202|179:165,1,90,4|2,0:0|0:0,0:0:0:0:
119,77,237719,1,6,0:0:0:0:
91,230,237895,1,8,0:0:0:0:
91,230,237983,1,0,0:0:0:0:
91,230,238071,1,0,0:0:0:0:
268,175,238248,5,2,0:0:0:0:
130,159,238424,1,0,0:0:0:0:
291,161,238601,2,0,P|339:162|383:169,1,90,8|0,0:0|0:0,0:0:0:0:
299,357,238954,1,2,0:0:0:0:
284,247,239130,1,2,0:0:0:0:
446,216,239307,1,8,0:0:0:0:
431,326,239483,1,2,0:0:0:0:
244,219,239660,5,4,0:0:0:0:
428,231,239836,2,0,P|372:237|330:232,1,90,6|8,0:0|0:0,0:0:0:0:
171,158,240189,2,0,P|164:204|163:255,1,90,4|8,0:0|0:0,0:0:0:0:
218,365,240542,1,2,0:0:0:0:
246,144,240719,2,0,P|244:99|237:54,1,90,12|2,0:0|0:0,0:0:0:0:
0,120,241071,6,0,P|49:137|131:90,1,135,4|0,0:1|0:0,0:0:0:0:
177,173,241424,2,0,P|227:170|276:174,1,90,12|0,0:0|0:0,0:0:0:0:
358,243,241777,1,2,0:0:0:0:
195,341,241954,2,0,P|250:333|301:333,1,90,2|8,0:0|0:0,0:0:0:0:
450,320,242307,6,0,P|487:272|437:152,1,180,2|2,0:0|0:0,0:0:0:0:
259,130,242836,2,0,P|309:128|356:124,1,90,12|0,0:0|0:0,0:0:0:0:
188,219,243189,1,6,0:0:0:0:
312,300,243366,1,2,0:0:0:0:
363,92,243542,1,8,0:0:0:0:
177,143,243719,6,0,P|126:143|68:127,2,90,4|2|0,0:0|0:0|0:0,0:0:0:0:
348,178,244248,2,0,P|402:188|443:203,1,90,8|0,0:0|0:0,0:0:0:0:
199,225,244601,1,2,0:0:0:0:
295,105,244777,2,0,P|339:96|384:94,1,90,2|8,0:0|0:0,0:0:0:0:
213,203,245130,6,0,P|146:200|33:127,1,180,2|2,0:0|0:0,0:0:0:0:
291,196,245660,1,12,0:0:0:0:
314,342,245836,1,0,0:0:0:0:
359,154,246013,1,6,0:0:0:0:
341,260,246189,1,2,0:0:0:0:
186,226,246366,2,0,P|118:223|51:226,1,135,12|0,0:0|0:0,0:0:0:0:
51,226,246719,6,0,P|53:275|54:319,1,90,4|0,0:1|0:0,0:0:0:0:
268,291,247071,2,0,B|359:295|468:288,1,180,12|2,0:0|0:0,0:0:0:0:
219,209,247601,2,0,P|168:208|119:206,1,90,2|8,0:0|0:0,0:0:0:0:
0,325,247954,6,0,P|59:347|147:276,1,180,2|2,0:0|0:0,0:0:0:0:
74,113,248483,1,8,0:0:0:0:
61,264,248660,1,4,0:0:0:0:
58,129,248836,1,2,0:0:0:0:
193,119,249013,1,6,0:0:0:0:
301,199,249189,1,8,0:0:0:0:
332,196,249277,1,0,0:0:0:0:
362,188,249366,1,0,0:0:0:0:
203,171,249542,6,0,P|154:161|14:190,2,180,4|8|2,0:1|0:0|0:0,0:0:0:0:
279,286,250424,1,2,0:0:0:0:
247,96,250601,2,0,P|239:40|237:4,1,90,8|2,0:0|0:0,0:0:0:0:
388,140,250954,5,8,0:0:0:0:
204,125,251130,1,2,0:0:0:0:
410,158,251307,2,0,L|500:157,1,90,8|0,0:0|0:0,0:0:0:0:
500,157,251571,1,8,0:3:0:0:
500,157,251660,1,8,0:3:0:0:
363,370,251836,1,0,0:3:0:0:
306,166,252013,1,2,0:0:0:0:
464,234,252189,1,2,0:0:0:0:
