osu file format v14

[General]
AudioFilename: audio.mp3
AudioLeadIn: 0
PreviewTime: 68830
Countdown: 0
SampleSet: Soft
StackLeniency: 0.7
Mode: 0
LetterboxInBreaks: 0
WidescreenStoryboard: 0

[Editor]
Bookmarks: 23124,160595,171889,229771,252360
DistanceSpacing: 1.4
BeatDivisor: 4
GridSize: 8
TimelineZoom: 2.5

[Metadata]
Title:Kuusou Forest
TitleUnicode:空想フォレスト
Artist:Jin ft. Takumi Yoshida (phatmans after school)
ArtistUnicode:じん ft. ヨシダタクミ(phatmans after school)
Creator:Trust
Version:Luxo's Hard
Source:メカクシティアクターズ
Tags:mekakucity actors kagerou project imagination forest marry kozakura captin1 luxodeh
BeatmapID:945033
BeatmapSetID:424179

[Difficulty]
HPDrainRate:5
CircleSize:4
OverallDifficulty:6
ApproachRate:8
SliderMultiplier:1.4
SliderTickRate:1

[Events]
//Background and Video events
0,0,"souzou-forest.jpg",0,0
//Break Periods
2,93036,102851
2,160801,171145
//Storyboard Layer 0 (Background)
//Storyboard Layer 1 (Fail)
//Storyboard Layer 2 (Pass)
//Storyboard Layer 3 (Foreground)
//Storyboard Sound Samples

[TimingPoints]
1072,352.941176470588,4,2,1,60,1,0
51895,-100,4,2,1,70,0,0
57366,-95.2380952380952,4,2,1,75,0,0
67424,-95.2380952380952,4,2,1,45,0,0
67777,-133.333333333333,4,2,1,75,0,0
68836,-90.9090909090909,4,2,1,80,0,1
92836,-100,4,2,1,65,0,0
126542,-95.2380952380952,4,2,1,75,0,0
136601,-95.2380952380952,4,2,1,45,0,0
136954,-133.333333333333,4,2,1,75,0,0
138013,-90.9090909090909,4,2,1,80,0,1
160601,-95.2380952380952,4,2,1,70,0,0
183189,-92.5925925925926,4,2,1,80,0,0
194483,-92.5925925925926,4,2,1,82,0,0
206836,-133.333333333333,4,3,1,82,0,0
207101,-92.5925925925926,4,2,1,5,0,0
207189,-89.2857142857143,4,2,1,85,0,1
229777,-92.5925925925926,4,2,1,70,0,0

[Colours]
Combo1 : 128,128,255
Combo2 : 255,128,255
Combo3 : 0,128,255
Combo4 : 255,128,128

[HitObjects]
116,69,23130,5,2,0:0:0:0:
116,69,23307,2,0,L|106:146,1,70,8|0,0:0|0:0,0:0:0:0:
39,245,23660,6,0,P|69:284|171:298,1,140,4|2,0:0|0:0,0:0:0:0:
241,258,24189,1,0,0:0:0:0:
241,258,24366,2,0,P|289:251|328:264,2,70,2|0|2,0:0|0:0|0:0,0:0:0:0:
154,303,24895,1,0,0:0:0:0:
139,206,25071,2,0,P|140:160|153:127,1,70,2|0,0:0|0:0,0:0:0:0:
213,65,25424,2,0,P|257:55|295:59,1,70,2|0,0:0|0:0,0:0:0:0:
364,109,25777,2,0,L|381:176,2,70,2|0|2,0:0|0:0|0:0,0:0:0:0:
281,56,26307,1,0,0:0:0:0:
364,109,26483,6,0,P|418:111|473:42,1,140,2|2,0:0|0:0,0:0:0:0:
381,10,27013,1,0,0:0:0:0:
364,109,27189,2,0,P|355:167|361:197,1,70,2|0,0:0|0:0,0:0:0:0:
431,240,27542,2,0,P|437:281|437:328,1,70,2|0,0:0|0:0,0:0:0:0:
354,362,27895,2,0,P|304:365|262:354,2,70,2|0|2,0:0|0:0|0:0,0:0:0:0:
437,309,28424,1,0,0:0:0:0:
469,216,28601,2,0,L|474:140,1,70,2|0,0:0|0:0,0:0:0:0:
475,103,28866,1,0,0:0:0:0:
475,103,28954,2,0,P|432:108|392:98,1,70,2|0,0:0|0:0,0:0:0:0:
296,40,29307,6,0,P|237:49|197:132,1,140,2|2,0:0|0:0,0:0:0:0:
211,210,29836,1,0,0:0:0:0:
166,297,30013,2,0,P|125:324|89:327,2,70,2|0|2,0:0|0:0|0:0,0:0:0:0:
211,210,30542,1,0,0:0:0:0:
211,210,30630,1,0,0:0:0:0:
211,210,30719,2,0,P|224:166|249:138,1,70,2|0,0:0|0:0,0:0:0:0:
336,151,31071,2,0,P|355:179|363:213,1,70,2|0,0:0|0:0,0:0:0:0:
319,301,31424,2,0,L|308:380,2,70,2|0|2,0:0|0:0|0:0,0:0:0:0:
402,205,31954,1,0,0:0:0:0:
402,205,32130,6,0,P|431:158|426:73,1,140,2|2,0:0|0:0,0:0:0:0:
350,13,32660,1,0,0:0:0:0:
262,56,32836,2,0,P|214:67|183:66,2,70,2|0|2,0:0|0:0|0:0,0:0:0:0:
350,13,33366,2,0,P|398:24|429:23,1,70,0|2,0:0|0:0,0:0:0:0:
486,113,33719,2,0,P|438:124|407:123,1,70,0|2,0:0|0:0,0:0:0:0:
341,206,34071,2,0,P|389:217|420:216,1,70,0|2,0:0|0:0,0:0:0:0:
481,303,34424,1,0,0:0:0:0:
389,337,34601,2,0,B|371:336|354:344|354:344|335:336|308:334,1,70,8|0,0:0|0:0,0:0:0:0:
206,281,34954,6,0,P|167:238|189:152,1,140,4|8,0:0|0:0,0:0:0:0:
251,95,35483,1,0,0:0:0:0:
348,108,35660,2,0,L|433:120,2,70,0|0|8,0:0|0:0|0:0,0:0:0:0:
251,95,36189,1,0,0:0:0:0:
161,54,36366,2,0,L|76:66,1,70
94,162,36719,2,0,L|14:198,1,70,8|0,0:0|0:0,0:0:0:0:
61,283,37071,2,0,P|43:323|39:362,2,70,0|0|8,0:0|0:0|0:0,0:0:0:0:
167,212,37601,1,0,0:0:0:0:
167,212,37689,1,0,0:0:0:0:
167,212,37777,6,0,P|222:231|306:207,1,140,0|8,0:0|0:0,0:0:0:0:
367,140,38307,1,0,0:0:0:0:
441,77,38483,2,0,P|462:111|461:155,1,70
367,140,38836,1,8,0:0:0:0:
359,42,39013,2,0,P|394:4|428:-9,1,70
507,10,39366,1,0,0:0:0:0:
501,107,39542,2,0,L|496:190,1,70,8|0,0:0|0:0,0:0:0:0:
424,243,39895,2,0,L|429:323,1,70
498,381,40248,1,8,0:0:0:0:
498,381,40424,1,0,0:0:0:0:
401,299,40601,6,0,P|352:288|253:306,1,140,0|8,0:0|0:0,0:0:0:0:
179,351,41130,1,0,0:0:0:0:
193,253,41307,2,0,L|208:153,2,70,0|0|8,0:0|0:0|0:0,0:0:0:0:
179,351,41836,1,0,0:0:0:0:
179,351,41924,1,0,0:0:0:0:
179,351,42013,2,0,P|135:365|32:340,1,140,0|8,0:0|0:0,0:0:0:0:
14,254,42542,1,0,0:0:0:0:
35,158,42719,2,0,P|55:114|85:86,1,70
163,124,43071,2,0,P|208:129|247:112,1,70,8|0,0:0|0:0,0:0:0:0:
336,52,43424,6,0,P|369:95|376:196,1,140,0|8,0:0|0:0,0:0:0:0:
340,268,43954,1,0,0:0:0:0:
433,241,44130,2,0,L|509:218,1,70,0|2,0:0|0:0,0:0:0:0:
380,178,44483,2,0,L|304:155,1,70,8|2,0:0|0:0,0:0:0:0:
431,113,44836,1,0,0:0:0:0:
337,81,45013,2,0,L|261:58,1,70,2|8,0:0|0:0,0:0:0:0:
228,180,45366,1,0,0:0:0:0:
244,276,45542,2,0,P|276:316|312:336,2,70,2|2|8,0:0|0:0|0:0,0:0:0:0:
143,199,46071,6,0,B|106:201|76:214|76:214|42:200|7:200,1,140,4|0,0:0|0:0,0:0:0:0:
43,321,46601,2,0,P|79:328|124:316,1,70,8|0,0:0|0:0,0:0:0:0:
202,285,46954,2,0,P|252:275|295:287,1,70
361,314,47307,1,8,0:0:0:0:
453,228,47483,2,0,P|476:194|393:142,1,140
352,205,48013,1,8,0:0:0:0:
361,314,48189,1,0,0:0:0:0:
361,314,48277,1,0,0:0:0:0:
361,314,48366,2,0,P|412:346|449:346,1,70
434,249,48719,2,0,P|383:217|346:217,1,70,8|0,0:0|0:0,0:0:0:0:
267,281,49071,6,0,P|238:308|153:272,1,140,0|8,0:0|0:0,0:0:0:0:
137,178,49601,1,0,0:0:0:0:
137,178,49689,1,0,0:0:0:0:
137,178,49777,2,0,B|144:127|144:127|137:89,2,70,0|0|8,0:0|0:0|0:0,0:0:0:0:
55,275,50307,2,0,P|68:336|134:393,1,140
217,362,50836,2,0,P|263:357|306:370,1,70,8|0,0:0|0:0,0:0:0:0:
382,379,51189,2,0,P|404:339|412:293,1,70
380,221,51542,1,8,0:0:0:0:
380,221,51719,1,0,0:0:0:0:
444,113,51895,6,0,P|441:59|349:24,1,140,4|8,0:0|0:0,0:0:0:0:
293,77,52424,1,0,0:0:0:0:
198,103,52601,2,0,P|153:105|110:98,2,70,0|0|8,0:0|0:0|0:0,0:0:0:0:
293,77,53130,2,0,P|316:133|320:222,1,140
269,295,53660,2,0,L|184:314,1,70,8|0,0:0|0:0,0:0:0:0:
120,252,54013,2,0,L|35:243,2,70,0|0|8,0:0|0:0|0:0,0:0:0:0:
224,180,54542,6,0,P|229:139|144:65,1,140,4|0,0:0|0:0,0:0:0:0:
70,73,55071,2,0,P|33:99|14:141,2,70,8|0|0,0:0|0:0|0:0,0:0:0:0:
168,68,55601,2,0,L|248:73,1,70,0|8,0:0|0:0,0:0:0:0:
342,142,55954,2,0,L|490:132,1,140,4|8,0:0|0:0,0:0:0:0:
511,38,56483,1,8,0:0:0:0:
511,38,56571,1,0,0:0:0:0:
511,38,56660,1,0,0:0:0:0:
413,44,56836,2,0,L|331:50,1,70,8|0,0:0|0:0,0:0:0:0:
245,58,57189,1,8,0:0:0:0:
137,135,57366,6,0,P|143:184|235:167,1,146.999995513916,4|0,0:0|0:0,0:0:0:0:
308,124,57895,1,8,0:0:0:0:
308,124,58071,1,0,0:0:0:0:
402,165,58248,2,0,P|437:204|453:237,1,73.4999977569581
408,317,58601,2,0,P|373:278|357:245,1,73.4999977569581,8|0,0:0|0:0,0:0:0:0:
402,164,58954,2,0,P|409:113|400:67,1,73.4999977569581
336,15,59307,1,8,0:0:0:0:
336,15,59483,1,0,0:0:0:0:
260,85,59660,2,0,P|213:95|178:93,1,73.4999977569581
110,26,60013,2,0,P|157:16|192:18,1,73.4999977569581,8|0,0:0|0:0,0:0:0:0:
260,85,60366,6,0,P|281:142|290:249,1,146.999995513916,0|8,0:0|0:0,0:0:0:0:
262,326,60895,1,0,0:0:0:0:
262,326,60983,1,0,0:0:0:0:
262,326,61071,1,0,0:0:0:0:
164,292,61248,1,0,0:0:0:0:
212,201,61424,1,8,0:0:0:0:
327,266,61601,2,0,B|351:309|340:354|340:354|366:343|399:345,1,146.999995513916,4|0,0:0|0:0,0:0:0:0:
496,359,62130,1,8,0:0:0:0:
496,359,62307,1,0,0:0:0:0:
453,265,62483,2,0,P|435:215|427:172,1,73.4999977569581
480,104,62836,2,0,P|498:154|506:197,1,73.4999977569581,8|0,0:0|0:0,0:0:0:0:
437,289,63189,6,0,B|405:301|366:290|366:290|330:301|280:289,1,146.999995513916,4|8,0:0|0:0,0:0:0:0:
208,230,63719,1,0,0:0:0:0:
152,143,63895,2,0,P|145:101|161:63,1,73.4999977569581
257,70,64248,2,0,P|264:112|248:150,1,73.4999977569581,8|0,0:0|0:0,0:0:0:0:
208,230,64601,2,0,P|201:273|212:307,1,73.4999977569581
312,304,64954,2,0,P|319:261|308:227,1,73.4999977569581,8|0,0:0|0:0,0:0:0:0:
254,140,65307,1,0,0:0:0:0:
254,140,65483,1,0,0:0:0:0:
379,182,65660,1,8,0:0:0:0:
345,54,65836,6,0,P|380:16|469:59,1,146.999995513916,4|0,0:0|0:0,0:0:0:0:
256,192,66366,12,8,67424,0:0:0:0:
256,111,67777,6,0,B|263:147|263:147|248:175|248:175|254:217,1,105.000004005432,12|0,0:0|0:0,0:0:0:0:
266,284,68307,1,0,0:0:0:0:
266,284,68395,1,0,0:0:0:0:
266,284,68483,1,8,0:0:0:0:
70,111,68836,6,0,P|98:72|134:49,1,77.0000023498536,4|0,0:0|0:0,0:0:0:0:
225,81,69189,2,0,P|276:85|322:77,1,77.0000023498536,8|0,0:0|0:0,0:0:0:0:
402,43,69542,2,0,P|445:66|480:190,1,154.000004699707,0|8,0:0|0:0,0:0:0:0:
443,258,70071,1,0,0:0:0:0:
443,258,70248,2,0,L|359:272,1,77.0000023498536
283,201,70601,1,8,0:0:0:0:
367,270,70777,2,0,P|357:331|264:355,1,154.000004699707
184,303,71307,2,0,P|143:292|90:294,1,77.0000023498536,8|0,0:0|0:0,0:0:0:0:
9,335,71660,5,0,0:0:0:0:
9,335,71836,1,0,0:0:0:0:
23,227,72013,2,0,L|39:137,1,77.0000023498536,8|0,0:0|0:0,0:0:0:0:
116,78,72366,2,0,B|153:70|153:70|199:79,1,77.0000023498536
270,151,72719,1,8,0:0:0:0:
270,151,72895,1,0,0:0:0:0:
284,259,73071,2,0,L|300:349,1,77.0000023498536
403,355,73424,2,0,L|385:262,1,77.0000023498536,8|0,0:0|0:0,0:0:0:0:
357,175,73777,2,0,P|406:173|450:192,1,77.0000023498536
388,279,74130,2,0,P|339:281|295:262,1,77.0000023498536,8|0,0:0|0:0,0:0:0:0:
229,161,74483,6,0,P|254:94|333:48,1,154.000004699707,4|8,0:0|0:0,0:0:0:0:
429,52,75013,1,0,0:0:0:0:
489,141,75189,2,0,P|489:190|473:241,1,77.0000023498536
422,306,75542,2,0,P|385:328|333:338,1,77.0000023498536,8|0,0:0|0:0,0:0:0:0:
244,334,75895,1,0,0:0:0:0:
244,334,76071,1,0,0:0:0:0:
313,251,76248,2,0,P|326:197|322:156,1,77.0000023498536,8|0,0:0|0:0,0:0:0:0:
288,74,76601,2,0,P|250:38|202:24,1,77.0000023498536
119,25,76954,1,8,0:0:0:0:
119,25,77130,1,0,0:0:0:0:
164,122,77307,6,0,P|180:175|178:222,1,77.0000023498536
127,290,77660,2,0,L|42:320,1,77.0000023498536,8|0,0:0|0:0,0:0:0:0:
27,210,78013,2,0,L|99:184,1,77.0000023498536
196,232,78366,2,0,L|281:262,1,77.0000023498536,8|0,0:0|0:0,0:0:0:0:
352,326,78719,1,0,0:0:0:0:
352,326,78895,1,0,0:0:0:0:
456,235,79071,2,0,P|469:170|462:136,1,77.0000023498536,8|0,0:0|0:0,0:0:0:0:
357,75,79424,2,0,P|344:140|351:174,1,77.0000023498536
372,254,79777,1,8,0:0:0:0:
372,254,79954,1,0,0:0:0:0:
470,351,80130,6,0,P|503:322|517:280,1,77.0000023498536,4|0,0:0|0:0,0:0:0:0:
372,254,80483,2,0,P|319:249|287:256,1,77.0000023498536,8|0,0:0|0:0,0:0:0:0:
202,308,80836,1,0,0:0:0:0:
202,308,81013,1,0,0:0:0:0:
100,271,81189,2,0,P|58:240|45:210,1,77.0000023498536,8|0,0:0|0:0,0:0:0:0:
49,110,81542,1,0,0:0:0:0:
131,40,81719,2,0,P|173:36|212:52,1,77.0000023498536,0|8,0:0|0:0,0:0:0:0:
288,115,82071,1,0,0:0:0:0:
375,178,82248,2,0,P|427:180|466:174,1,77.0000023498536
448,68,82601,2,0,P|396:66|357:72,1,77.0000023498536,8|0,0:0|0:0,0:0:0:0:
297,148,82954,6,0,B|283:196|283:196|283:242,1,77.0000023498536
351,306,83307,2,0,B|365:258|365:258|365:212,1,77.0000023498536,8|0,0:0|0:0,0:0:0:0:
297,148,83660,2,0,L|220:152,1,77.0000023498536
165,245,84013,2,0,L|241:240,1,77.0000023498536,8|0,0:0|0:0,0:0:0:0:
331,300,84366,1,0,0:0:0:0:
331,300,84542,1,0,0:0:0:0:
422,242,84719,2,0,P|454:188|456:146,1,77.0000023498536,8|0,0:0|0:0,0:0:0:0:
449,67,85071,2,0,P|394:32|359:32,1,77.0000023498536
286,77,85424,2,0,P|244:81|195:74,1,77.0000023498536,8|0,0:0|0:0,0:0:0:0:
108,39,85777,5,4,0:0:0:0:
108,39,85954,1,0,0:0:0:0:
43,161,86130,2,0,P|38:214|104:290,1,154.000004699707,12|0,0:0|0:0,0:0:0:0:
206,301,86660,1,0,0:0:0:0:
311,282,86836,2,0,P|359:277|407:289,1,77.0000023498536,8|0,0:0|0:0,0:0:0:0:
486,323,87189,1,0,0:0:0:0:
486,323,87366,1,0,0:0:0:0:
452,220,87542,2,0,L|414:127,1,77.0000023498536,8|0,0:0|0:0,0:0:0:0:
352,66,87895,2,0,L|326:162,1,77.0000023498536
306,245,88248,1,8,0:0:0:0:
306,245,88424,1,0,0:0:0:0:
209,344,88601,6,0,B|171:349|139:318|139:318|92:312|68:258,1,154.000004699707,4|8,0:0|0:0,0:0:0:0:
64,169,89130,1,0,0:0:0:0:
121,77,89307,2,0,P|168:59|208:55,1,77.0000023498536
287,109,89660,2,0,P|333:121|379:113,1,77.0000023498536,8|0,0:0|0:0,0:0:0:0:
450,56,90013,1,0,0:0:0:0:
450,56,90189,1,0,0:0:0:0:
438,163,90366,1,8,0:0:0:0:
374,40,90542,1,0,0:0:0:0:
374,40,90630,1,0,0:0:0:0:
374,40,90719,2,0,P|328:28|282:36,1,77.0000023498536
195,122,91071,2,0,L|180:219,1,77.0000023498536,8|0,0:0|0:0,0:0:0:0:
165,304,91424,5,0,0:0:0:0:
165,304,91513,1,0,0:0:0:0:
165,304,91601,1,0,0:0:0:0:
260,254,91777,1,2,0:0:0:0:
356,303,91954,2,0,L|369:344,2,38.5000011749268,2|2|8,0:0|0:0|0:0,0:0:0:0:
341,195,92307,2,0,L|372:112,2,77.0000023498536,8|2|2,0:0|0:0|0:0,0:0:0:0:
260,292,92836,5,4,0:0:0:0:
255,336,103601,5,0,0:0:0:0:
255,336,103777,1,8,0:0:0:0:
348,367,103954,1,0,0:0:0:0:
329,272,104130,6,0,L|338:190,1,70,4|0,0:0|0:0,0:0:0:0:
344,104,104483,1,8,0:0:0:0:
408,29,104660,2,0,P|440:79|414:174,1,140
344,104,105189,1,8,0:0:0:0:
251,70,105366,2,0,P|203:64|165:70,1,70
130,150,105719,2,0,P|178:156|216:150,1,70,0|8,0:0|0:0,0:0:0:0:
251,70,106071,1,0,0:0:0:0:
337,117,106248,2,0,B|357:147|357:147|375:196,1,70
321,265,106601,2,0,B|301:235|301:235|283:186,1,70,8|0,0:0|0:0,0:0:0:0:
337,117,106954,6,0,L|418:122,1,70
504,129,107307,1,8,0:0:0:0:
504,129,107483,1,0,0:0:0:0:
453,213,107660,2,0,L|410:279,1,70
347,343,108013,1,8,0:0:0:0:
254,311,108189,1,0,0:0:0:0:
254,311,108277,1,0,0:0:0:0:
254,311,108366,1,0,0:0:0:0:
287,219,108542,2,0,P|295:156|285:123,1,70,0|8,0:0|0:0,0:0:0:0:
209,100,108895,1,0,0:0:0:0:
125,151,109071,2,0,P|123:185|132:219,1,70
184,302,109424,1,8,0:0:0:0:
184,302,109601,1,0,0:0:0:0:
86,297,109777,6,0,P|43:319|19:347,1,70
115,379,110130,2,0,P|167:383|210:375,1,70,8|0,0:0|0:0,0:0:0:0:
276,347,110483,2,0,P|310:317|329:287,1,70
335,199,110836,1,8,0:0:0:0:
335,199,111013,1,0,0:0:0:0:
268,127,111189,2,0,P|308:104|344:99,1,70
417,145,111542,2,0,P|429:194|424:237,1,70,8|0,0:0|0:0,0:0:0:0:
382,300,111895,2,0,P|380:344|388:383,2,70,0|0|8,0:0|0:0|0:0,0:0:0:0:
429,213,112424,1,0,0:0:0:0:
455,118,112601,6,0,L|478:37,1,70
380,80,112954,2,0,L|360:147,1,70,8|0,0:0|0:0,0:0:0:0:
290,216,113307,2,0,L|267:135,1,70
180,110,113660,1,8,0:0:0:0:
210,231,113836,2,0,L|229:298,1,70,4|0,0:0|0:0,0:0:0:0:
307,358,114189,1,0,0:0:0:0:
180,365,114366,2,0,P|125:365|90:364,1,70,8|0,0:0|0:0,0:0:0:0:
26,270,114719,1,0,0:0:0:0:
26,270,114807,1,0,0:0:0:0:
26,270,114895,1,0,0:0:0:0:
96,166,115071,1,8,0:0:0:0:
200,236,115248,6,0,P|254:250|318:173,1,140,4|0,0:0|0:0,0:0:0:0:
329,102,115777,2,0,P|282:107|250:125,1,70,8|0,0:0|0:0,0:0:0:0:
313,200,116130,1,0,0:0:0:0:
406,170,116307,1,0,0:0:0:0:
423,73,116483,1,8,0:0:0:0:
406,170,116660,2,0,P|389:246|398:329,1,140
461,377,117189,1,8,0:0:0:0:
461,377,117366,1,0,0:0:0:0:
392,307,117542,2,0,P|339:296|298:297,1,70
238,345,117895,2,0,P|203:351|155:344,1,70,8|0,0:0|0:0,0:0:0:0:
88,291,118248,6,0,P|67:248|61:152,1,140,0|8,0:0|0:0,0:0:0:0:
94,65,118777,1,0,0:0:0:0:
94,65,118866,1,0,0:0:0:0:
94,65,118954,1,0,0:0:0:0:
153,142,119130,1,0,0:0:0:0:
200,55,119307,1,8,0:0:0:0:
286,146,119483,2,0,P|340:163|433:130,1,140,4|0,0:0|0:0,0:0:0:0:
478,63,120013,1,8,0:0:0:0:
478,63,120189,1,0,0:0:0:0:
419,142,120366,2,0,P|412:192|419:227,1,70
455,300,120719,2,0,P|442:347|424:373,1,70,8|0,0:0|0:0,0:0:0:0:
310,327,121071,6,0,P|254:301|169:338,1,140,4|8,0:0|0:0,0:0:0:0:
102,382,121601,1,0,0:0:0:0:
57,295,121777,2,0,P|48:251|51:217,2,70,0|0|8,0:0|0:0|0:0,0:0:0:0:
102,382,122307,2,0,P|171:360|238:290,1,140
260,226,122836,2,0,B|266:183|266:183|259:134,1,70,8|0,0:0|0:0,0:0:0:0:
199,85,123189,2,0,B|155:81|155:81|117:88,2,70,0|0|8,0:0|0:0|0:0,0:0:0:0:
323,120,123719,6,0,P|384:134|471:116,1,140,4|0,0:0|0:0,0:0:0:0:
501,32,124248,1,8,0:0:0:0:
501,32,124424,1,0,0:0:0:0:
459,121,124601,2,0,L|418:207,2,70,0|0|8,0:0|0:0|0:0,0:0:0:0:
355,52,125130,2,0,L|204:79,1,140,4|0,0:0|0:0,0:0:0:0:
120,94,125660,2,0,P|136:136|167:161,2,70,8|0|0,0:0|0:0|0:0,0:0:0:0:
169,8,126189,1,0,0:0:0:0:
169,8,126366,1,8,0:0:0:0:
255,102,126542,6,0,P|293:147|347:166,1,110.249996635437,4|0,0:0|0:0,0:0:0:0:
384,166,126895,1,8,0:0:0:0:
384,166,127071,1,8,0:0:0:0:
462,99,127248,1,0,0:0:0:0:
478,200,127424,2,0,P|485:256|477:294,1,73.4999977569581
416,351,127777,2,0,P|372:363|333:362,1,73.4999977569581,8|0,0:0|0:0,0:0:0:0:
275,286,128130,2,0,L|275:204,2,73.4999977569581,0|0|8,0:0|0:0|0:0,0:0:0:0:
198,356,128660,1,0,0:0:0:0:
103,317,128836,2,0,P|65:269|57:233,1,73.4999977569581
107,165,129189,2,0,P|118:107|113:76,1,73.4999977569581,8|0,0:0|0:0,0:0:0:0:
41,21,129542,5,0,0:0:0:0:
41,21,129719,1,0,0:0:0:0:
117,93,129895,2,0,P|170:96|207:84,1,73.4999977569581,8|0,0:0|0:0,0:0:0:0:
223,76,130160,1,0,0:0:0:0:
251,52,130248,1,0,0:0:0:0:
319,127,130424,1,0,0:0:0:0:
385,47,130601,1,8,0:0:0:0:
449,162,130777,2,0,P|459:228|440:319,1,146.999995513916,4|0,0:0|0:0,0:0:0:0:
354,356,131307,2,0,B|313:361|313:361|279:354,1,73.4999977569581,8|0,0:0|0:0,0:0:0:0:
243,258,131660,2,0,B|284:253|284:253|318:260,1,73.4999977569581
412,294,132013,1,8,0:0:0:0:
412,294,132189,1,0,0:0:0:0:
380,165,132366,6,0,B|375:125|387:96|387:96|336:105|298:76,1,146.999995513916,4|8,0:0|0:0,0:0:0:0:
230,22,132895,1,0,0:0:0:0:
130,48,133071,2,0,P|83:71|58:94,1,73.4999977569581
66,187,133424,2,0,P|113:164|138:141,1,73.4999977569581,8|0,0:0|0:0,0:0:0:0:
211,88,133777,2,0,B|258:80|258:80|301:88,1,73.4999977569581
326,178,134130,2,0,B|279:186|279:186|236:178,1,73.4999977569581,8|0,0:0|0:0,0:0:0:0:
283,84,134483,1,0,0:0:0:0:
386,90,134660,1,0,0:0:0:0:
426,184,134836,1,8,0:0:0:0:
337,283,135013,6,0,B|313:318|299:353|299:353|251:315|219:320,1,146.999995513916,4|0,0:0|0:0,0:0:0:0:
256,192,135454,12,2,136601,0:0:0:0:
256,273,136954,6,0,B|249:237|249:237|264:209|264:209|258:167,1,105.000004005432,12|0,0:0|0:0,0:0:0:0:
246,100,137484,1,0,0:0:0:0:
246,100,137572,1,0,0:0:0:0:
246,100,137660,1,8,0:0:0:0:
442,273,138013,6,0,P|414:312|378:335,1,77.0000023498536,4|0,0:0|0:0,0:0:0:0:
306,260,138366,2,0,P|334:221|370:198,1,77.0000023498536,8|0,0:0|0:0,0:0:0:0:
458,166,138719,2,0,P|461:107|449:76,1,77.0000023498536
370,25,139071,1,8,0:0:0:0:
370,25,139248,1,0,0:0:0:0:
275,77,139424,2,0,P|219:91|179:89,2,77.0000023498536,0|0|8,0:0|0:0|0:0,0:0:0:0:
370,25,139954,1,0,0:0:0:0:
397,129,140130,2,0,L|419:222,1,77.0000023498536
320,256,140483,2,0,L|298:347,1,77.0000023498536,8|0,0:0|0:0,0:0:0:0:
207,278,140836,6,0,L|188:192,1,77.0000023498536
162,98,141189,2,0,P|210:100|247:114,1,77.0000023498536,8|0,0:0|0:0,0:0:0:0:
190,202,141542,2,0,P|142:200|105:186,1,77.0000023498536
40,112,141895,1,8,0:0:0:0:
40,112,142071,1,0,0:0:0:0:
114,190,142248,2,0,P|126:258|124:292,1,77.0000023498536
45,338,142601,2,0,P|33:270|35:236,1,77.0000023498536,8|0,0:0|0:0,0:0:0:0:
114,191,142954,2,0,L|213:202,1,77.0000023498536
297,212,143307,1,8,0:0:0:0:
297,212,143483,1,0,0:0:0:0:
404,300,143660,6,0,P|433:220|414:141,1,154.000004699707,4|8,0:0|0:0,0:0:0:0:
358,65,144189,1,0,0:0:0:0:
253,36,144366,2,0,P|205:36|164:52,1,77.0000023498536
96,115,144719,2,0,P|73:158|65:198,1,77.0000023498536,8|0,0:0|0:0,0:0:0:0:
100,287,145071,2,0,L|190:326,1,77.0000023498536
271,357,145424,1,8,0:0:0:0:
271,357,145601,1,0,0:0:0:0:
373,323,145777,2,0,L|443:292,1,77.0000023498536
440,184,146130,2,0,B|450:143|450:143|450:94,1,77.0000023498536,8|0,0:0|0:0,0:0:0:0:
324,49,146483,6,0,B|288:50|251:36|251:36|217:51|170:50,1,154.000004699707,0|8,0:0|0:0,0:0:0:0:
68,21,147013,1,0,0:0:0:0:
174,50,147189,2,0,P|195:101|200:153,1,77.0000023498536
121,198,147542,2,0,P|102:251|99:280,1,77.0000023498536,8|0,0:0|0:0,0:0:0:0:
186,335,147895,2,0,P|228:344|271:338,1,77.0000023498536
327,254,148248,2,0,P|376:252|417:260,1,77.0000023498536,8|0,0:0|0:0,0:0:0:0:
462,347,148601,2,0,P|503:296|493:204,1,154.000004699707,0|8,0:0|0:0,0:0:0:0:
433,124,149130,1,0,0:0:0:0:
307,64,149307,6,0,B|279:104|278:131|278:131|228:119,1,115.50000352478,4|0,0:0|0:0,0:0:0:0:
201,107,149660,2,0,P|157:93|42:112,1,154.000004699707,8|0,0:0|0:0,0:0:0:0:
6,205,150189,1,0,0:0:0:0:
85,278,150366,2,0,P|134:282|185:271,1,77.0000023498536,8|0,0:0|0:0,0:0:0:0:
257,229,150719,2,0,P|303:222|347:230,2,77.0000023498536,0|0|8,0:0|0:0|0:0,0:0:0:0:
161,278,151248,1,0,0:0:0:0:
171,170,151424,2,0,L|183:73,1,77.0000023498536
285,68,151777,2,0,L|359:24,1,77.0000023498536,8|0,0:0|0:0,0:0:0:0:
443,85,152130,6,0,P|476:131|492:245,1,154.000004699707,0|8,0:0|0:0,0:0:0:0:
450,324,152660,1,0,0:0:0:0:
347,292,152836,2,0,P|297:286|250:292,1,77.0000023498536
176,340,153189,2,0,P|136:309|112:266,1,77.0000023498536,8|0,0:0|0:0,0:0:0:0:
161,187,153542,1,0,0:0:0:0:
161,187,153719,1,0,0:0:0:0:
89,107,153895,2,0,P|65:60|64:25,1,77.0000023498536,8|0,0:0|0:0,0:0:0:0:
170,47,154248,2,0,P|211:21|254:16,1,77.0000023498536
255,122,154601,2,0,P|297:151|318:196,1,77.0000023498536,8|0,0:0|0:0,0:0:0:0:
293,279,154954,5,0,0:0:0:0:
293,279,155130,1,0,0:0:0:0:
398,256,155307,2,0,B|443:241|443:241|486:201,1,77.0000023498536,8|0,0:0|0:0,0:0:0:0:
482,114,155660,2,0,B|465:78|437:57|437:57|328:49,1,154.000004699707,0|8,0:0|0:0,0:0:0:0:
253,84,156189,1,0,0:0:0:0:
150,50,156366,2,0,B|69:55|69:55|41:76|24:112,1,154.000004699707,0|8,0:0|0:0,0:0:0:0:
12,220,156895,1,0,0:0:0:0:
53,319,157071,2,0,P|104:325|150:312,1,77.0000023498536
193,233,157424,2,0,P|243:228|275:234,1,77.0000023498536,8|0,0:0|0:0,0:0:0:0:
366,331,157777,6,0,B|418:324|448:289|448:289|437:247|436:217,1,154.000004699707,4|8,0:0|0:0,0:0:0:0:
452,122,158307,1,0,0:0:0:0:
497,24,158483,2,0,P|449:14|406:26,2,77.0000023498536,0|0|8,0:0|0:0|0:0,0:0:0:0:
452,122,159013,1,0,0:0:0:0:
360,178,159189,2,0,P|320:180|272:168,1,77.0000023498536,8|0,0:0|0:0,0:0:0:0:
217,87,159542,2,0,P|164:82|121:95,1,77.0000023498536,8|0,0:0|0:0,0:0:0:0:
104,100,159807,1,0,0:0:0:0:
73,122,159895,1,8,0:0:0:0:
22,216,160071,1,0,0:0:0:0:
37,323,160248,1,8,0:0:0:0:
120,255,160424,1,0,0:0:0:0:
22,216,160601,5,4,0:0:0:0:
374,127,171895,6,0,B|359:171|359:171|363:212|363:212|315:206|295:217,1,146.999995513916,4|8,0:0|0:0,0:0:0:0:
202,232,172424,1,0,0:0:0:0:
109,278,172601,2,0,P|136:314|185:337,1,73.4999977569581
202,232,172954,2,0,P|175:196|126:173,1,73.4999977569581,8|0,0:0|0:0,0:0:0:0:
50,160,173307,2,0,P|39:113|42:73,1,73.4999977569581
126,32,173660,2,0,P|137:79|134:119,1,73.4999977569581,8|0,0:0|0:0,0:0:0:0:
50,160,174013,2,0,L|21:248,1,73.4999977569581
124,264,174366,2,0,L|146:354,1,73.4999977569581,8|0,0:0|0:0,0:0:0:0:
274,330,174719,6,0,P|328:339|417:266,1,146.999995513916,4|8,0:0|0:0,0:0:0:0:
427,192,175248,1,0,0:0:0:0:
432,89,175424,2,0,L|435:0,2,73.4999977569581,0|0|8,0:0|0:0|0:0,0:0:0:0:
340,185,175954,2,0,B|305:197|305:197|232:185|232:185|190:200,1,146.999995513916,4|0,0:0|0:0,0:0:0:0:
101,233,176483,2,0,B|56:256|56:256|30:294,1,73.4999977569581,8|0,0:0|0:0,0:0:0:0:
122,341,176836,2,0,B|167:318|167:318|193:280,1,73.4999977569581
198,197,177189,2,0,L|192:112,1,73.4999977569581,8|0,0:0|0:0,0:0:0:0:
91,38,177542,6,0,P|51:85|47:180,1,146.999995513916,4|8,0:0|0:0,0:0:0:0:
84,261,178071,1,0,0:0:0:0:
135,350,178248,2,0,P|96:363|44:358,2,73.4999977569581,0|0|8,0:0|0:0|0:0,0:0:0:0:
226,253,178777,2,0,B|254:223|257:188|257:188|292:213|334:203,1,146.999995513916,4|0,0:0|0:0,0:0:0:0:
429,187,179307,2,0,P|476:144|489:110,1,73.4999977569581,8|0,0:0|0:0,0:0:0:0:
448,37,179660,2,0,P|398:29|369:34,1,73.4999977569581
288,87,180013,2,0,P|249:93|197:79,1,73.4999977569581,8|0,0:0|0:0,0:0:0:0:
91,40,180366,6,0,P|38:70|61:163,1,146.999995513916,4|8,0:0|0:0,0:0:0:0:
108,227,180895,1,0,0:0:0:0:
153,318,181071,2,0,P|118:328|57:318,1,73.4999977569581
108,227,181424,2,0,P|143:217|204:227,1,73.4999977569581,8|0,0:0|0:0,0:0:0:0:
266,274,181777,2,0,P|304:278|353:264,1,73.4999977569581,8|0,0:0|0:0,0:0:0:0:
404,191,182130,2,0,L|431:74,1,110.249996635437,8|8,0:0|0:0,0:0:0:0:
467,49,182483,2,0,P|473:34|475:-5,6,36.749998878479,8|0|8|0|8|0|8,0:0|0:0|0:0|0:0|0:0|0:0|0:0,0:0:0:0:
386,117,183189,6,0,P|341:120|297:113,1,75.6000018457032,4|0,0:0|0:0,0:0:0:0:
237,39,183542,2,0,P|186:34|145:45,1,75.6000018457032,8|0,0:0|0:0,0:0:0:0:
84,110,183895,2,0,P|58:172|58:205,1,75.6000018457032,8|0,0:0|0:0,0:0:0:0:
82,282,184248,2,0,P|136:322|170:329,1,75.6000018457032,8|0,0:0|0:0,0:0:0:0:
244,290,184601,2,0,B|259:241|259:241|265:196,1,75.6000018457032,8|0,0:0|0:0,0:0:0:0:
199,131,184954,2,0,B|184:180|184:180|178:225,1,75.6000018457032,8|0,0:0|0:0,0:0:0:0:
244,290,185307,2,0,L|338:286,1,75.6000018457032,8|0,0:0|0:0,0:0:0:0:
384,202,185660,2,0,L|308:205,1,75.6000018457032,8|0,0:0|0:0,0:0:0:0:
421,280,186013,6,0,P|464:234|449:144,1,151.200003691406,4|8,0:0|0:0,0:0:0:0:
386,69,186542,1,0,0:0:0:0:
279,71,186719,2,0,L|182:76,1,75.6000018457032,8|0,0:0|0:0,0:0:0:0:
98,67,187071,2,0,L|14:108,1,75.6000018457032,8|0,0:0|0:0,0:0:0:0:
47,204,187424,2,0,L|67:298,1,75.6000018457032,8|0,0:0|0:0,0:0:0:0:
166,298,187777,2,0,L|202:376,1,75.6000018457032,8|0,0:0|0:0,0:0:0:0:
299,337,188130,2,0,P|346:345|435:281,1,151.200003691406,4|4,0:0|0:0,0:0:0:0:
461,190,188660,1,0,0:0:0:0:
388,75,188836,6,0,B|344:64|344:64|307:79|307:79|263:68|233:78,1,151.200003691406,4|8,0:0|0:0,0:0:0:0:
137,97,189366,1,0,0:0:0:0:
62,172,189542,2,0,P|52:233|58:261,1,75.6000018457032,8|0,0:0|0:0,0:0:0:0:
92,344,189895,2,0,P|119:360|179:368,1,75.6000018457032,8|0,0:0|0:0,0:0:0:0:
267,331,190248,2,0,P|306:283|316:256,1,75.6000018457032,8|0,0:0|0:0,0:0:0:0:
283,168,190601,2,0,P|274:104|277:71,1,75.6000018457032,8|0,0:0|0:0,0:0:0:0:
351,21,190954,2,0,P|396:13|438:29,1,75.6000018457032,8|0,0:0|0:0,0:0:0:0:
495,98,191307,2,0,P|494:135|486:172,1,75.6000018457032,8|0,0:0|0:0,0:0:0:0:
400,235,191660,6,0,P|358:250|377:345,1,151.200003691406,4|8,0:0|0:0,0:0:0:0:
470,313,192189,1,0,0:0:0:0:
400,235,192366,2,0,L|338:165,1,75.6000018457032,8|0,0:0|0:0,0:0:0:0:
280,98,192719,2,0,L|181:96,1,75.6000018457032,8|0,0:0|0:0,0:0:0:0:
100,80,193071,2,0,P|56:136|52:225,1,151.200003691406,8|8,0:0|0:0,0:0:0:0:
86,313,193601,1,0,0:0:0:0:
185,347,193777,2,0,P|226:353|271:343,1,75.6000018457032,4|0,0:0|0:0,0:0:0:0:
310,254,194130,2,0,P|269:248|224:258,1,75.6000018457032,4|0,0:0|0:0,0:0:0:0:
347,332,194483,6,0,P|391:282|368:190,1,151.200003691406,4|8,0:0|0:0,0:0:0:0:
303,128,195013,1,0,0:0:0:0:
197,122,195189,2,0,P|134:130|108:143,1,75.6000018457032,8|0,0:0|0:0,0:0:0:0:
86,233,195542,2,0,P|149:225|175:212,1,75.6000018457032,8|0,0:0|0:0,0:0:0:0:
197,122,195895,2,0,L|212:36,1,75.6000018457032,8|0,0:0|0:0,0:0:0:0:
316,46,196248,2,0,L|328:120,1,75.6000018457032,8|0,0:0|0:0,0:0:0:0:
425,164,196601,2,0,L|437:238,1,75.6000018457032,8|0,0:0|0:0,0:0:0:0:
459,342,196954,1,8,0:0:0:0:
459,342,197130,1,0,0:0:0:0:
351,257,197307,6,0,P|306:252|262:259,1,75.6000018457032,4|0,0:0|0:0,0:0:0:0:
199,329,197660,2,0,P|157:332|118:328,1,75.6000018457032,8|0,0:0|0:0,0:0:0:0:
53,249,198013,2,0,P|39:209|42:161,1,75.6000018457032,8|0,0:0|0:0,0:0:0:0:
70,74,198366,2,0,P|103:26|131:12,1,75.6000018457032,8|0,0:0|0:0,0:0:0:0:
218,47,198719,1,8,0:0:0:0:
218,47,198895,1,0,0:0:0:0:
321,26,199071,2,0,P|350:49|367:82,2,75.6000018457032,8|0|8,0:0|0:0|0:0,0:0:0:0:
218,47,199601,1,0,0:0:0:0:
169,140,199777,2,0,L|133:214,1,75.6000018457032,8|0,0:0|0:0,0:0:0:0:
79,297,200130,6,0,P|131:315|170:307,1,75.6000018457032,4|0,0:0|0:0,0:0:0:0:
241,258,200483,2,0,P|286:248|326:253,1,75.6000018457032,8|0,0:0|0:0,0:0:0:0:
406,303,200836,2,0,P|446:267|461:232,1,75.6000018457032,8|0,0:0|0:0,0:0:0:0:
483,145,201189,1,8,0:0:0:0:
483,145,201366,1,0,0:0:0:0:
389,46,201542,2,0,B|348:53|321:75|321:75|228:48,1,151.200003691406,4|8,0:0|0:0,0:0:0:0:
146,21,202071,1,0,0:0:0:0:
69,95,202248,2,0,P|51:136|44:187,1,75.6000018457032,8|0,0:0|0:0,0:0:0:0:
46,272,202601,2,0,P|62:322|80:348,1,75.6000018457032,8|0,0:0|0:0,0:0:0:0:
206,306,202954,6,0,B|251:291|251:291|282:302|310:292|310:292|360:306,1,151.200003691406,4|8,0:0|0:0,0:0:0:0:
452,337,203483,1,0,0:0:0:0:
475,233,203660,2,0,P|479:181|470:147,1,75.6000018457032,8|0,0:0|0:0,0:0:0:0:
438,58,204013,1,8,0:0:0:0:
320,125,204189,1,4,0:0:0:0:
256,192,204277,12,2,205601,0:0:0:0:
326,190,206836,6,0,B|290:188|290:188|234:201,1,78.7500030040742,4|0,0:0|0:0,0:0:0:0:
211,212,207189,6,0,P|164:210|122:170,1,78.4000009570313,4|0,0:0|0:0,0:0:0:0:
131,83,207542,2,0,P|178:85|220:125,1,78.4000009570313,8|0,0:0|0:0,0:0:0:0:
138,193,207895,2,0,L|46:192,1,78.4000009570313
5,288,208248,2,0,L|83:288,1,78.4000009570313,8|0,0:0|0:0,0:0:0:0:
186,327,208601,1,0,0:0:0:0:
290,293,208777,2,0,L|368:293,1,78.4000009570313,0|8,0:0|0:0,0:0:0:0:
474,324,209130,1,0,0:0:0:0:
474,324,209307,2,0,P|476:270|459:234,1,78.4000009570313
407,155,209660,2,0,P|393:96|404:53,1,78.4000009570313,8|0,0:0|0:0,0:0:0:0:
486,17,210013,5,0,0:0:0:0:
486,17,210189,1,0,0:0:0:0:
396,80,210366,2,0,P|343:84|301:75,1,78.4000009570313,8|0,0:0|0:0,0:0:0:0:
215,41,210719,2,0,P|172:37|123:49,1,78.4000009570313
40,93,211071,1,8,0:0:0:0:
40,93,211248,1,0,0:0:0:0:
32,202,211424,2,0,B|28:256|28:256|40:298,1,78.4000009570313
122,345,211777,2,0,B|163:351|163:351|234:335|234:335|276:342,1,156.800001914063,8|0,0:0|0:0,0:0:0:0:
385,358,212307,1,0,0:0:0:0:
450,270,212483,2,0,P|470:225|469:194,1,78.4000009570313,8|0,0:0|0:0,0:0:0:0:
399,73,212836,6,0,P|352:110|270:55,1,156.800001914063,4|8,0:0|0:0,0:0:0:0:
179,12,213366,1,0,0:0:0:0:
88,74,213542,2,0,P|55:116|42:154,1,78.4000009570313
25,247,213895,1,8,0:0:0:0:
66,348,214071,2,0,B|150:329|150:329|172:352|223:352,1,156.800001914063
321,320,214601,2,0,P|349:291|372:244,1,78.4000009570313,8|0,0:0|0:0,0:0:0:0:
385,149,214954,2,0,P|383:90|364:46,1,78.4000009570313
287,7,215307,1,8,0:0:0:0:
287,7,215483,1,0,0:0:0:0:
257,145,215660,6,0,P|240:190|202:223,1,78.4000009570313,4|0,0:0|0:0,0:0:0:0:
125,269,216013,2,0,P|71:283|25:278,1,78.4000009570313,8|0,0:0|0:0,0:0:0:0:
52,172,216366,2,0,P|106:158|152:163,1,78.4000009570313
219,211,216719,2,0,P|269:225|326:215,1,78.4000009570313,8|0,0:0|0:0,0:0:0:0:
346,127,217071,2,0,P|296:113|239:123,1,78.4000009570313
219,212,217424,1,8,0:0:0:0:
219,212,217601,1,0,0:0:0:0:
241,319,217777,2,0,P|302:336|351:333,1,78.4000009570313
424,314,218130,2,0,P|466:277|480:246,1,78.4000009570313,8|0,0:0|0:0,0:0:0:0:
490,116,218483,6,0,B|484:74|471:47|471:47|446:62|415:63,1,117.600001435547,4|0,0:0|0:0,0:0:0:0:
388,64,218836,2,0,P|330:62|291:51,1,78.4000009570313,4|0,0:0|0:0,0:0:0:0:
204,26,219189,1,0,0:0:0:0:
204,26,219366,1,0,0:0:0:0:
108,79,219542,2,0,P|69:126|58:171,1,78.4000009570313,8|0,0:0|0:0,0:0:0:0:
37,248,219895,2,0,P|34:297|43:343,2,78.4000009570313,0|0|8,0:0|0:0|0:0,0:0:0:0:
63,141,220424,1,0,0:0:0:0:
156,198,220601,2,0,P|196:216|246:218,1,78.4000009570313
340,223,220954,2,0,P|406:220|433:208,1,78.4000009570313,8|0,0:0|0:0,0:0:0:0:
483,90,221307,6,0,B|455:53|402:34|402:34|339:60,1,156.800001914063,4|8,0:0|0:0,0:0:0:0:
256,114,221836,1,0,0:0:0:0:
162,55,222013,2,0,B|110:34|110:34|57:53|29:90,1,156.800001914063,0|8,0:0|0:0,0:0:0:0:
3,197,222542,1,0,0:0:0:0:
28,304,222719,2,0,P|65:333|113:352,1,78.4000009570313
202,350,223071,2,0,P|251:333|288:306,1,78.4000009570313,8|0,0:0|0:0,0:0:0:0:
304,213,223424,2,0,L|312:124,1,78.4000009570313
390,58,223777,2,0,L|407:152,1,78.4000009570313,8|0,0:0|0:0,0:0:0:0:
432,273,224130,5,4,0:0:0:0:
432,273,224307,1,0,0:0:0:0:
304,213,224483,2,0,B|262:189|246:144|246:144|218:173|172:183,1,156.800001914063,8|0,0:0|0:0,0:0:0:0:
81,187,225013,1,0,0:0:0:0:
21,95,225189,2,0,P|61:79|107:83,1,78.4000009570313,8|0,0:0|0:0,0:0:0:0:
81,187,225542,1,0,0:0:0:0:
81,187,225719,1,0,0:0:0:0:
26,281,225895,2,0,P|78:297|116:293,1,78.4000009570313,8|0,0:0|0:0,0:0:0:0:
204,258,226248,2,0,P|254:245|299:250,1,78.4000009570313
379,293,226601,1,8,0:0:0:0:
379,293,226777,1,0,0:0:0:0:
466,181,226954,6,0,P|474:133|387:68,1,156.800001914063,4|8,0:0|0:0,0:0:0:0:
294,99,227483,1,0,0:0:0:0:
202,160,227660,2,0,P|149:171|104:159,1,78.4000009570313
118,57,228013,2,0,P|171:46|216:58,1,78.4000009570313,8|0,0:0|0:0,0:0:0:0:
241,149,228366,2,0,L|268:245,1,78.4000009570313,8|0,0:0|0:0,0:0:0:0:
413,224,228719,2,0,L|425:348,1,117.600001435547,8|0,0:0|0:0,0:0:0:0:
440,376,229071,2,0,L|347:379,1,78.4000009570313,2|0,0:0|0:0,0:0:0:0:
279,306,229424,1,8,0:0:0:0:
193,236,229601,1,0,0:0:0:0:
290,194,229777,5,4,0:0:0:0:
