osu file format v14

[General]
AudioFilename: audio.mp3
AudioLeadIn: 0
PreviewTime: 68830
Countdown: 0
SampleSet: Soft
StackLeniency: 0.7
Mode: 0
LetterboxInBreaks: 0
WidescreenStoryboard: 0

[Editor]
Bookmarks: 23124,126889,160595,171889,229771,252360
DistanceSpacing: 1
BeatDivisor: 4
GridSize: 4
TimelineZoom: 1.7

[Metadata]
Title:Kuusou Forest
TitleUnicode:空想フォレスト
Artist:Jin ft. Takumi Yoshida (phatmans after school)
ArtistUnicode:じん ft. ヨシダタクミ(phatmans after school)
Creator:Trust
Version:Easy
Source:メカクシティアクターズ
Tags:mekakucity actors kagerou project imagination forest marry kozakura captin1 luxodeh
BeatmapID:920798
BeatmapSetID:424179

[Difficulty]
HPDrainRate:2
CircleSize:3
OverallDifficulty:2
ApproachRate:3
SliderMultiplier:0.9
SliderTickRate:1

[Events]
//Background and Video events
0,0,"souzou-forest.jpg",0,0
//Break Periods
2,92830,102690
2,160801,170455
//Storyboard Layer 0 (Background)
//Storyboard Layer 1 (Fail)
//Storyboard Layer 2 (Pass)
//Storyboard Layer 3 (Foreground)
//Storyboard Sound Samples

[TimingPoints]
1072,352.941176470588,4,2,1,60,1,0
51895,-100,4,2,1,70,0,0
68836,-100,4,2,1,80,0,1
92836,-100,4,2,1,65,0,0
126542,-100,4,2,1,75,0,0
136601,-100,4,2,1,45,0,0
136954,-100,4,2,1,75,0,0
138013,-100,4,2,1,80,0,1
160601,-100,4,2,1,70,0,0
183189,-100,4,2,1,80,0,0
194483,-100,4,2,1,82,0,0
207189,-100,4,2,1,85,0,1
229777,-100,4,2,1,70,0,0

[Colours]
Combo1 : 128,128,255
Combo2 : 255,128,255
Combo3 : 0,128,255
Combo4 : 255,128,128

[HitObjects]
196,192,23660,6,0,P|180:228|212:372,1,180,4|2,0:0|0:0,0:0:0:0:
384,348,25071,2,0,P|400:312|368:168,1,180,0|0,0:0|0:0,0:0:0:0:
228,72,26483,6,0,L|40:88,2,180,2|0|0,0:0|0:0|0:0,0:0:0:0:
404,116,28601,1,0,0:0:0:0:
244,192,29307,6,0,P|240:276|296:356,1,180,2|2,0:0|0:0,0:0:0:0:
416,224,30719,2,0,P|420:140|364:60,1,180,2|2,0:0|0:0,0:0:0:0:
196,12,32130,6,0,L|180:108,1,90,2|2,0:0|0:0,0:0:0:0:
92,120,32836,2,0,L|116:264,1,135,2|0,0:0|0:0,0:0:0:0:
192,300,33719,1,0,0:0:0:0:
256,240,34071,2,0,P|344:196|380:208,1,135,0|8,0:0|0:0,0:0:0:0:
460,232,34954,6,0,B|476:176|476:176|456:48,1,180,4|2,0:0|0:0,0:0:0:0:
376,16,36013,1,8,0:0:0:0:
312,80,36366,2,0,L|112:56,1,180,2|0,0:0|0:0,0:0:0:0:
60,112,37424,1,8,0:0:0:0:
0,180,37777,6,0,L|36:268,1,90,2|8,0:0|0:0,0:0:0:0:
120,236,38483,2,0,L|252:292,2,135,2|0|8,0:0|0:0|0:0,0:0:0:0:
68,164,39895,2,0,P|60:108|80:64,1,90,2|8,0:0|0:0,0:0:0:0:
148,124,40601,6,0,B|240:156|240:88|328:124,1,180,2|2,0:0|0:0,0:0:0:0:
404,164,41660,1,8,0:0:0:0:
428,252,42013,2,0,P|416:304|304:328,1,180,2|2,0:0|0:0,0:0:0:0:
228,280,43071,1,8,0:0:0:0:
136,284,43424,6,0,P|84:300|48:328,2,90,2|8|2,0:0|0:0|0:0,0:0:0:0:
180,204,44483,1,8,0:0:0:0:
220,123,44836,2,0,P|263:112|300:87,1,90,0|8,0:0|0:0,0:0:0:0:
324,0,45542,6,0,P|376:40|384:116,2,135,8|4|8,0:3|0:0|0:0,0:0:0:0:
244,40,46954,2,0,L|96:24,2,135,2|2|8,0:0|0:0|0:0,0:0:0:0:
316,92,48366,1,2,0:0:0:0:
400,60,48719,1,8,0:0:0:0:
464,124,49071,6,0,L|444:228,1,90,2|8,0:0|0:0,0:0:0:0:
480,296,49777,2,0,L|352:348,2,135,4|4|8,0:3|0:0|0:0,0:0:0:0:
471,206,51189,2,0,L|407:126,1,90,0|8,0:0|0:3,0:0:0:0:
328,160,51895,6,0,P|260:160|232:140,1,90,4|8,0:0|0:0,0:0:0:0:
176,88,52601,2,0,P|76:88|40:124,2,135,2|2|8,0:0|0:0|0:0,0:0:0:0:
264,60,54013,2,0,P|364:60|400:24,2,135,2|4|8,0:0|0:0|0:0,0:0:0:0:
176,84,55424,6,0,L|24:64,2,135,2|4|8,0:0|0:0|0:0,0:0:0:0:
240,148,56836,2,0,P|252:256|236:280,1,135,8|4,0:0|0:0,0:0:0:0:
176,336,57719,6,0,P|164:228|180:204,1,135,8|2,0:0|0:0,0:0:0:0:
240,148,58601,1,8,0:0:0:0:
328,124,58954,2,0,L|464:140,2,135,0|0|8,0:0|0:0|0:0,0:0:0:0:
240,148,60366,6,0,P|196:160|148:148,1,90,0|8,0:0|0:0,0:0:0:0:
92,84,61071,2,0,P|68:164|96:220,2,135,8|4|8,0:3|0:0|0:0,0:0:0:0:
160,24,62483,2,0,P|200:40|264:32,1,90,2|8,0:0|0:0,0:0:0:0:
332,72,63189,6,0,L|428:52,2,90,4|12|2,0:0|0:0|0:0,0:0:0:0:
264,131,64248,1,8,0:0:0:0:
192,188,64601,2,0,L|208:288,1,90,2|8,0:0|0:0,0:0:0:0:
292,300,65307,6,0,P|348:256|424:272,2,135,2|4|8,0:0|0:0|0:0,0:0:0:0:
200,304,66719,2,4,P|132:320|100:308,2,90,2|8|8,0:0|0:3|0:0,0:0:0:0:
292,300,67777,2,0,P|316:196|284:124,1,180,4|4,0:0|0:0,0:0:0:0:
212,88,68836,6,0,L|116:104,2,90,4|8|2,0:1|0:0|0:0,0:0:0:0:
288,40,69895,1,8,0:0:0:0:
364,88,70248,2,0,P|436:96|480:52,2,135,0|4|8,0:0|0:0|0:0,0:0:0:0:
288,40,71660,6,0,L|244:136,1,90,2|8,0:0|0:0,0:0:0:0:
164,96,72366,2,0,L|156:200,1,90,2|8,0:0|0:0,0:0:0:0:
68,204,73071,2,0,L|84:300,2,90,0|12|6,0:0|0:0|0:0,0:0:0:0:
28,120,74130,1,8,0:0:0:0:
84,48,74483,6,0,P|152:36|256:92,1,180,4|2,0:1|0:0,0:0:0:0:
312,148,75542,1,8,0:0:0:0:
400,128,75895,2,0,P|416:68|388:-4,2,135,0|4|12,0:0|0:0|0:0,0:0:0:0:
376,216,77307,6,0,L|400:312,2,90,0|8|6,0:0|0:0|0:0,0:0:0:0:
290,180,78366,1,12,0:0:0:0:
204,148,78719,2,0,P|152:160|72:120,2,135,6|4|12,0:0|0:0|0:0,0:0:0:0:
284,108,80130,6,0,L|320:204,2,90,4|12|2,0:1|0:0|0:0,0:0:0:0:
208,56,81189,1,8,0:0:0:0:
124,92,81542,2,0,P|56:108|-8:64,2,135,0|2|8,0:0|0:0|0:0,0:0:0:0:
208,56,82954,6,0,L|232:156,1,90,2|8,0:0|0:0,0:0:0:0:
320,136,83660,2,0,L|308:236,1,90,2|8,0:0|0:0,0:0:0:0:
396,252,84366,2,0,L|356:348,2,90,0|12|6,0:0|0:0|0:0,0:0:0:0:
428,168,85424,1,8,0:0:0:0:
392,88,85777,6,0,P|332:80|304:88,1,90,4|12,0:0|0:0,0:0:0:0:
228,132,86483,2,0,P|140:144|76:80,2,180,2|0|2,0:0|0:0|0:0,0:0:0:0:
304,84,88248,1,12,0:0:0:0:
376,32,88601,6,0,P|432:8|464:12,2,90,4|8|6,0:0|0:0|0:0,0:0:0:0:
304,84,89660,1,8,0:0:0:0:
228,132,90013,2,0,L|88:120,1,135,12|8,0:0|0:3,0:0:0:0:
16,168,90895,2,0,L|24:228,2,45,2|2|0,0:0|0:3|0:0,0:0:0:0:
64,288,104130,6,0,P|148:276|228:328,1,180,4|2,0:0|0:0,0:0:0:0:
312,344,105189,2,0,B|376:284|376:284|392:176,1,180,8|8,0:0|0:0,0:0:0:0:
310,145,106248,2,0,L|294:53,1,90,2|8,0:0|0:0,0:0:0:0:
204,72,106954,6,0,P|164:132|176:256,1,180,2|2,0:0|0:0,0:0:0:0:
220,312,108013,1,8,0:0:0:0:
304,348,108366,2,0,L|448:332,2,135,2|0|8,0:0|0:0|0:0,0:0:0:0:
219,311,109777,6,0,P|177:297|132:298,1,90,2|8,0:0|0:0,0:0:0:0:
68,360,110483,2,0,P|46:312|84:224,2,135,2|0|8,0:0|0:0|0:0,0:0:0:0:
132,298,111895,2,0,P|156:236|133:174,2,135,2|0|8,0:0|0:0|0:0,0:0:0:0:
203,352,113307,6,0,B|259:314|316:347|316:347|367:297,1,180,2|0,0:0|0:0,0:0:0:0:
415,230,114366,1,8,0:0:0:0:
365,154,114719,2,0,P|360:44|380:18,2,135,2|4|8,0:0|0:0|0:0,0:0:0:0:
415,230,116130,6,0,B|383:264|383:264|286:280,2,135,2|2|8,0:0|0:0|0:0,0:0:0:0:
505,236,117542,2,0,L|520:131,1,90,2|8,0:0|0:0,0:0:0:0:
428,130,118248,6,0,L|411:24,1,90,0|8,0:0|0:0,0:0:0:0:
328,12,118954,2,0,P|250:14|207:50,2,135,4|4|8,0:3|0:0|0:0,0:0:0:0:
362,95,120366,2,0,L|344:198,1,90,2|8,0:0|0:0,0:0:0:0:
267,227,121071,6,0,L|299:368,2,135,4|0|8,0:0|0:0|0:0,0:0:0:0:
304,145,122483,2,0,P|301:84|280:52,1,90,0|8,0:0|0:0,0:0:0:0:
197,66,123189,2,0,P|118:66|73:18,2,135,2|4|8,0:0|0:0|0:0,0:0:0:0:
279,29,124601,6,0,P|358:29|403:77,2,135,2|4|8,0:0|0:0|0:0,0:0:0:0:
204,79,126013,2,0,B|183:132|183:132|102:185,1,135,4|4,0:3|0:0,0:0:0:0:
39,219,126895,6,0,L|57:358,1,135,2|2,0:0|0:0,0:0:0:0:
144,371,127777,1,8,0:0:0:0:
216,316,128130,2,0,P|317:300|350:318,2,135,0|0|8,0:0|0:0|0:0,0:0:0:0:
144,371,129542,6,0,P|129:330|138:274,1,90,0|8,0:0|0:0,0:0:0:0:
171,202,130248,2,0,P|177:113|134:69,2,135,2|4|8,0:0|0:0|0:0,0:0:0:0:
101,259,131660,1,0,0:0:0:0:
28,205,132013,1,8,0:0:0:0:
101,152,132366,6,0,L|291:152,1,180,4|2,0:0|0:0,0:0:0:0:
363,187,133424,1,8,0:0:0:0:
445,151,133777,2,0,P|448:69|437:50,1,90,2|8,0:0|0:0,0:0:0:0:
354,56,134483,6,0,L|213:67,1,135,2|4,0:0|0:0,0:0:0:0:
256,192,135189,12,8,136601,0:0:0:0:
356,302,138013,6,0,L|452:286,2,90,4|8|2,0:1|0:0|0:0,0:0:0:0:
275,342,139071,1,8,0:0:0:0:
192,306,139424,2,0,P|120:298|76:342,2,135,0|4|8,0:0|0:0|0:0,0:0:0:0:
275,342,140836,6,0,L|319:246,1,90,2|8,0:0|0:0,0:0:0:0:
401,275,141542,2,0,L|409:171,1,90,2|8,0:0|0:0,0:0:0:0:
497,173,142248,2,0,L|481:77,2,90,0|12|4,0:0|0:0|0:0,0:0:0:0:
484,264,143307,1,8,0:0:0:0:
428,336,143660,6,0,P|360:348|256:292,1,180,2|2,0:0|0:0,0:0:0:0:
200,236,144719,1,8,0:0:0:0:
112,256,145071,2,0,P|96:316|124:388,2,135,0|4|12,0:0|0:0|0:0,0:0:0:0:
136,168,146483,6,0,L|112:72,2,90,2|8|6,0:0|0:0|0:0,0:0:0:0:
224,204,147542,1,4,0:0:0:0:
308,236,147895,2,0,P|360:224|440:264,2,135,6|4|12,0:0|0:0|0:0,0:0:0:0:
228,276,149307,6,0,L|192:180,2,90,4|12|2,0:1|0:0|0:0,0:0:0:0:
304,328,150366,1,8,0:0:0:0:
388,292,150719,2,0,P|430:253|421:175,2,135,0|4|10,0:0|0:0|0:0,0:0:0:0:
304,328,152130,6,0,L|280:228,1,90,2|8,0:0|0:0,0:0:0:0:
192,248,152836,2,0,L|204:148,1,90,2|8,0:0|0:0,0:0:0:0:
116,132,153542,2,0,L|156:36,2,90,0|12|4,0:0|0:0|0:0,0:0:0:0:
84,216,154601,1,12,0:0:0:0:
120,296,154954,6,0,P|180:304|208:296,1,90,4|12,0:1|0:0,0:0:0:0:
284,252,155660,2,0,P|372:240|436:304,2,180,2|0|2,0:0|0:0|0:0,0:0:0:0:
208,300,157424,1,8,0:0:0:0:
136,352,157777,6,0,P|80:376|48:372,2,90,4|8|4,0:1|0:0|0:0,0:0:0:0:
208,300,158836,1,8,0:0:0:0:
197,210,159189,2,0,L|182:72,2,135,4|0|8,0:1|0:0|0:0,0:0:0:0:
208,300,160601,5,4,1:2:0:0:
164,176,171895,6,0,B|152:242|152:242|172:287|172:287|159:362,1,180,4|2,0:0|0:0,0:0:0:0:
350,349,173307,2,0,B|339:286|339:286|359:242|359:242|347:175,1,180,0|0,0:1|0:0,0:0:0:0:
192,88,174719,6,0,P|144:104|96:96,1,90,2|8,0:0|0:0,0:0:0:0:
72,16,175424,2,0,P|20:76|28:144,2,135,2|6|8,0:0|0:0|0:0,0:0:0:0:
160,44,176836,2,0,L|180:140,1,90,2|8,0:0|0:0,0:0:0:0:
240,196,177542,6,0,L|224:288,1,90,4|8,0:0|0:0,0:0:0:0:
304,328,178248,2,0,P|372:336|432:292,2,135,2|2|8,0:0|0:0|0:0,0:0:0:0:
224,284,179660,2,0,P|164:276|124:296,1,90,2|8,0:0|0:0,0:0:0:0:
92,364,180366,6,0,P|56:324|88:208,1,180,4|2,0:0|0:0,0:0:0:0:
164,168,181424,1,12,0:0:0:0:
240,120,181777,2,0,L|228:20,2,90,12|12|8,0:0|0:0|0:0,0:0:0:0:
308,176,182836,1,12,0:0:0:0:
396,164,183189,6,0,P|416:88|344:16,2,180,4|8|8,0:0|0:0|0:0,0:0:0:0:
328,220,184954,2,0,P|296:208|236:212,1,90,8|8,0:0|0:0,0:0:0:0:
156,244,185660,1,8,0:0:0:0:
68,220,186013,6,0,P|48:144|120:72,2,180,12|8|8,0:0|0:0|0:0,0:0:0:0:
156,244,187777,1,8,0:0:0:0:
236,200,188130,2,0,L|264:104,1,90,12|12,0:0|0:0,0:0:0:0:
344,72,188836,6,0,B|364:164|364:164|424:228,2,180,12|8|8,0:0|0:0|0:0,0:0:0:0:
264,28,190601,2,0,L|164:52,1,90,8|8,0:0|0:0,0:0:0:0:
88,72,191307,1,8,0:0:0:0:
64,160,191660,6,0,B|44:240|44:240|92:212|148:232,1,180,12|12,0:0|0:0,0:0:0:0:
224,256,192719,1,8,0:0:0:0:
300,308,193071,2,0,P|404:316|460:248,1,180,8|12,0:0|0:0,0:0:0:0:
484,184,194130,1,8,0:0:0:0:
412,128,194483,6,0,P|308:120|252:188,2,180,12|8|8,0:0|0:0|0:0,0:0:0:0:
484,184,196248,2,0,P|500:136|488:84,1,90,8|12,0:0|0:0,0:0:0:0:
428,36,196954,1,8,0:0:0:0:
344,68,197307,6,0,L|160:40,2,180,12|8|8,0:0|0:0|0:0,0:0:0:0:
432,88,199071,2,0,L|448:188,1,90,8|12,0:0|0:0,0:0:0:0:
388,248,199777,1,12,0:0:0:0:
324,312,200130,6,0,P|232:336|164:288,1,180,12|8,0:0|0:0,0:0:0:0:
148,204,201189,1,12,0:0:0:0:
204,132,201542,2,0,P|204:56|188:28,1,90,8|8,0:0|0:0,0:0:0:0:
116,4,202248,2,0,P|116:80|132:108,1,90,12|8,0:0|0:0,0:0:0:0:
124,180,202954,6,0,L|104:284,1,90,12|8,0:0|0:0,0:0:0:0:
184,312,203660,2,0,P|236:280|320:280,2,135,8|4|2,0:0|0:0|0:0,0:0:0:0:
112,364,205071,1,12,0:0:0:0:
32,324,205424,1,6,0:0:0:0:
156,82,207189,6,0,P|140:136|148:176,2,90,4|8|2,0:1|0:0|0:0,0:0:0:0:
237,42,208248,1,8,0:0:0:0:
320,78,208601,2,0,P|392:86|436:42,2,135,0|4|12,0:0|0:0|0:0,0:0:0:0:
237,42,210013,6,0,L|193:138,1,90,2|12,0:0|0:0,0:0:0:0:
111,109,210719,2,0,L|103:213,1,90,2|8,0:0|0:0,0:0:0:0:
15,211,211424,2,0,L|31:307,2,90,0|12|4,0:0|0:0|0:0,0:0:0:0:
28,120,212483,1,8,0:0:0:0:
84,48,212836,6,0,P|152:36|256:92,1,180,4|2,0:1|0:0,0:0:0:0:
312,148,213895,1,8,0:0:0:0:
400,128,214248,2,0,P|416:68|388:-4,2,135,0|4|12,0:0|0:0|0:0,0:0:0:0:
376,216,215660,6,0,L|400:312,2,90,4|8|6,0:1|0:0|0:0,0:0:0:0:
288,180,216719,1,8,0:0:0:0:
204,148,217071,2,0,P|152:160|72:120,2,135,4|4|12,0:0|0:0|0:0,0:0:0:0:
284,108,218483,6,0,L|368:168,2,90,4|12|2,0:1|0:0|0:0,0:0:0:0:
208,56,219542,1,8,0:0:0:0:
124,88,219895,2,0,P|72:100|0:68,2,135,2|0|8,0:0|0:0|0:0,0:0:0:0:
208,56,221307,6,0,L|232:156,1,90,2|8,0:0|0:0,0:0:0:0:
320,136,222013,2,0,L|308:236,1,90,2|8,0:0|0:0,0:0:0:0:
396,252,222719,2,0,L|356:348,2,90,0|12|4,0:0|0:0|0:0,0:0:0:0:
428,168,223777,1,8,0:0:0:0:
392,88,224130,6,0,P|332:80|304:88,1,90,4|12,0:1|0:0,0:0:0:0:
228,136,224836,2,0,P|140:148|96:116,2,135,2|2|8,0:0|0:0|0:0,0:0:0:0:
316,156,226248,2,0,L|340:64,1,90,2|12,0:0|0:0,0:0:0:0:
428,88,226954,6,0,L|476:4,2,90,4|8|6,0:1|0:0|0:0,0:0:0:0:
376,160,228013,1,12,0:0:0:0:
292,128,228366,2,0,P|240:116|196:132,1,90,12|12,0:0|0:0,0:0:0:0:
136,180,229071,2,0,P|84:192|40:176,1,90,2|8,0:0|0:0,0:0:0:0:
4,104,229777,5,12,0:0:0:0:
