osu file format v14

[General]
AudioFilename: audio.mp3
AudioLeadIn: 0
PreviewTime: 68830
Countdown: 0
SampleSet: Soft
StackLeniency: 0.7
Mode: 0
LetterboxInBreaks: 0
WidescreenStoryboard: 0

[Editor]
Bookmarks: 23124,92830,104124,160595,171889,229771,252360
DistanceSpacing: 1
BeatDivisor: 4
GridSize: 8
TimelineZoom: 1.6

[Metadata]
Title:Kuusou Forest
TitleUnicode:空想フォレスト
Artist:Jin ft. Takumi Yoshida (phatmans after school)
ArtistUnicode:じん ft. ヨシダタクミ(phatmans after school)
Creator:Trust
Version:Normal
Source:メカクシティアクターズ
Tags:mekakucity actors kagerou project imagination forest marry kozakura captin1 luxodeh
BeatmapID:1196739
BeatmapSetID:424179

[Difficulty]
HPDrainRate:4
CircleSize:3.5
OverallDifficulty:4
ApproachRate:5
SliderMultiplier:1.2
SliderTickRate:1

[Events]
//Background and Video events
0,0,"souzou-forest.jpg",0,0
//Break Periods
2,93036,102930
2,160800,170695
//Storyboard Layer 0 (Background)
//Storyboard Layer 1 (Fail)
//Storyboard Layer 2 (Pass)
//Storyboard Layer 3 (Foreground)
//Storyboard Sound Samples

[TimingPoints]
1072,352.941176470588,4,2,1,60,1,0
51895,-100,4,2,1,70,0,0
57366,-100,4,2,1,75,0,0
67424,-100,4,2,1,45,0,0
67777,-100,4,2,1,75,0,0
68836,-100,4,2,1,80,0,1
92836,-100,4,2,1,65,0,0
126542,-100,4,2,1,75,0,0
136601,-100,4,2,1,45,0,0
136954,-100,4,2,1,75,0,0
138013,-100,4,2,1,80,0,1
160601,-100,4,2,1,70,0,0
183189,-100,4,2,1,80,0,0
194483,-100,4,2,1,82,0,0
207101,-100,4,2,1,5,0,0
207189,-100,4,2,1,85,0,1
229777,-100,4,2,1,70,0,0

[Colours]
Combo1 : 128,128,255
Combo2 : 255,128,255
Combo3 : 0,128,255
Combo4 : 255,128,128

[HitObjects]
10,81,23660,6,0,P|63:57|124:58,1,120,4|2,0:0|0:0,0:0:0:0:
175,88,24189,2,0,P|234:89|288:64,1,120,0|0,0:0|0:0,0:0:0:0:
394,6,24895,2,0,P|411:63|383:130,1,120,0|2,0:0|0:0,0:0:0:0:
340,148,25424,1,0,0:0:0:0:
302,195,25601,2,0,L|312:320,1,120,0|0,0:0|0:0,0:0:0:0:
318,374,26130,1,0,0:0:0:0:
220,304,26483,6,0,P|140:277|106:288,1,120,0|2,0:0|0:0,0:0:0:0:
51,306,27013,2,0,P|32:255|54:183,1,120,0|0,0:0|0:0,0:0:0:0:
84,145,27542,1,2,0:0:0:0:
71,25,27895,1,0,0:0:0:0:
190,12,28248,1,0,0:0:0:0:
211,132,28601,1,0,0:0:0:0:
170,175,28777,2,0,L|88:192,2,60
228,188,29307,6,0,P|288:193|350:165,1,120,2|2,0:0|0:0,0:0:0:0:
389,61,30013,2,0,P|329:56|267:84,1,120,2|2,0:0|0:0,0:0:0:0:
230,118,30542,1,0,0:0:0:0:
176,92,30719,1,2,0:0:0:0:
56,80,31071,1,2,0:0:0:0:
42,199,31424,1,2,0:0:0:0:
161,209,31777,2,0,P|203:208|230:205,1,60,2|0,0:0|0:0,0:0:0:0:
270,240,32130,6,0,P|335:248|379:209,1,120,2|2,0:0|0:0,0:0:0:0:
435,211,32660,2,0,P|442:260|447:278,2,60,0|2|0,0:0|0:0|0:0,0:0:0:0:
444,91,33366,2,0,P|411:33|349:55,1,120,0|0,0:0|0:0,0:0:0:0:
316,73,33895,1,0,0:0:0:0:
274,116,34071,2,0,P|214:141|148:139,1,120
107,110,34601,1,8,0:0:0:0:
42,213,34954,6,0,B|34:254|34:254|54:337,1,120,4|8,0:0|0:0,0:0:0:0:
163,377,35660,1,0,0:0:0:0:
256,301,36013,1,8,0:0:0:0:
349,377,36366,1,2,0:0:0:0:
459,330,36719,2,0,B|478:254|478:254|470:213,1,120,8|2,0:0|0:0,0:0:0:0:
445,95,37424,1,8,0:0:0:0:
361,181,37777,6,0,P|300:189|255:138,1,120,2|8,0:0|0:0,0:0:0:0:
218,107,38307,1,0,0:0:0:0:
162,132,38483,2,0,P|123:171|128:238,1,120,2|8,0:0|0:0,0:0:0:0:
95,349,39189,1,0,0:0:0:0:
211,377,39542,1,8,0:0:0:0:
241,261,39895,1,0,0:0:0:0:
125,232,40248,1,8,0:0:0:0:
88,120,40601,6,0,P|112:64|176:56,1,120,2|8,0:0|0:0,0:0:0:0:
216,88,41130,1,0,0:0:0:0:
256,136,41307,2,0,P|320:144|384:96,1,120,2|8,0:0|0:0,0:0:0:0:
464,48,42013,1,2,0:0:0:0:
456,168,42366,2,0,L|448:304,1,120,8|0,0:0|0:0,0:0:0:0:
336,328,43071,1,8,0:0:0:0:
232,272,43424,6,0,P|184:272|128:328,1,120,2|8,0:0|0:0,0:0:0:0:
96,368,43954,1,0,0:0:0:0:
40,336,44130,2,0,P|16:280|24:216,1,120,2|8,0:0|0:0,0:0:0:0:
48,168,44660,1,4,0:0:0:0:
104,144,44836,2,0,P|160:144|224:136,1,120,0|8,0:0|0:0,0:0:0:0:
296,32,45542,2,0,P|248:24|216:24,2,60,8|0|8,0:3|3:0|0:0,0:0:0:0:
352,56,46071,6,0,P|400:120|448:104,1,120,4|2,0:0|0:0,0:0:0:0:
488,96,46601,2,0,P|496:168|480:232,1,120,8|2,0:0|0:0,0:0:0:0:
383,275,47307,2,0,P|383:315|391:347,1,60,8|2,0:0|0:0,0:0:0:0:
296,256,47836,2,0,P|304:232|304:176,2,60,2|8|0,0:0|0:0|0:0,0:0:0:0:
248,296,48366,2,0,L|160:304,1,60,2|0,0:0|0:0,0:0:0:0:
136,272,48719,1,8,0:0:0:0:
48,352,49071,6,0,P|18:258|31:217,1,120,2|8,0:0|0:0,0:0:0:0:
54,124,49777,2,0,P|11:109|-2:100,2,60,4|0|8,0:3|0:0|0:0,0:0:0:0:
107,152,50307,2,0,P|173:134|234:128,1,120,4|0,0:0|0:0,0:0:0:0:
278,153,50836,2,0,P|328:200|383:164,1,120,8|2,0:0|0:0,0:0:0:0:
458,103,51542,1,8,0:0:0:0:
352,44,51895,6,0,P|299:44|218:37,1,120,4|8,0:0|0:0,0:0:0:0:
112,48,52601,2,0,P|74:83|80:157,1,120,2|8,0:0|0:0,0:0:0:0:
119,187,53130,2,0,P|149:208|164:288,1,120,2|2,0:0|0:0,0:0:0:0:
145,342,53660,1,8,0:0:0:0:
253,290,54013,2,0,P|360:268|396:268,1,120,2|8,0:0|0:0,0:0:0:0:
422,296,54542,6,0,P|467:292|481:209,1,120,4|2,0:0|0:0,0:0:0:0:
474,171,55071,1,8,0:0:0:0:
399,76,55424,2,0,P|420:16|420:9,2,60,2|2|8,0:0|0:0|0:0,0:0:0:0:
340,92,55954,2,0,P|280:86|219:123,1,120,4|8,0:0|0:0,0:0:0:0:
183,152,56483,1,8,0:0:0:0:
97,75,56836,2,0,P|89:28|93:-4,1,60,8|8,0:0|0:0,0:0:0:0:
2,96,57366,6,0,P|13:180|-4:235,1,120,4|8,0:0|0:0,0:0:0:0:
8,272,57895,2,0,P|71:235|141:242,1,120,12|2,0:0|0:0,0:0:0:0:
224,296,58601,1,8,0:0:0:0:
328,240,58954,1,0,0:0:0:0:
435,293,59307,2,0,P|448:234|416:160,1,120,8|2,0:0|0:0,0:0:0:0:
366,76,60013,1,8,0:0:0:0:
250,129,60366,6,0,P|165:125|135:98,1,120,0|8,0:0|0:0,0:0:0:0:
80,104,60895,2,0,P|74:165|31:237,1,120,4|2,0:3|0:0,0:0:0:0:
6,261,61424,1,8,0:0:0:0:
32,314,61601,2,0,P|121:318|156:280,1,120,4|2,0:0|0:0,0:0:0:0:
185,261,62130,2,0,P|233:215|289:213,1,120,8|2,0:0|0:0,0:0:0:0:
399,245,62836,1,8,0:0:0:0:
500,181,63189,6,0,P|511:103|475:54,1,120,4|12,0:0|0:0,0:0:0:0:
382,21,63895,1,2,0:0:0:0:
431,129,64248,1,8,0:0:0:0:
338,211,64601,2,0,P|259:231|208:201,1,120,2|8,0:0|0:0,0:0:0:0:
139,118,65307,2,0,P|138:55|131:40,2,60,2|2|8,0:0|0:0|0:0,0:0:0:0:
103,163,65836,1,4,0:0:0:0:
256,192,66013,12,8,67424,0:0:0:0:
93,162,68836,6,0,P|98:210|109:241,1,60,4|0,0:1|0:0,0:0:0:0:
160,231,69189,2,0,P|173:276|174:301,1,60,8|0,0:0|0:0,0:0:0:0:
214,333,69542,2,0,P|263:346|335:313,1,120,2|8,0:0|0:0,0:0:0:0:
401,228,70248,2,0,P|444:243|473:266,2,60,0|2|8,0:0|0:0|0:0,0:0:0:0:
349,199,70777,2,0,P|332:138|352:83,1,120,4|4,0:0|0:0,0:0:0:0:
392,42,71307,1,8,0:0:0:0:
457,142,71660,5,2,0:0:0:0:
349,199,72013,2,0,P|292:206|236:173,1,120,8|2,0:0|0:0,0:0:0:0:
149,96,72719,2,0,P|88:73|26:91,2,120,8|0|12,0:0|0:0|0:0,0:0:0:0:
239,176,73777,1,6,0:0:0:0:
128,222,74130,1,8,0:0:0:0:
70,238,74307,1,0,0:0:0:0:
26,197,74483,6,0,P|23:104|44:76,1,120,4|12,0:1|0:0,0:0:0:0:
152,56,75189,2,0,P|242:58|270:38,1,120,2|8,0:0|0:0,0:0:0:0:
372,32,75895,1,0,0:0:0:0:
303,130,76248,2,0,P|289:195|300:257,2,120,8|0|12,0:0|0:0|0:0,0:0:0:0:
372,32,77307,5,0,0:0:0:0:
477,89,77660,2,0,P|452:156|385:160,1,120,8|6,0:0|0:0,0:0:0:0:
290,157,78366,2,0,P|237:151|207:160,1,60,12|0,0:0|0:0,0:0:0:0:
172,165,78719,2,0,P|113:189|41:160,2,120,6|8|2,0:0|0:0|0:0,0:0:0:0:
200,111,79601,2,0,P|197:51|188:33,2,60,6|12|2,0:0|0:0|0:0,0:0:0:0:
233,161,80130,5,4,0:1:0:0:
333,227,80483,1,12,0:0:0:0:
427,152,80836,2,0,P|452:217|440:277,1,120,2|8,0:0|0:0,0:0:0:0:
416,318,81366,1,2,0:0:0:0:
356,322,81542,2,0,P|272:320|237:339,1,120,0|12,0:0|0:0,0:0:0:0:
126,370,82248,1,4,0:0:0:0:
91,254,82601,1,8,0:0:0:0:
208,224,82954,6,0,P|262:151|259:107,1,120,2|8,0:0|0:0,0:0:0:0:
244,68,83483,1,0,0:0:0:0:
189,41,83660,2,0,P|99:56|71:89,1,120,2|8,0:0|0:0,0:0:0:0:
24,179,84366,1,0,0:0:0:0:
102,269,84719,2,0,P|100:337|71:380,2,120,12|6|8,0:0|0:0|0:0,0:0:0:0:
78,213,85601,1,0,0:0:0:0:
24,179,85777,6,0,P|52:147|150:136,1,120,4|12,0:0|0:0,0:0:0:0:
236,173,86483,2,0,P|294:163|337:122,1,120,2|8,0:0|0:0,0:0:0:0:
428,44,87189,2,0,P|423:135|434:175,1,120,0|8,0:0|0:0,0:0:0:0:
463,212,87719,1,4,0:0:0:0:
470,271,87895,2,0,P|466:315|459:339,2,60,2|4|12,0:0|0:0|0:0,0:0:0:0:
357,312,88601,6,0,P|317:353|236:350,2,120,4|8|6,0:0|0:0|0:0,0:0:0:0:
273,230,89660,2,0,P|230:246|197:248,1,60,8|2,0:0|0:0,0:0:0:0:
155,234,90013,2,0,P|109:238|80:249,2,60,12|0|4,0:0|0:0|3:0,0:0:0:0:
194,191,90542,2,0,P|211:132|185:76,1,120,8|2,0:3|0:0,0:0:0:0:
140,44,91071,1,2,0:3:0:0:
81,58,91248,1,0,0:0:0:0:
256,192,91424,12,4,92836,0:0:0:0:
425,254,104130,6,0,P|365:282|300:269,1,120,4|8,0:0|0:0,0:0:0:0:
251,171,104836,2,0,P|241:199|225:225,1,60,2|0,0:0|0:0,0:0:0:0:
166,218,105189,2,0,P|142:236|115:249,1,60,8|0,0:0|0:0,0:0:0:0:
55,254,105542,1,2,0:0:0:0:
27,137,105895,1,8,0:0:0:0:
145,119,106248,2,0,P|200:115|220:104,1,60,2|2,0:0|0:0,0:0:0:0:
248,153,106601,2,0,P|291:133|306:117,1,60,8|0,0:0|0:0,0:0:0:0:
339,79,106954,6,0,P|380:66|452:96,2,120,2|8|2,0:0|0:0|0:0,0:0:0:0:
221,54,108013,1,8,0:0:0:0:
191,106,108189,2,0,P|202:233|205:247,1,120,0|2,0:0|0:0,0:0:0:0:
241,269,108719,1,8,0:0:0:0:
298,253,108895,2,0,P|354:248|406:288,1,120,0|0,0:0|0:0,0:0:0:0:
433,336,109424,1,8,0:0:0:0:
506,241,109777,6,0,P|501:179|502:115,2,120,2|8|2,0:0|0:0|0:0,0:0:0:0:
433,336,110836,1,8,0:0:0:0:
386,297,111013,2,0,P|303:281|253:306,1,120,0|0,0:0|0:0,0:0:0:0:
216,268,111542,2,0,P|200:299|182:315,1,60,8|0,0:0|0:0,0:0:0:0:
122,302,111895,2,0,P|74:320|38:318,2,60,2|2|8,0:0|0:0|0:0,0:0:0:0:
176,194,112601,5,2,0:0:0:0:
99,101,112954,1,8,0:0:0:0:
200,36,113307,2,0,P|251:26|318:49,1,120,2|8,0:0|0:0,0:0:0:0:
358,87,113836,1,4,0:0:0:0:
337,143,114013,2,0,P|339:219|388:264,1,120,0|8,0:0|0:0,0:0:0:0:
448,337,114719,2,0,P|471:323|512:316,2,60,2|0|8,0:0|0:0|0:0,0:0:0:0:
387,334,115248,6,0,P|335:363|260:344,1,120,4|2,0:0|0:0,0:0:0:0:
225,324,115777,2,0,P|226:274|241:199,1,120,8|2,0:0|0:0,0:0:0:0:
299,200,116307,2,0,P|335:169|297:112,1,120,2|2,0:0|0:0,0:0:0:0:
193,67,117013,2,0,P|158:74|123:76,2,60,2|8|0,0:0|0:0|0:0,0:0:0:0:
239,29,117542,2,0,P|289:20|314:21,1,60,2|2,0:0|0:0,0:0:0:0:
356,36,117895,1,8,0:0:0:0:
430,129,118248,6,0,P|364:156|294:138,1,120,0|8,0:0|0:0,0:0:0:0:
201,208,118954,2,0,P|210:266|218:291,2,60,4|2|8,0:3|0:0|0:0,0:0:0:0:
210,148,119483,2,0,P|215:80|179:45,1,120,4|2,0:0|0:0,0:0:0:0:
120,40,120013,1,8,0:0:0:0:
81,85,120189,2,0,P|71:163|69:207,1,120,0|2,0:0|0:0,0:0:0:0:
41,258,120719,1,8,0:0:0:0:
119,348,121071,6,0,P|175:348|227:300,1,120,4|8,0:0|0:0,0:0:0:0:
260,261,121601,2,0,P|304:222|363:221,1,120,0|2,0:0|0:0,0:0:0:0:
420,241,122130,1,8,0:0:0:0:
473,214,122307,2,0,P|492:140|466:78,1,120,2|2,0:0|0:0,0:0:0:0:
449,48,122836,1,8,0:0:0:0:
329,58,123189,2,0,P|342:17|347:-10,2,60,2|2|8,0:0|0:0|0:0,0:0:0:0:
282,97,123719,6,0,P|235:94|171:134,1,120,4|2,0:0|0:0,0:0:0:0:
126,166,124248,2,0,P|116:256|97:295,2,120,8|2|8,0:0|0:0|0:0,0:0:0:0:
88,119,125130,2,0,P|93:74|163:57,1,120,4|2,0:0|0:0,0:0:0:0:
215,70,125660,2,0,P|299:79|340:62,1,120,8|4,0:0|0:3,0:0:0:0:
382,98,126189,2,0,P|444:84|466:83,2,60,2|8|4,0:3|0:0|0:0,0:0:0:0:
303,186,126895,6,0,P|241:172|219:171,1,60,2|12,0:0|0:0,0:0:0:0:
127,199,127424,1,2,0:0:0:0:
100,81,127777,1,8,0:0:0:0:
218,63,128130,2,0,P|289:68|331:35,2,120,0|8|2,0:0|0:0|0:0,0:0:0:0:
105,20,129189,1,8,0:0:0:0:
29,113,129542,6,0,P|32:187|46:258,1,120,0|8,0:0|0:0,0:0:0:0:
82,278,130071,2,0,P|159:257|213:278,1,120,0|2,0:0|0:0,0:0:0:0:
249,294,130601,1,8,0:0:0:0:
299,265,130777,1,4,0:0:0:0:
397,333,131130,2,0,P|397:304|408:270,1,60,2|8,0:0|0:0,0:0:0:0:
458,245,131483,2,0,P|477:180|443:116,1,120,2|2,0:0|0:0,0:0:0:0:
411,96,132013,2,0,P|346:91|326:91,1,60,8|0,0:0|0:0,0:0:0:0:
297,119,132366,6,0,P|246:149|187:150,2,120,4|8|2,0:0|0:0|0:0,0:0:0:0:
216,30,133424,1,8,0:0:0:0:
114,93,133777,2,0,P|98:179|113:211,1,120,2|8,0:0|0:0,0:0:0:0:
176,306,134483,2,0,P|137:321|113:346,2,60,2|2|8,0:0|0:0|0:0,0:0:0:0:
236,301,135013,1,4,0:0:0:0:
256,192,135189,12,8,136601,0:0:0:0:
78,266,138013,6,0,P|83:218|94:187,1,60,4|0,0:1|0:0,0:0:0:0:
145,197,138366,2,0,P|158:152|159:127,1,60,8|0,0:0|0:0,0:0:0:0:
188,93,138719,2,0,P|237:80|329:98,1,120,2|8,0:0|0:0,0:0:0:0:
362,104,139248,1,2,0:0:0:0:
402,155,139424,2,0,P|445:140|474:117,2,60,0|2|8,0:0|0:0|0:0,0:0:0:0:
357,195,139954,2,0,P|340:256|360:311,1,120,4|6,0:0|0:0,0:0:0:0:
400,350,140483,1,8,0:0:0:0:
465,249,140836,5,2,0:0:0:0:
357,195,141189,2,0,P|300:188|244:221,1,120,8|2,0:0|0:0,0:0:0:0:
149,288,141895,2,0,P|88:311|26:293,2,120,8|0|12,0:0|0:0|0:0,0:0:0:0:
247,217,142954,1,4,0:0:0:0:
135,171,143307,1,8,0:0:0:0:
77,152,143483,1,0,0:0:0:0:
26,187,143660,6,0,P|23:280|44:308,1,120,2|12,0:0|0:0,0:0:0:0:
152,328,144366,2,0,P|242:326|270:346,1,120,2|8,0:0|0:0,0:0:0:0:
384,343,145071,1,0,0:0:0:0:
303,254,145424,2,0,P|289:189|300:127,2,120,8|2|12,0:0|0:0|0:0,0:0:0:0:
384,343,146483,5,2,0:0:0:0:
470,260,146836,2,0,P|445:193|378:189,1,120,8|6,0:0|0:0,0:0:0:0:
290,227,147542,2,0,P|237:233|207:224,1,60,4|0,0:0|0:0,0:0:0:0:
172,219,147895,2,0,P|113:195|41:224,2,120,6|8|2,0:0|0:0|0:0,0:0:0:0:
200,273,148777,2,0,P|197:333|188:351,2,60,4|12|2,0:0|0:0|0:0,0:0:0:0:
233,223,149307,5,4,0:1:0:0:
333,157,149660,1,12,0:0:0:0:
427,232,150013,2,0,P|452:167|440:107,1,120,2|8,0:0|0:0,0:0:0:0:
416,66,150542,1,0,0:0:0:0:
356,62,150719,2,0,P|272:64|237:45,1,120,0|12,0:0|0:0,0:0:0:0:
126,14,151424,1,2,0:0:0:0:
91,130,151777,1,10,0:0:0:0:
208,160,152130,6,0,P|262:233|259:277,1,120,2|8,0:0|0:0,0:0:0:0:
244,316,152660,1,0,0:0:0:0:
189,343,152836,2,0,P|99:328|71:295,1,120,2|8,0:0|0:0,0:0:0:0:
24,205,153542,1,0,0:0:0:0:
102,115,153895,2,0,P|100:47|71:4,2,120,12|4|12,0:0|0:0|0:0,0:0:0:0:
78,171,154777,1,0,0:0:0:0:
24,205,154954,6,0,P|52:237|150:248,1,120,4|12,0:1|0:0,0:0:0:0:
236,211,155660,2,0,P|294:221|337:262,1,120,2|8,0:0|0:0,0:0:0:0:
428,340,156366,2,0,P|423:249|434:209,1,120,0|8,0:0|0:0,0:0:0:0:
463,172,156895,1,4,0:0:0:0:
470,113,157071,2,0,P|466:69|459:45,2,60,2|4|8,0:0|0:0|0:0,0:0:0:0:
357,72,157777,6,0,P|317:31|236:34,2,120,4|8|4,0:1|0:0|0:0,0:0:0:0:
273,154,158836,2,0,P|230:138|197:136,1,60,8|2,0:0|0:0,0:0:0:0:
156,146,159189,2,0,P|110:142|81:131,2,60,4|2|12,0:1|0:0|0:0,0:0:0:0:
194,193,159719,2,0,P|211:252|185:308,1,120,0|8,0:0|0:3,0:0:0:0:
140,340,160248,1,8,0:0:0:0:
81,326,160424,2,0,P|40:336|16:352,1,60,4|4,0:3|1:2,0:0:0:0:
72,97,171895,6,0,P|65:154|50:231,1,120,4|8,0:0|0:0,0:0:0:0:
170,187,172601,2,0,P|181:245|188:305,1,120,2|8,0:0|0:0,0:0:0:0:
284,232,173307,2,0,P|321:278|355:327,2,120,0|8|0,0:1|0:0|0:0,0:0:0:0:
170,187,174366,1,8,0:0:0:0:
67,249,174719,6,0,P|49:201|44:165,2,60,2|0|8,0:0|0:0|0:0,0:0:0:0:
124,354,175424,2,0,P|174:319|248:318,1,120,2|8,0:0|0:0,0:0:0:0:
289,331,175954,2,0,P|346:356|396:315,1,120,6|2,0:0|0:0,0:0:0:0:
398,267,176483,2,0,P|385:224|386:198,1,60,8|0,0:0|0:0,0:0:0:0:
330,182,176836,2,0,P|351:140|364:127,1,60,2|2,0:0|0:0,0:0:0:0:
328,79,177189,2,0,P|364:63|392:60,1,60,8|0,0:0|0:0,0:0:0:0:
443,53,177542,5,4,0:0:0:0:
507,154,177895,1,8,0:0:0:0:
432,247,178248,2,0,P|386:252|308:240,1,120,2|8,0:0|0:0,0:0:0:0:
278,191,178777,2,0,P|238:169|169:193,1,120,2|2,0:0|0:0,0:0:0:0:
136,240,179307,1,8,0:0:0:0:
80,218,179483,2,0,P|46:168|57:104,1,120,0|0,0:0|0:0,0:0:0:0:
88,62,180013,1,8,0:0:0:0:
196,10,180366,6,0,P|197:83|189:149,1,120,4|8,0:0|0:0,0:0:0:0:
294,193,181071,2,0,P|288:133|290:73,1,120,2|12,0:0|0:0,0:0:0:0:
408,92,181777,2,0,P|462:97|508:48,2,120,12|12|8,0:0|0:0|0:0,0:0:0:0:
359,55,182660,1,2,0:0:0:0:
300,65,182836,2,0,P|253:78|221:83,1,60,12|2,0:0|0:0,0:0:0:0:
183,67,183189,6,0,P|120:58|58:89,2,120,4|8|8,0:0|0:0|0:0,0:0:0:0:
136,178,184248,1,8,0:0:0:0:
203,277,184601,2,0,P|147:298|89:289,2,120,8|8|8,0:0|0:0|0:0,0:0:0:0:
305,214,185660,1,8,0:0:0:0:
422,240,186013,6,0,P|453:280|454:355,2,120,12|8|8,0:0|0:0|0:0,0:0:0:0:
305,214,187071,1,8,0:0:0:0:
215,294,187424,2,0,P|171:304|137:296,1,60,8|0,0:0|0:0,0:0:0:0:
125,353,187777,2,0,P|83:326|68:305,1,60,8|2,0:0|0:0,0:0:0:0:
19,302,188130,2,0,P|10:240|37:170,1,120,12|12,0:0|0:0,0:0:0:0:
110,100,188836,6,0,P|121:146|136:233,1,120,12|8,0:0|0:0,0:0:0:0:
227,293,189542,2,0,P|238:247|253:160,1,120,8|8,0:0|0:0,0:0:0:0:
354,114,190248,2,0,P|363:176|336:246,2,120,8|8|8,0:0|0:0|0:0,0:0:0:0:
251,50,191307,1,8,0:0:0:0:
167,140,191660,6,0,P|123:198|58:208,1,120,12|8,0:0|0:0,0:0:0:0:
0,301,192366,2,0,P|73:338|129:323,1,120,12|8,0:0|0:0,0:0:0:0:
224,304,193071,2,0,P|258:276|292:265,1,60,8|0,0:0|0:0,0:0:0:0:
321,305,193424,2,0,P|357:295|399:300,1,60,8|2,0:0|0:0,0:0:0:0:
428,325,193777,2,0,P|482:298|484:218,1,120,12|8,0:0|0:0,0:0:0:0:
447,135,194483,5,12,0:0:0:0:
360,217,194836,1,8,0:0:0:0:
282,125,195189,2,0,P|199:118|157:135,1,120,8|12,0:0|0:0,0:0:0:0:
100,230,195895,2,0,P|183:237|225:220,1,120,8|8,0:0|0:0,0:0:0:0:
282,125,196601,1,12,0:0:0:0:
360,217,196954,1,8,0:0:0:0:
453,141,197307,6,0,P|461:78|445:2,2,120,12|12|8,0:0|0:0|0:0,0:0:0:0:
360,217,198366,1,12,0:0:0:0:
252,164,198719,2,0,P|218:178|192:206,1,60,8|0,0:0|0:0,0:0:0:0:
145,170,199071,2,0,P|128:224|131:251,1,60,8|2,0:0|0:0,0:0:0:0:
72,250,199424,2,0,P|71:301|94:377,1,120,12|12,0:0|0:0,0:0:0:0:
203,317,200130,6,0,P|260:292|327:329,2,120,12|8|8,0:0|0:0|0:0,0:0:0:0:
88,364,201189,1,12,0:0:0:0:
14,268,201542,2,0,P|9:223|45:152,1,120,8|8,0:0|0:0,0:0:0:0:
147,101,202248,2,0,P|193:110|232:111,1,60,12|4,0:0|0:0,0:0:0:0:
265,120,202601,1,8,0:0:0:0:
322,101,202777,1,2,0:0:0:0:
362,56,202954,6,0,P|440:48|488:88,2,120,12|8|8,0:0|0:0|0:0,0:0:0:0:
400,168,204013,1,8,0:0:0:0:
400,168,204189,1,4,0:0:0:0:
256,192,204366,12,0,205601,0:0:0:0:
252,342,207189,6,0,P|286:337|326:313,1,60,4|0,0:1|0:0,0:0:0:0:
368,334,207542,2,0,P|389:306|401:262,1,60,8|0,0:0|0:0,0:0:0:0:
457,289,207895,2,0,P|461:227|433:166,1,120,2|8,0:0|0:0,0:0:0:0:
395,62,208601,2,0,P|457:55|467:58,2,60,0|2|8,0:0|0:0|0:0,0:0:0:0:
345,96,209130,2,0,P|274:105|217:69,1,120,4|4,0:0|0:0,0:0:0:0:
188,50,209660,2,0,P|155:76|128:86,1,60,12|2,0:0|0:0,0:0:0:0:
82,103,210013,5,2,0:0:0:0:
38,214,210366,1,12,0:0:0:0:
129,291,210719,2,0,P|82:327|2:321,2,120,2|8|0,0:0|0:0|0:0,0:0:0:0:
208,201,211777,2,0,P|255:165|335:171,1,120,12|4,0:0|0:0,0:0:0:0:
417,223,212483,1,8,0:0:0:0:
455,269,212660,1,0,0:0:0:0:
433,325,212836,6,0,P|374:361|303:348,1,120,4|12,0:1|0:0,0:0:0:0:
218,301,213542,2,0,P|202:353|190:369,2,60,2|2|8,0:0|0:0|0:0,0:0:0:0:
198,243,214071,2,0,P|175:201|198:116,1,120,2|2,0:0|0:0,0:0:0:0:
230,91,214601,2,0,P|293:84|364:84,2,120,8|2|12,0:0|0:0|0:0,0:0:0:0:
115,54,215660,5,4,0:1:0:0:
43,150,216013,2,0,P|41:226|80:266,1,120,8|6,0:0|0:0,0:0:0:0:
177,305,216719,2,0,P|219:284|255:279,1,60,8|2,0:0|0:0,0:0:0:0:
283,252,217071,2,0,P|338:263|414:229,2,120,4|8|2,0:0|0:0|0:0,0:0:0:0:
229,223,217954,2,0,P|234:195|230:146,2,60,4|12|2,0:0|0:0|0:0,0:0:0:0:
175,251,218483,5,4,0:1:0:0:
85,170,218836,1,12,0:0:0:0:
160,76,219189,2,0,P|216:51|285:63,1,120,2|8,0:0|0:0,0:0:0:0:
324,83,219719,1,0,0:0:0:0:
371,119,219895,2,0,P|399:208|422:251,1,120,0|12,0:0|0:0,0:0:0:0:
500,312,220601,1,4,0:0:0:0:
389,359,220954,1,8,0:0:0:0:
302,275,221307,6,0,P|242:270|178:306,1,120,2|8,0:0|0:0,0:0:0:0:
73,328,222013,2,0,P|69:276|119:203,1,120,2|8,0:0|0:0,0:0:0:0:
144,177,222542,1,2,0:0:0:0:
183,132,222719,2,0,P|187:80|137:7,2,120,0|12|4,0:0|0:0|0:0,0:0:0:0:
110,231,223777,1,8,0:0:0:0:
206,302,224130,6,0,P|249:285|291:282,1,60,4|2,0:1|0:0,0:0:0:0:
322,289,224483,1,12,0:0:0:0:
422,354,224836,2,0,P|441:305|416:219,1,120,2|8,0:0|0:0,0:0:0:0:
376,211,225366,2,0,P|327:178|307:109,1,120,2|2,0:0|0:0,0:0:0:0:
332,68,225895,1,8,0:0:0:0:
219,109,226248,2,0,P|179:125|142:128,1,60,2|6,0:0|0:0,0:0:0:0:
102,125,226601,1,12,0:0:0:0:
23,215,226954,6,0,P|74:243|133:239,2,120,4|8|6,0:1|0:0|0:0,0:0:0:0:
102,125,228013,1,12,0:0:0:0:
192,46,228366,2,0,P|216:87|208:174,1,120,12|12,0:0|0:0,0:0:0:0:
133,239,229071,2,0,P|138:297|143:314,1,60,6|8,0:0|0:0,0:0:0:0:
187,332,229424,2,0,P|231:297|298:313,1,120,8|4,0:0|0:0,0:0:0:0:
