osu file format v14

[General]
AudioFilename: audio.mp3
AudioLeadIn: 0
PreviewTime: 68830
Countdown: 0
SampleSet: Soft
StackLeniency: 0.7
Mode: 0
LetterboxInBreaks: 0
WidescreenStoryboard: 0

[Editor]
Bookmarks: 23124,160595,171889,229771,252360
DistanceSpacing: 0.5
BeatDivisor: 4
GridSize: 8
TimelineZoom: 1.7

[Metadata]
Title:Kuusou Forest
TitleUnicode:空想フォレスト
Artist:Jin ft. Takumi Yoshida (phatmans after school)
ArtistUnicode:じん ft. ヨシダタクミ(phatmans after school)
Creator:Trust
Version:Insane
Source:メカクシティアクターズ
Tags:mekakucity actors kagerou project imagination forest marry kozakura captin1 luxodeh
BeatmapID:945032
BeatmapSetID:424179

[Difficulty]
HPDrainRate:6
CircleSize:4
OverallDifficulty:7
ApproachRate:8.7
SliderMultiplier:1.6
SliderTickRate:1

[Events]
//Background and Video events
0,0,"souzou-forest.jpg",0,0
//Break Periods
2,160801,171244
//Storyboard Layer 0 (Background)
//Storyboard Layer 1 (Fail)
//Storyboard Layer 2 (Pass)
//Storyboard Layer 3 (Foreground)
//Storyboard Sound Samples

[TimingPoints]
1072,352.941176470588,4,2,1,50,1,0
34954,-100,4,2,1,60,0,0
51895,-100,4,2,1,70,0,0
57366,-95.2380952380952,4,2,1,75,0,0
63189,-95.2380952380952,4,2,1,80,0,0
67424,-95.2380952380952,4,2,1,45,0,0
67777,-95.2380952380952,4,2,1,45,0,0
67954,-95.2380952380952,4,2,1,75,0,0
68836,-90.9090909090909,4,2,1,80,0,1
92836,-100,4,2,1,65,0,0
126542,-95.2380952380952,4,2,1,75,0,0
136601,-95.2380952380952,4,2,1,45,0,0
136954,-95.2380952380952,4,2,1,45,0,0
137130,-95.2380952380952,4,2,1,75,0,0
138013,-90.9090909090909,4,2,1,80,0,1
160601,-95.2380952380952,4,2,1,70,0,0
183189,-92.5925925925926,4,2,1,80,0,0
194483,-92.5925925925926,4,2,1,82,0,0
207189,-89.2857142857143,4,2,1,85,0,1
229777,-92.5925925925926,4,2,1,70,0,0
251836,-92.5925925925926,4,2,1,65,0,0
252013,-92.5925925925926,4,2,1,60,0,0
252189,-92.5925925925926,4,2,1,55,0,0

[Colours]
Combo1 : 128,128,255
Combo2 : 255,128,255
Combo3 : 0,128,255
Combo4 : 255,128,128

[HitObjects]
256,88,23130,5,2,0:0:0:0:
216,199,23307,2,0,P|253:209|302:196,1,80,8|0,0:0|0:0,0:0:0:0:
426,141,23660,6,0,P|445:192|387:272,1,160,4|2,0:0|0:0,0:0:0:0:
216,199,24189,2,0,P|230:144|262:114,1,80,0|2,0:0|0:0,0:0:0:0:
305,236,24542,2,0,P|290:290|258:320,1,80,0|2,0:0|0:0,0:0:0:0:
118,308,24895,6,0,P|64:252|78:172,1,160
210,108,25424,1,2,0:0:0:0:
210,108,25601,2,0,P|279:114|339:50,1,160
251,25,26130,1,2,0:0:0:0:
376,160,26307,5,0,0:0:0:0:
395,167,26395,1,0,0:0:0:0:
414,175,26483,2,0,L|446:7,1,160,2|2,0:0|0:0,0:0:0:0:
304,192,27013,2,0,L|272:360,1,160
304,192,27542,1,2,0:0:0:0:
205,220,27719,6,0,P|159:236|59:167,1,160
235,126,28248,1,2,0:0:0:0:
304,192,28424,2,0,P|350:208|450:139,1,160
462,130,28866,1,0,0:0:0:0:
462,130,28954,2,0,L|448:52,1,80,2|0,0:0|0:0,0:0:0:0:
235,126,29307,6,0,L|228:205,1,80,2|0,0:0|0:0,0:0:0:0:
368,240,29660,2,0,L|452:210,1,80,2|0,0:0|0:0,0:0:0:0:
310,99,30013,2,0,L|226:129,1,80,2|0,0:0|0:0,0:0:0:0:
112,232,30366,1,2,0:0:0:0:
131,129,30542,5,0,0:0:0:0:
131,129,30630,1,0,0:0:0:0:
131,129,30719,2,0,P|140:79|147:28,1,80,2|0,0:0|0:0,0:0:0:0:
302,114,31071,2,0,P|311:164|318:215,1,80
197,292,31424,2,0,P|204:246|229:212,1,80,2|0,0:0|0:0,0:0:0:0:
463,91,31777,2,0,P|436:138|398:164,1,80,2|0,0:0|0:0,0:0:0:0:
343,262,32130,6,0,P|269:278|185:220,1,160,2|0,0:0|0:0,0:0:0:0:
152,156,32660,1,0,0:0:0:0:
200,72,32836,2,0,P|238:45|297:33,2,80,2|0|2,0:0|0:0|0:0,0:0:0:0:
90,215,33366,2,0,B|103:282|103:282|74:332|105:387,1,160
0,247,33895,1,2,0:0:0:0:
188,334,34071,2,0,P|272:341|328:273,1,160
353,198,34601,1,8,0:0:0:0:
322,291,34777,1,0,0:0:0:0:
420,271,34954,6,0,L|498:254,1,80,4|0,0:0|0:0,0:0:0:0:
322,291,35307,1,8,0:0:0:0:
353,198,35483,2,0,P|303:195|261:216,1,80,0|2,0:0|0:0,0:0:0:0:
187,253,35836,1,0,0:0:0:0:
124,108,36013,1,8,0:0:0:0:
195,176,36189,6,0,P|200:216|181:260,1,80
100,299,36542,1,0,0:0:0:0:
98,121,36719,1,8,0:0:0:0:
195,176,36895,2,0,P|268:181|323:103,1,160
196,10,37424,1,8,0:0:0:0:
235,98,37601,1,0,0:0:0:0:
328,43,37777,6,0,L|409:-5,1,80,2|0,0:0|0:0,0:0:0:0:
512,70,38130,2,0,L|441:111,1,80,8|0,0:0|0:0,0:0:0:0:
328,232,38483,2,0,P|382:225|416:196,1,80,2|0,0:0|0:0,0:0:0:0:
184,200,38836,1,8,0:0:0:0:
257,277,39013,6,0,P|266:327|251:369,1,80,0|2,0:0|0:0,0:0:0:0:
162,314,39366,1,0,0:0:0:0:
267,199,39542,2,0,L|253:105,1,80,8|0,0:0|0:0,0:0:0:0:
145,52,39895,2,0,L|132:137,1,80,2|0,0:0|0:0,0:0:0:0:
317,40,40248,1,8,0:0:0:0:
256,120,40424,1,0,0:0:0:0:
256,120,40513,1,0,0:0:0:0:
256,120,40601,6,0,P|356:133|397:93,1,160,2|8,0:0|0:0,0:0:0:0:
447,8,41130,1,0,0:0:0:0:
395,98,41307,2,0,P|395:150|419:186,1,80,2|0,0:0|0:0,0:0:0:0:
507,298,41660,1,8,0:0:0:0:
476,217,41836,1,0,0:0:0:0:
476,217,41924,1,0,0:0:0:0:
476,217,42013,6,0,P|429:251|418:293,1,80,2|0,0:0|0:0,0:0:0:0:
473,126,42366,1,8,0:0:0:0:
345,252,42542,2,0,P|251:262|189:192,1,160
176,88,43071,1,8,0:0:0:0:
286,175,43248,1,0,0:0:0:0:
133,159,43424,6,0,L|33:146,1,80,2|0,0:0|0:0,0:0:0:0:
200,319,43777,1,8,0:0:0:0:
214,222,43954,1,0,0:0:0:0:
214,222,44042,1,0,0:0:0:0:
214,222,44130,1,2,0:0:0:0:
124,257,44307,1,2,0:0:0:0:
224,338,44483,1,8,0:0:0:0:
96,187,44660,6,0,B|100:131|100:131|80:91|80:91|88:27,1,160,4|2,0:0|0:0,0:0:0:0:
0,136,45189,1,8,0:0:0:0:
182,89,45366,1,2,0:0:0:0:
210,80,45454,1,0,0:0:0:0:
239,73,45542,1,8,0:3:0:0:
174,0,45719,1,0,3:0:0:0:
240,176,45895,1,8,0:0:0:0:
366,91,46071,6,0,P|471:90|512:141,1,160,4|2,0:0|0:0,0:0:0:0:
327,173,46601,1,8,0:0:0:0:
250,100,46777,1,0,0:0:0:0:
422,173,46954,2,0,P|410:222|363:257,1,80,2|2,0:0|0:0,0:0:0:0:
289,308,47307,1,8,0:0:0:0:
327,173,47483,6,0,P|319:117|283:81,1,80,2|0,0:0|0:0,0:0:0:0:
422,173,47836,1,2,0:0:0:0:
327,173,48013,1,8,0:0:0:0:
445,89,48189,2,0,P|481:107|504:140,1,80,0|2,0:0|0:0,0:0:0:0:
442,296,48542,1,2,0:0:0:0:
327,173,48719,2,0,L|307:72,1,80,8|0,0:0|0:0,0:0:0:0:
180,40,49071,6,0,L|192:122,1,80,2|2,0:0|0:0,0:0:0:0:
124,208,49424,1,8,0:0:0:0:
308,176,49601,1,2,0:0:0:0:
337,170,49689,1,0,0:0:0:0:
366,164,49777,1,4,0:3:0:0:
440,220,49954,1,2,0:0:0:0:
284,181,50130,1,8,0:0:0:0:
410,83,50307,6,0,P|458:147|434:226,1,160,4|2,0:0|0:0,0:0:0:0:
312,372,50836,2,0,P|284:324|292:264,1,80,8|0,0:0|0:0,0:0:0:0:
282,300,51101,1,0,0:0:0:0:
282,300,51189,1,0,0:0:0:0:
387,303,51366,1,2,0:0:0:0:
283,221,51542,2,0,P|221:215|186:237,1,80,8|0,0:3|0:0,0:0:0:0:
204,365,51895,6,0,P|236:298|184:206,1,160,4|8,0:0|0:0,0:0:0:0:
63,221,52424,1,0,0:0:0:0:
136,292,52601,1,2,0:0:0:0:
206,221,52777,1,2,0:0:0:0:
204,365,52954,1,8,0:0:0:0:
126,170,53130,6,0,P|174:130|276:155,1,160,2|2,0:0|0:0,0:0:0:0:
376,220,53660,2,0,L|376:320,1,80,8|2,0:0|0:0,0:0:0:0:
376,320,53924,1,0,0:0:0:0:
376,340,54013,1,2,0:0:0:0:
472,280,54189,1,2,0:0:0:0:
376,220,54366,1,8,0:0:0:0:
452,135,54542,6,0,P|490:212|458:296,1,160,4|2,0:0|0:0,0:0:0:0:
452,300,54983,1,0,0:0:0:0:
423,304,55071,1,8,0:0:0:0:
394,298,55160,1,0,0:0:0:0:
375,278,55248,1,0,0:0:0:0:
366,247,55336,1,0,0:0:0:0:
376,220,55424,1,2,0:0:0:0:
451,134,55601,1,2,0:0:0:0:
352,72,55777,1,8,0:0:0:0:
164,156,55954,6,0,B|223:151|223:151|261:173|261:173|341:167,1,160,4|8,0:0|0:0,0:0:0:0:
96,240,56483,1,8,0:0:0:0:
96,240,56571,1,0,0:0:0:0:
96,240,56660,1,2,0:0:0:0:
136,72,56836,1,8,0:0:0:0:
283,166,57013,1,8,0:0:0:0:
324,179,57101,1,8,0:0:0:0:
366,176,57189,1,8,0:0:0:0:
405,158,57277,1,8,0:0:0:0:
428,119,57366,6,0,L|343:87,1,83.9999974365235,4|0,0:0|0:0,0:0:0:0:
164,203,57719,1,8,0:0:0:0:
250,89,57895,2,0,P|243:32|207:-3,1,83.9999974365235,12|0,0:0|0:0,0:0:0:0:
227,11,58160,1,0,0:0:0:0:
227,11,58248,1,2,0:0:0:0:
339,34,58424,1,2,0:0:0:0:
154,74,58601,2,0,L|58:62,1,83.9999974365235,8|2,0:0|0:0,0:0:0:0:
303,159,58954,6,0,L|414:172,1,83.9999974365235,0|2,0:0|0:0,0:0:0:0:
489,102,59307,1,8,0:0:0:0:
389,252,59483,1,0,0:0:0:0:
398,280,59571,1,0,0:0:0:0:
407,309,59660,1,2,0:0:0:0:
487,373,59836,1,2,0:0:0:0:
311,299,60013,2,0,P|244:315|219:350,1,83.9999974365235,8|2,0:0|0:0,0:0:0:0:
168,276,60366,6,0,P|233:228|328:220,1,167.999994873047,0|8,0:0|0:0,0:0:0:0:
496,248,60895,1,4,0:3:0:0:
492,289,60983,1,0,0:0:0:0:
487,330,61071,1,8,0:3:0:0:
399,281,61248,1,2,0:0:0:0:
512,152,61424,1,8,0:0:0:0:
399,281,61601,6,0,P|334:290|258:221,1,167.999994873047,4|2,0:0|0:0,0:0:0:0:
158,147,62130,1,8,0:0:0:0:
351,199,62307,1,0,0:0:0:0:
351,199,62395,1,0,0:0:0:0:
351,199,62483,1,2,0:0:0:0:
285,366,62660,1,2,0:0:0:0:
165,231,62836,2,0,L|156:122,1,83.9999974365235,8|0,0:0|0:0,0:0:0:0:
62,112,63189,6,0,L|77:295,1,167.999994873047,4|12,0:0|0:0,0:0:0:0:
36,369,63719,1,2,0:0:0:0:
165,231,63895,2,0,P|204:203|272:213,1,83.9999974365235,2|2,0:0|0:0,0:0:0:0:
282,373,64248,2,0,P|248:335|242:294,1,83.9999974365235,8|0,0:0|0:0,0:0:0:0:
338,171,64601,6,0,P|339:236|320:268,1,83.9999974365235,2|0,0:0|0:0,0:0:0:0:
241,303,64954,1,8,0:0:0:0:
240,200,65130,1,0,0:0:0:0:
331,251,65307,5,2,0:0:0:0:
160,208,65483,1,2,0:0:0:0:
283,91,65660,1,8,0:0:0:0:
331,251,65836,1,4,0:0:0:0:
256,192,65924,12,8,67424,0:0:0:0:
360,200,67777,6,0,P|312:264|208:232,1,167.999994873047,4|0,0:0|0:0,0:0:0:0:
38,227,68307,1,2,0:0:0:0:
38,227,68395,1,2,0:0:0:0:
38,227,68483,2,0,P|59:174|60:131,1,83.9999974365235,4|0,0:0|0:0,0:0:0:0:
51,342,68836,6,0,P|88:323|122:286,1,88.000002685547,4|0,0:1|0:0,0:0:0:0:
164,103,69189,2,0,P|163:147|169:191,1,88.000002685547,8|0,0:0|0:0,0:0:0:0:
342,190,69542,2,0,P|347:146|345:103,1,88.000002685547,2|6,0:0|0:0,0:0:0:0:
392,289,69895,2,0,P|422:321|461:342,1,88.000002685547,8|2,0:0|0:0,0:0:0:0:
480,252,70248,5,0,0:0:0:0:
384,384,70424,1,2,0:0:0:0:
218,347,70601,1,8,0:0:0:0:
317,195,70777,2,0,P|317:259|297:294,1,88.000002685547,4|0,0:0|0:0,0:0:0:0:
218,347,71130,1,4,0:0:0:0:
392,289,71307,2,0,L|489:261,1,88.000002685547,8|4,0:0|0:0,0:0:0:0:
317,195,71660,6,0,P|304:135|353:57,1,132.00000402832,2|0,0:0|0:0,0:0:0:0:
424,56,72013,2,0,P|480:59|520:32,1,88.000002685547,8|0,0:0|0:0,0:0:0:0:
396,145,72366,1,2,0:0:0:0:
286,29,72542,1,2,0:0:0:0:
396,145,72719,2,0,P|410:200|388:257,1,88.000002685547,8|2,0:0|0:0,0:0:0:0:
282,357,73071,6,0,L|274:263,1,88.000002685547,0|2,0:0|0:0,0:0:0:0:
148,124,73424,2,0,L|162:231,1,88.000002685547,12|0,0:0|0:0,0:0:0:0:
50,313,73777,2,0,P|36:258|58:201,1,88.000002685547,6|2,0:0|0:0,0:0:0:0:
228,132,74130,1,8,0:0:0:0:
85,63,74307,1,0,0:0:0:0:
174,208,74483,6,0,P|227:226|309:171,1,132.00000402832,4|0,0:1|0:0,0:0:0:0:
318,50,74836,2,0,P|315:102|341:152,1,88.000002685547,12|0,0:0|0:0,0:0:0:0:
485,72,75189,1,2,0:0:0:0:
485,72,75366,1,2,0:0:0:0:
327,134,75542,2,0,P|283:132|245:111,1,88.000002685547,8|2,0:0|0:0,0:0:0:0:
59,217,75895,6,0,P|115:193|172:208,1,88.000002685547,0|2,0:0|0:0,0:0:0:0:
304,251,76248,1,8,0:0:0:0:
123,295,76424,1,4,0:0:0:0:
140,194,76601,2,0,L|155:96,1,88.000002685547,0|6,0:0|0:0,0:0:0:0:
50,240,76954,1,12,0:0:0:0:
50,240,77042,1,0,0:0:0:0:
50,240,77130,1,2,0:0:0:0:
177,288,77307,6,0,P|250:277|283:241,1,88.000002685547
413,42,77660,2,0,P|442:74|454:117,1,88.000002685547,8|0,0:0|0:0,0:0:0:0:
336,254,78013,2,0,P|363:178|392:153,1,88.000002685547,6|2,0:0|0:0,0:0:0:0:
454,117,78366,1,12,0:0:0:0:
406,327,78542,1,2,0:0:0:0:
304,240,78719,6,0,P|248:208|200:192,1,88.000002685547,6|2,0:0|0:0,0:0:0:0:
454,117,79071,2,0,P|398:133|358:133,1,88.000002685547,8|4,0:0|0:0,0:0:0:0:
216,104,79424,1,2,0:0:0:0:
181,304,79601,5,6,0:0:0:0:
309,187,79777,1,12,0:0:0:0:
355,376,79954,1,2,0:0:0:0:
414,208,80130,6,0,P|410:149|365:100,1,88.000002685547,4|0,0:1|0:0,0:0:0:0:
230,225,80483,2,12,P|266:201|317:185,1,88.000002685547,12|0,0:0|0:0,0:0:0:0:
454,321,80836,1,2,0:0:0:0:
364,362,81013,1,2,0:0:0:0:
277,312,81189,2,0,P|216:308|176:327,1,88.000002685547,8|2,0:0|0:0,0:0:0:0:
77,350,81542,6,0,P|17:337|-14:294,1,88.000002685547,0|2,0:0|0:0,0:0:0:0:
101,138,81895,2,0,L|91:253,1,88.000002685547,12|2,0:0|0:0,0:0:0:0:
251,123,82248,2,0,L|243:22,1,88.000002685547,4|2,0:0|0:0,0:0:0:0:
104,116,82601,1,8,0:0:0:0:
216,220,82777,1,2,0:0:0:0:
355,148,82954,6,0,L|364:27,1,88.000002685547,2|0,0:0|0:0,0:0:0:0:
506,243,83307,2,0,P|457:255|407:235,1,88.000002685547,8|0,0:0|0:0,0:0:0:0:
276,60,83660,2,0,P|340:52|387:81,1,88.000002685547,2|2,0:0|0:0,0:0:0:0:
458,173,84013,1,8,0:0:0:0:
352,216,84189,1,2,0:0:0:0:
265,142,84366,6,0,P|266:74|296:42,1,88.000002685547
169,167,84719,1,12,0:0:0:0:
352,216,84895,1,2,0:0:0:0:
169,167,85071,1,6,0:0:0:0:
352,216,85248,1,2,0:0:0:0:
87,190,85424,2,0,P|85:136|133:87,1,88.000002685547,8|0,0:0|0:0,0:0:0:0:
286,144,85777,6,0,P|225:180|143:140,1,132.00000402832,4|0,0:0|0:0,0:0:0:0:
101,107,86130,2,0,L|90:8,1,88.000002685547,12|0,0:0|0:0,0:0:0:0:
50,182,86483,1,2,0:0:0:0:
185,90,86660,1,2,0:0:0:0:
112,248,86836,2,8,P|57:273|0:256,1,88.000002685547,8|2,0:0|0:0,0:0:0:0:
185,90,87189,6,0,L|289:72,1,88.000002685547,0|2,0:0|0:0,0:0:0:0:
108,20,87542,1,8,0:0:0:0:
185,90,87719,1,4,0:0:0:0:
128,176,87895,2,0,L|41:191,1,88.000002685547,2|4,0:0|0:0,0:0:0:0:
2,98,88248,1,12,0:0:0:0:
2,98,88336,1,0,0:0:0:0:
2,98,88424,1,0,0:0:0:0:
170,244,88601,6,0,P|222:259|287:146,2,176.000005371094,4|8|6,0:0|0:0|0:0,0:0:0:0:
37,111,89483,1,2,0:0:0:0:
215,175,89660,1,8,0:0:0:0:
147,91,89836,1,2,0:0:0:0:
8,248,90013,6,0,L|97:240,1,88.000002685547,12|0,0:0|0:0,0:0:0:0:
215,175,90366,1,4,0:0:0:0:
247,145,90454,1,0,3:0:0:0:
261,103,90542,1,8,0:3:0:0:
255,59,90630,1,0,3:0:0:0:
231,21,90719,1,8,0:3:0:0:
368,120,90895,1,2,0:0:0:0:
261,103,91071,1,2,0:3:0:0:
152,88,91248,1,0,0:0:0:0:
368,120,91424,6,0,L|428:126,2,44.0000013427735
300,199,91777,1,0,0:0:0:0:
389,36,91954,1,2,0:0:0:0:
389,36,92042,1,0,0:0:0:0:
389,36,92130,1,8,0:0:0:0:
487,184,92307,1,8,0:0:0:0:
493,218,92395,1,8,0:0:0:0:
484,252,92483,1,8,3:0:0:0:
463,279,92571,1,0,0:0:0:0:
431,295,92660,1,8,0:3:0:0:
397,297,92748,1,8,0:3:0:0:
364,284,92836,6,0,P|312:277|264:297,1,80,4|0,0:0|0:0,0:0:0:0:
132,336,93189,1,2,0:0:0:0:
224,360,93366,1,0,0:0:0:0:
286,284,93542,2,0,L|289:186,1,80,2|0,0:0|0:0,0:0:0:0:
347,130,93895,1,2,0:0:0:0:
286,284,94071,6,0,P|325:294|382:272,1,80,0|2,0:0|0:0,0:0:0:0:
454,254,94424,1,0,0:0:0:0:
324,205,94601,1,2,0:0:0:0:
446,330,94777,2,0,P|459:280|445:237,1,80,0|2,0:0|0:0,0:0:0:0:
416,160,95130,1,0,0:0:0:0:
512,176,95307,1,2,0:0:0:0:
365,284,95483,1,0,0:0:0:0:
365,284,95571,1,0,0:0:0:0:
365,284,95660,6,0,L|277:276,1,80,2|0,0:0|0:0,0:0:0:0:
144,362,96013,2,0,P|202:355|232:328,1,80,2|0,0:0|0:0,0:0:0:0:
285,276,96366,1,2,0:0:0:0:
157,276,96542,2,0,P|124:205|131:171,1,80,0|2,0:0|0:0,0:0:0:0:
43,148,96895,1,0,0:0:0:0:
43,148,96983,1,0,0:0:0:0:
43,148,97071,6,0,P|28:209|40:250,1,80,2|0,0:0|0:0,0:0:0:0:
64,340,97424,1,2,0:0:0:0:
157,275,97601,1,0,0:0:0:0:
183,276,97689,1,0,0:0:0:0:
211,277,97777,1,2,0:0:0:0:
239,278,97866,1,0,0:0:0:0:
267,279,97954,1,0,0:0:0:0:
424,208,98130,2,0,L|320:204,1,80,2|0,0:0|0:0,0:0:0:0:
157,275,98483,5,2,0:0:0:0:
259,199,98660,1,0,0:0:0:0:
356,292,98836,2,0,P|336:340|292:364,1,80,2|0,0:0|0:0,0:0:0:0:
384,200,99189,1,2,0:0:0:0:
267,279,99366,1,0,0:0:0:0:
448,356,99542,1,2,0:0:0:0:
380,279,99719,1,0,0:0:0:0:
380,279,99807,1,0,0:0:0:0:
380,279,99895,6,0,L|384:179,1,80,2|0,0:0|0:0,0:0:0:0:
333,91,100248,1,2,0:0:0:0:
459,185,100424,2,0,P|411:201|367:193,1,80,0|2,0:0|0:0,0:0:0:0:
204,127,100777,2,0,L|193:79,3,26.6666666666667,0|0|0|2,0:0|0:0|0:0|0:0,0:0:0:0:
304,176,101130,1,0,0:0:0:0:
398,118,101307,6,0,L|410:38,1,80,2|0,0:0|0:0,0:0:0:0:
204,127,101660,2,0,L|185:47,1,80,2|0,0:0|0:0,0:0:0:0:
255,306,102013,1,2,0:0:0:0:
255,306,102101,1,0,0:0:0:0:
255,306,102189,1,0,0:0:0:0:
172,356,102366,1,2,0:0:0:0:
116,276,102542,6,0,P|188:260|260:316,1,160
338,356,103071,1,2,0:0:0:0:
394,276,103248,2,0,P|313:262|243:341,1,160,0|2,0:0|0:0,0:0:0:0:
92,348,103777,2,0,L|176:356,1,80,12|0,0:0|0:0,0:0:0:0:
338,356,104130,5,4,0:0:0:0:
328,120,104307,1,2,0:0:0:0:
312,208,104483,1,8,0:0:0:0:
208,68,104660,1,0,0:0:0:0:
216,160,104836,1,2,0:0:0:0:
80,36,105013,1,0,0:0:0:0:
114,126,105189,1,8,0:0:0:0:
8,184,105366,1,0,0:0:0:0:
8,184,105454,1,0,0:0:0:0:
8,184,105542,1,2,0:0:0:0:
52,272,105719,5,0,0:0:0:0:
114,126,105895,1,8,0:0:0:0:
80,36,106071,1,0,0:0:0:0:
80,36,106160,1,0,0:0:0:0:
80,36,106248,1,2,0:0:0:0:
232,64,106424,1,2,0:0:0:0:
114,126,106601,1,8,0:0:0:0:
315,188,106777,1,0,0:0:0:0:
336,100,106954,6,0,L|352:20,1,80,2|0,0:0|0:0,0:0:0:0:
232,64,107307,1,8,0:0:0:0:
336,100,107483,1,0,0:0:0:0:
176,144,107660,2,0,P|144:108|140:48,1,80,2|0,0:0|0:0,0:0:0:0:
60,172,108013,1,8,0:0:0:0:
232,64,108189,1,0,0:0:0:0:
232,64,108277,1,0,0:0:0:0:
232,64,108366,5,2,0:0:0:0:
192,224,108542,1,2,0:0:0:0:
51,148,108719,1,8,0:0:0:0:
160,120,108895,1,0,0:0:0:0:
76,256,109071,2,0,P|18:255|-13:239,1,80,2|0,0:0|0:0,0:0:0:0:
142,42,109424,2,0,L|166:146,1,80,8|0,0:0|0:0,0:0:0:0:
160,284,109777,5,2,0:0:0:0:
252,268,109954,1,0,0:0:0:0:
76,256,110130,2,0,P|76:316|108:356,1,80,8|0,0:0|0:0,0:0:0:0:
252,268,110483,1,2,0:0:0:0:
160,284,110660,1,2,0:0:0:0:
344,248,110836,1,8,0:0:0:0:
252,268,111013,6,0,P|279:176|364:156,1,160
456,297,111542,2,0,P|463:356|447:389,1,80,8|0,0:0|0:0,0:0:0:0:
505,229,111895,2,0,P|440:210|399:233,1,80,2|2,0:0|0:0,0:0:0:0:
252,270,112248,1,8,0:0:0:0:
375,337,112424,1,0,0:0:0:0:
313,195,112601,6,0,P|303:148|333:91,1,80,2|0,0:0|0:0,0:0:0:0:
252,270,112954,2,0,P|262:317|232:374,1,80,8|0,0:0|0:0,0:0:0:0:
228,362,113219,1,0,0:0:0:0:
202,375,113307,1,2,0:0:0:0:
135,202,113483,1,2,0:0:0:0:
252,270,113660,1,8,0:0:0:0:
45,240,113836,6,0,P|37:178|57:140,1,80,4|0,0:0|0:0,0:0:0:0:
98,85,114189,1,2,0:0:0:0:
122,73,114277,1,0,0:0:0:0:
149,68,114366,1,8,0:0:0:0:
177,67,114454,1,0,0:0:0:0:
203,74,114542,1,8,0:3:0:0:
226,87,114630,1,0,0:0:0:0:
251,101,114719,1,2,0:0:0:0:
275,110,114807,1,0,0:0:0:0:
302,115,114895,1,2,0:0:0:0:
330,111,114983,1,0,0:0:0:0:
352,102,115071,1,8,0:0:0:0:
478,158,115248,6,0,P|435:124|454:15,1,160,4|2,0:0|0:0,0:0:0:0:
405,219,115777,1,8,0:0:0:0:
508,80,115954,1,0,0:0:0:0:
313,194,116130,2,0,P|313:244|340:281,1,80,2|2,0:0|0:0,0:0:0:0:
467,317,116483,1,8,0:0:0:0:
405,219,116660,6,0,P|425:170|469:149,1,80,2|0,0:0|0:0,0:0:0:0:
328,270,117013,1,2,0:0:0:0:
242,233,117189,1,8,0:0:0:0:
405,219,117366,2,0,P|422:273|403:323,1,80,0|2,0:0|0:0,0:0:0:0:
305,348,117719,1,2,0:0:0:0:
242,233,117895,2,0,L|256:134,1,80,8|0,0:0|0:0,0:0:0:0:
179,62,118248,6,0,L|163:162,1,80,0|2,0:0|0:0,0:0:0:0:
243,234,118601,1,8,0:0:0:0:
114,276,118777,1,2,0:0:0:0:
83,286,118866,1,0,0:0:0:0:
53,294,118954,1,4,0:3:0:0:
61,201,119130,1,2,0:0:0:0:
112,371,119307,1,8,0:0:0:0:
181,180,119483,6,0,B|187:227|220:250|220:250|201:290|220:351,1,160,4|2,0:0|0:0,0:0:0:0:
114,276,120013,1,8,0:0:0:0:
310,270,120189,2,0,P|308:214|282:181,1,80,0|2,0:0|0:0,0:0:0:0:
217,249,120542,1,2,0:0:0:0:
310,270,120719,2,0,L|415:288,1,80,8|0,0:0|0:0,0:0:0:0:
171,334,121071,6,0,P|144:312|154:178,1,160,4|8,0:0|0:0,0:0:0:0:
244,88,121601,1,0,0:0:0:0:
85,132,121777,1,2,0:0:0:0:
217,249,121954,2,0,P|269:244|307:195,1,80,2|8,0:0|0:0,0:0:0:0:
372,270,122307,1,2,0:0:0:0:
230,165,122483,6,0,P|234:108|260:72,1,80,0|2,0:0|0:0,0:0:0:0:
217,249,122836,2,0,L|124:288,1,80,8|0,0:0|0:0,0:0:0:0:
125,289,123101,1,0,0:0:0:0:
107,298,123189,1,2,0:0:0:0:
192,368,123366,1,2,0:0:0:0:
248,240,123542,1,8,0:0:0:0:
119,178,123719,6,0,P|81:101|113:17,1,160,4|2,0:0|0:0,0:0:0:0:
122,15,124160,1,0,0:0:0:0:
152,11,124248,1,8,0:0:0:0:
181,17,124336,1,0,0:0:0:0:
200,37,124424,1,0,0:0:0:0:
209,68,124513,1,0,0:0:0:0:
199,95,124601,1,2,0:0:0:0:
124,181,124777,1,2,0:0:0:0:
290,259,124954,1,8,0:0:0:0:
440,150,125130,6,0,B|360:123|361:183|268:144,1,160,4|2,0:0|0:0,0:0:0:0:
99,35,125660,1,8,0:0:0:0:
210,156,125836,1,8,0:0:0:0:
222,193,125924,1,0,0:0:0:0:
216,232,126013,1,4,0:3:0:0:
193,264,126101,1,0,0:0:0:0:
158,283,126189,1,2,0:3:0:0:
278,340,126366,1,8,0:0:0:0:
128,196,126542,6,0,P|118:139|195:63,1,167.999994873047,4|2,0:0|0:0,0:0:0:0:
44,260,127071,2,0,L|66:349,1,83.9999974365235,12|0,0:0|0:0,0:0:0:0:
19,153,127424,1,2,0:0:0:0:
128,196,127601,1,2,0:0:0:0:
0,146,127777,2,0,L|9:60,1,83.9999974365235,8|2,0:0|0:0,0:0:0:0:
190,0,128130,6,0,L|200:86,1,83.9999974365235,0|2,0:0|0:0,0:0:0:0:
140,170,128483,1,8,0:0:0:0:
270,139,128660,2,0,P|289:92|279:40,1,83.9999974365235,0|2,0:0|0:0,0:0:0:0:
372,132,129013,1,2,0:0:0:0:
199,83,129189,1,8,0:0:0:0:
372,132,129366,1,2,0:0:0:0:
270,139,129542,6,0,P|251:186|261:238,1,83.9999974365235,0|2,0:0|0:0,0:0:0:0:
112,198,129895,1,8,0:0:0:0:
270,139,130071,1,2,0:0:0:0:
270,139,130160,1,2,0:0:0:0:
270,139,130248,1,2,0:0:0:0:
132,36,130424,1,2,0:0:0:0:
112,198,130601,1,8,0:0:0:0:
270,139,130777,6,0,P|320:117|376:95,1,83.9999974365235,4|0,0:0|0:0,0:0:0:0:
143,57,131130,1,2,0:0:0:0:
128,171,131307,1,8,0:0:0:0:
241,129,131483,2,0,L|325:95,1,83.9999974365235,2|2,0:0|0:0,0:0:0:0:
224,229,131836,1,2,0:0:0:0:
398,136,132013,2,0,P|407:80|377:30,1,83.9999974365235,8|0,0:0|0:0,0:0:0:0:
172,76,132366,6,0,P|233:119|322:94,1,167.999994873047,4|8,0:0|0:0,0:0:0:0:
120,162,132895,1,0,0:0:0:0:
253,34,133071,1,2,0:0:0:0:
128,0,133248,1,2,0:0:0:0:
318,97,133424,2,0,L|425:80,1,83.9999974365235,8|0,0:0|0:0,0:0:0:0:
503,225,133777,6,0,P|438:250|400:238,1,83.9999974365235,2|0,0:0|0:0,0:0:0:0:
318,97,134130,2,0,L|328:-3,1,83.9999974365235,8|0,0:0|0:0,0:0:0:0:
230,176,134483,1,2,0:0:0:0:
447,39,134660,1,2,0:0:0:0:
397,153,134836,1,8,0:0:0:0:
231,41,135013,1,4,0:0:0:0:
256,192,135101,12,8,136601,0:0:0:0:
366,276,136954,6,0,P|414:298|499:225,1,167.999994873047,4|0,0:0|0:0,0:0:0:0:
272,12,137483,1,2,0:0:0:0:
272,12,137571,1,0,0:0:0:0:
272,12,137660,2,0,P|277:59|265:97,1,83.9999974365235,4|0,0:0|0:0,0:0:0:0:
148,307,138013,6,0,P|160:244|187:209,1,88.000002685547,4|0,0:1|0:0,0:0:0:0:
366,276,138366,2,0,P|351:200|325:174,1,88.000002685547,8|0,0:0|0:0,0:0:0:0:
143,200,138719,2,0,P|175:147|198:129,1,88.000002685547,2|4,0:0|0:0,0:0:0:0:
373,176,139071,1,8,0:0:0:0:
325,15,139248,1,2,0:0:0:0:
194,131,139424,6,0,P|127:129|89:98,1,88.000002685547,0|2,0:0|0:0,0:0:0:0:
163,43,139777,1,8,0:0:0:0:
38,184,139954,2,0,P|18:136|69:28,1,176.000005371094,4|6,0:0|0:0,0:0:0:0:
200,52,140483,2,0,P|258:56|306:13,1,88.000002685547,8|4,0:0|0:0,0:0:0:0:
335,119,140836,6,0,P|374:46|362:-3,1,132.00000402832,2|0,0:0|0:0,0:0:0:0:
335,119,141189,2,0,L|352:217,1,88.000002685547,8|0,0:0|0:0,0:0:0:0:
431,141,141542,1,2,0:0:0:0:
258,173,141719,1,2,0:0:0:0:
431,141,141895,2,0,L|415:54,1,88.000002685547,8|0,0:0|0:0,0:0:0:0:
350,204,142248,6,0,P|409:241|447:240,1,88.000002685547,0|2,0:0|0:0,0:0:0:0:
266,257,142601,2,0,P|251:203|267:155,1,88.000002685547,12|0,0:0|0:0,0:0:0:0:
350,71,142954,1,4,0:0:0:0:
189,145,143130,1,2,0:0:0:0:
349,203,143307,2,0,P|366:266|347:314,1,88.000002685547,8|0,0:0|0:0,0:0:0:0:
146,245,143660,6,0,P|199:227|281:282,1,132.00000402832,2|0,0:0|0:0,0:0:0:0:
71,304,144013,2,0,P|53:238|75:186,1,88.000002685547,12|0,0:0|0:0,0:0:0:0:
132,73,144366,1,2,0:0:0:0:
17,48,144542,1,2,0:0:0:0:
136,160,144719,2,0,P|198:136|221:93,1,88.000002685547,8|0,0:0|0:0,0:0:0:0:
312,8,145071,6,0,L|319:101,1,88.000002685547,0|2,0:0|0:0,0:0:0:0:
485,209,145424,1,8,0:0:0:0:
318,95,145601,1,4,0:0:0:0:
232,152,145777,2,0,L|238:239,1,88.000002685547,2|6,0:0|0:0,0:0:0:0:
145,210,146130,1,12,0:0:0:0:
145,210,146219,1,0,0:0:0:0:
145,210,146307,1,0,0:0:0:0:
318,95,146483,6,0,L|334:287,1,176.000005371094,2|8,0:0|0:0,0:0:0:0:
238,239,147013,1,0,0:0:0:0:
332,270,147189,1,6,0:0:0:0:
146,212,147366,1,2,0:0:0:0:
318,95,147542,2,0,L|327:206,1,88.000002685547,4|0,0:0|0:0,0:0:0:0:
200,87,147895,6,0,L|207:-1,1,88.000002685547,6|2,0:0|0:0,0:0:0:0:
415,220,148248,2,0,P|430:155|423:114,1,88.000002685547,8|4,0:0|0:0,0:0:0:0:
116,192,148601,2,0,P|101:127|108:86,1,88.000002685547,2|4,0:0|0:0,0:0:0:0:
380,63,148954,1,12,0:0:0:0:
242,198,149130,1,2,0:0:0:0:
296,55,149307,6,0,P|352:51|391:72,1,88.000002685547,4|0,0:1|0:0,0:0:0:0:
269,282,149660,2,0,P|208:283|170:258,1,88.000002685547,12|0,0:0|0:0,0:0:0:0:
116,192,150013,1,2,0:0:0:0:
307,118,150189,1,2,0:0:0:0:
242,197,150366,2,0,P|209:143|211:91,1,88.000002685547,8|0,0:0|0:0,0:0:0:0:
341,40,150719,6,0,P|323:101|294:128,1,88.000002685547,0|2,0:0|0:0,0:0:0:0:
124,176,151071,1,12,0:0:0:0:
167,12,151248,1,4,0:0:0:0:
307,118,151424,2,0,L|303:216,1,88.000002685547,2|2,0:0|0:0,0:0:0:0:
400,73,151777,1,10,0:0:0:0:
219,179,151954,1,0,0:0:0:0:
376,272,152130,6,0,L|379:157,1,88.000002685547,2|2,0:0|0:0,0:0:0:0:
216,91,152483,2,0,L|219:206,1,88.000002685547,8|0,0:0|0:0,0:0:0:0:
461,228,152836,2,0,P|473:164|448:111,1,88.000002685547,2|2,0:0|0:0,0:0:0:0:
136,161,153189,2,0,P|133:214|154:269,1,88.000002685547,8|2,0:0|0:0,0:0:0:0:
320,208,153542,6,0,L|324:97,1,88.000002685547
214,100,153895,1,12,0:0:0:0:
224,272,154071,1,0,0:0:0:0:
214,100,154248,1,4,0:0:0:0:
224,272,154424,1,2,0:0:0:0:
167,30,154601,2,0,P|223:15|270:38,1,88.000002685547,12|0,0:0|0:0,0:0:0:0:
263,206,154954,6,0,P|231:187|236:68,1,132.00000402832,4|0,0:1|0:0,0:0:0:0:
379,123,155307,2,0,P|313:132|273:116,1,88.000002685547,12|0,0:0|0:0,0:0:0:0:
250,23,155660,1,2,0:0:0:0:
379,123,155836,1,2,0:0:0:0:
239,208,156013,2,0,L|146:222,1,88.000002685547,8|2,0:0|0:0,0:0:0:0:
19,102,156366,5,0,0:0:0:0:
144,38,156542,1,2,0:0:0:0:
85,174,156719,2,0,P|32:199|-7:195,1,88.000002685547,8|4,0:0|0:0,0:0:0:0:
174,202,157071,2,0,P|175:139|151:104,1,88.000002685547,2|4,0:0|0:0,0:0:0:0:
86,174,157424,1,8,0:0:0:0:
86,174,157513,1,0,0:0:0:0:
86,174,157601,1,2,0:0:0:0:
256,237,157777,6,0,P|270:162|231:60,1,176.000005371094,4|8,0:1|0:0,0:0:0:0:
86,174,158307,1,0,0:0:0:0:
163,118,158483,2,0,P|179:158|174:202,1,88.000002685547,4|2,0:0|0:0,0:0:0:0:
86,174,158836,1,8,0:0:0:0:
267,160,159013,1,2,0:0:0:0:
86,174,159189,6,0,P|85:237|109:272,1,88.000002685547,4|2,0:1|0:0,0:0:0:0:
311,337,159542,1,8,0:0:0:0:
224,260,159719,1,0,0:0:0:0:
224,260,159807,1,0,0:0:0:0:
224,260,159895,1,8,0:0:0:0:
132,376,160071,1,8,0:3:0:0:
317,258,160248,1,8,0:0:0:0:
337,229,160336,1,8,0:0:0:0:
347,195,160424,1,4,0:3:0:0:
346,159,160513,1,0,0:0:0:0:
333,128,160601,1,4,1:2:0:0:
344,222,171895,6,0,P|415:214|440:217,1,83.9999974365235,4|0,0:0|0:0,0:0:0:0:
381,113,172248,2,0,P|435:126|474:127,1,83.9999974365235,8|0,0:0|0:0,0:0:0:0:
308,285,172601,2,0,P|357:260|398:251,1,83.9999974365235,2|2,0:0|0:0,0:0:0:0:
319,49,172954,2,0,P|380:90|423:100,1,83.9999974365235,8|2,0:0|0:0,0:0:0:0:
454,195,173307,5,0,0:1:0:0:
457,163,173483,1,2,0:0:0:0:
378,216,173660,5,8,0:0:0:0:
380,140,173836,1,2,0:0:0:0:
311,256,174013,5,0,0:0:0:0:
305,91,174189,1,2,0:0:0:0:
248,313,174366,5,8,0:0:0:0:
234,46,174542,1,0,0:0:0:0:
163,142,174719,5,2,0:0:0:0:
139,151,174807,1,0,0:0:0:0:
114,154,174895,1,0,0:0:0:0:
89,149,174983,1,0,0:0:0:0:
67,136,175071,1,8,0:0:0:0:
120,65,175248,1,0,0:0:0:0:
146,240,175424,2,0,P|108:244|52:228,1,83.9999974365235,2|2,0:0|0:0,0:0:0:0:
0,136,175777,1,8,0:0:0:0:
146,240,175954,6,0,P|213:213|205:100,1,167.999994873047,6|2,0:0|0:0,0:0:0:0:
37,225,176483,2,0,P|6:273|-2:324,1,83.9999974365235,8|0,0:0|0:0,0:0:0:0:
124,98,176836,2,0,P|127:37|112:-1,1,83.9999974365235,2|2,0:0|0:0,0:0:0:0:
202,220,177189,2,0,P|253:237|300:231,1,83.9999974365235,8|0,0:0|0:0,0:0:0:0:
238,16,177542,6,0,P|210:65|269:159,2,167.999994873047,4|8|2,0:0|0:0|0:0,0:0:0:0:
359,187,178424,1,0,0:0:0:0:
350,213,178513,1,0,0:0:0:0:
342,237,178601,1,8,0:0:0:0:
292,80,178777,6,0,B|355:75|355:75|394:48|394:48|461:44,1,167.999994873047,2|2,0:0|0:0,0:0:0:0:
233,213,179307,2,0,L|150:217,1,83.9999974365235,8|0,0:0|0:0,0:0:0:0:
374,145,179660,2,0,L|462:141,1,83.9999974365235,2|0,0:0|0:0,0:0:0:0:
504,267,180013,1,8,0:0:0:0:
495,293,180101,1,0,0:0:0:0:
487,317,180189,1,0,0:0:0:0:
360,192,180366,5,4,0:0:0:0:
448,136,180542,1,0,0:0:0:0:
457,162,180630,1,0,0:0:0:0:
465,186,180719,1,8,0:0:0:0:
392,272,180895,1,0,0:0:0:0:
324,76,181071,2,0,L|351:163,1,83.9999974365235,2|2,0:0|0:0,0:0:0:0:
414,11,181424,1,12,0:0:0:0:
348,156,181601,1,2,0:0:0:0:
214,96,181777,6,0,P|205:49|217:1,1,83.9999974365235,12|0,0:0|0:0,0:0:0:0:
384,168,182130,1,12,0:0:0:0:
279,326,182307,1,8,0:0:0:0:
262,341,182395,1,8,0:0:0:0:
242,354,182483,1,8,0:0:0:0:
220,361,182571,1,0,0:0:0:0:
198,364,182660,1,2,0:0:0:0:
175,362,182748,1,0,0:0:0:0:
153,355,182836,1,12,0:0:0:0:
133,343,182924,1,0,0:0:0:0:
116,328,183013,1,2,0:0:0:0:
103,309,183101,1,0,0:0:0:0:
96,288,183189,6,0,L|84:172,1,86.4000021093751,4|0,0:0|0:0,0:0:0:0:
176,48,183542,2,0,L|188:136,1,86.4000021093751,8|2,0:0|0:0,0:0:0:0:
87,202,183895,1,8,0:0:0:0:
204,236,184071,1,2,0:0:0:0:
294,153,184248,2,0,L|309:67,1,86.4000021093751,8|0,0:0|0:0,0:0:0:0:
87,202,184601,6,0,L|75:287,1,86.4000021093751,8|0,0:0|0:0,0:0:0:0:
264,212,184954,1,8,0:0:0:0:
177,131,185130,1,2,0:0:0:0:
288,104,185307,1,8,0:0:0:0:
156,240,185483,1,2,0:0:0:0:
288,104,185660,1,8,0:0:0:0:
264,212,185836,1,0,0:0:0:0:
156,240,186013,6,0,L|48:260,1,86.4000021093751,12|0,0:0|0:0,0:0:0:0:
344,288,186366,2,0,L|440:268,1,86.4000021093751,8|2,0:0|0:0,0:0:0:0:
176,249,186719,1,8,0:0:0:0:
312,280,186895,1,2,0:0:0:0:
108,148,187071,2,0,P|96:88|112:44,1,86.4000021093751,8|2,0:0|0:0,0:0:0:0:
392,8,187424,6,0,P|404:68|388:112,1,86.4000021093751,8|0,0:0|0:0,0:0:0:0:
184,100,187777,1,8,0:0:0:0:
320,60,187954,1,2,0:0:0:0:
392,180,188130,2,0,L|380:288,1,86.4000021093751,12|0,0:0|0:0,0:0:0:0:
132,152,188483,2,0,L|144:44,1,86.4000021093751,12|2,0:0|0:0,0:0:0:0:
68,224,188836,6,0,P|144:248|180:232,1,86.4000021093751,12|0,0:0|0:0,0:0:0:0:
440,112,189189,2,0,P|364:88|328:104,1,86.4000021093751,8|2,0:0|0:0,0:0:0:0:
232,208,189542,1,8,0:0:0:0:
276,132,189719,1,2,0:0:0:0:
146,163,189895,2,0,P|139:220|163:272,1,86.4000021093751,8|2,0:0|0:0,0:0:0:0:
360,172,190248,6,0,P|367:115|343:63,1,86.4000021093751,8|0,0:0|0:0,0:0:0:0:
296,16,190601,1,8,0:0:0:0:
456,132,190777,1,6,0:0:0:0:
276,132,190954,2,0,L|156:132,1,86.4000021093751,8|2,0:0|0:0,0:0:0:0:
236,252,191307,2,0,L|356:252,1,86.4000021093751,8|2,0:0|0:0,0:0:0:0:
120,208,191660,6,0,P|88:124|140:40,2,172.80000421875,12|8|12,0:0|0:0|0:0,0:0:0:0:
256,289,192542,1,2,0:0:0:0:
400,204,192719,2,0,P|428:156|424:92,1,86.4000021093751,8|2,0:0|0:0,0:0:0:0:
296,224,193071,6,0,P|340:292|364:304,1,86.4000021093751,8|0,0:0|0:0,0:0:0:0:
328,120,193424,2,0,P|247:122|224:137,1,86.4000021093751,8|2,0:0|0:0,0:0:0:0:
120,208,193777,1,12,0:0:0:0:
56,124,193954,1,2,0:0:0:0:
56,124,194042,1,0,0:0:0:0:
56,124,194130,2,0,L|60:68,2,43.2000010546875,8|8|2,0:0|0:0|0:0,0:0:0:0:
136,296,194483,6,0,P|200:256|216:224,1,86.4000021093751,12|0,0:0|0:0,0:0:0:0:
376,296,194836,2,0,P|312:256|296:224,1,86.4000021093751,8|2,0:0|0:0,0:0:0:0:
256,76,195189,2,0,L|256:162,1,86.4000021093751,8|2,0:0|0:0,0:0:0:0:
164,120,195542,1,12,0:0:0:0:
348,120,195719,1,2,0:0:0:0:
164,120,195895,6,0,P|156:48|176:12,1,86.4000021093751,8|2,0:0|0:0,0:0:0:0:
351,36,196248,2,0,P|359:78|348:120,1,86.4000021093751,8|0,0:0|0:0,0:0:0:0:
208,200,196601,1,12,0:0:0:0:
304,200,196777,1,2,0:0:0:0:
164,120,196954,1,12,0:0:0:0:
312,212,197130,1,2,0:0:0:0:
312,212,197219,1,0,0:0:0:0:
312,212,197307,6,0,P|360:201|392:165,1,86.4000021093751,12|0,0:0|0:0,0:0:0:0:
237,277,197660,2,0,P|212:242|208:200,1,86.4000021093751,12|2,0:0|0:0,0:0:0:0:
164,120,198013,2,0,P|122:159|116:217,1,86.4000021093751,8|0,0:0|0:0,0:0:0:0:
80,64,198366,1,12,0:0:0:0:
208,200,198542,1,2,0:0:0:0:
352,84,198719,6,0,L|324:-36,1,86.4000021093751,8|0,0:0|0:0,0:0:0:0:
480,88,199071,1,8,0:0:0:0:
300,168,199248,1,2,0:0:0:0:
304,196,199336,1,0,0:0:0:0:
308,224,199424,1,12,0:0:0:0:
408,328,199601,1,2,0:0:0:0:
412,296,199689,1,0,0:0:0:0:
416,268,199777,1,12,0:0:0:0:
304,296,199954,1,2,0:0:0:0:
384,148,200130,6,0,L|368:48,1,86.4000021093751,12|4,0:0|0:0,0:0:0:0:
504,280,200483,2,0,L|488:376,1,86.4000021093751,8|2,0:0|0:0,0:0:0:0:
229,250,200836,2,0,P|289:222|333:234,1,86.4000021093751,8|2,0:0|0:0,0:0:0:0:
504,280,201189,1,12,0:0:0:0:
404,368,201366,1,2,0:0:0:0:
404,368,201454,1,0,0:0:0:0:
404,368,201542,6,0,L|412:276,1,86.4000021093751,8|2,0:0|0:0,0:0:0:0:
296,28,201895,2,0,L|304:120,1,86.4000021093751,8|2,0:0|0:0,0:0:0:0:
232,312,202248,2,0,L|240:220,1,86.4000021093751,12|4,0:0|0:0,0:0:0:0:
104,48,202601,1,8,0:0:0:0:
112,143,202777,1,2,0:0:0:0:
303,114,202954,6,0,L|407:102,1,86.4000021093751,12|0,0:0|0:0,0:0:0:0:
180,280,203307,2,0,L|76:272,1,86.4000021093751,8|2,0:0|0:0,0:0:0:0:
344,200,203660,1,8,0:0:0:0:
256,168,203836,1,2,0:0:0:0:
167,204,204013,1,8,0:0:0:0:
164,48,204189,6,0,B|256:80|256:12|368:64,1,172.80000421875,4|2,0:0|0:0,0:0:0:0:
418,90,204719,1,2,0:0:0:0:
439,182,204895,1,2,0:0:0:0:
393,271,205071,1,12,0:0:0:0:
304,328,205248,1,2,0:0:0:0:
192,320,205424,1,6,0:0:0:0:
95,251,205601,1,0,0:0:0:0:
108,64,206836,5,2,0:0:0:0:
192,224,207013,1,0,0:0:0:0:
192,224,207101,1,0,0:0:0:0:
192,224,207189,6,0,P|262:201|312:208,1,89.60000109375,4|0,0:1|0:0,0:0:0:0:
408,148,207542,2,0,P|366:121|288:124,1,89.60000109375,8|0,0:0|0:0,0:0:0:0:
192,224,207895,2,0,P|152:244|76:232,1,89.60000109375,2|4,0:0|0:0,0:0:0:0:
16,164,208248,1,8,0:0:0:0:
168,120,208424,1,2,0:0:0:0:
80,328,208601,6,0,P|28:288|12:240,1,89.60000109375,0|2,0:0|0:0,0:0:0:0:
192,224,208954,1,8,0:0:0:0:
276,276,209130,2,0,L|384:268,1,89.60000109375,4|2,0:0|0:0,0:0:0:0:
488,184,209483,1,4,0:0:0:0:
388,352,209660,2,0,P|364:272|372:248,1,89.60000109375,8|0,0:0|0:0,0:0:0:0:
404,128,210013,6,0,P|368:172|284:168,1,134.400001640625,2|0,0:0|0:0,0:0:0:0:
212,124,210366,2,0,P|132:132|100:160,1,89.60000109375,12|0,0:0|0:0,0:0:0:0:
58,228,210719,1,2,0:0:0:0:
190,292,210895,1,2,0:0:0:0:
54,136,211071,2,0,L|74:16,1,89.60000109375,8|2,0:0|0:0,0:0:0:0:
206,216,211424,6,0,L|214:316,1,89.60000109375,0|2,0:0|0:0,0:0:0:0:
150,120,211777,2,0,P|214:92|262:100,1,89.60000109375,12|0,0:0|0:0,0:0:0:0:
292,8,212130,1,4,0:0:0:0:
150,120,212307,1,2,0:0:0:0:
88,3,212483,1,8,0:0:0:0:
232,92,212660,1,0,0:0:0:0:
232,92,212748,1,0,0:0:0:0:
232,92,212836,6,0,P|266:177|246:221,1,134.400001640625,4|0,0:1|0:0,0:0:0:0:
94,180,213189,2,0,P|150:160|206:176,1,89.60000109375,12|0,0:0|0:0,0:0:0:0:
345,206,213542,1,2,0:0:0:0:
312,108,213719,1,2,0:0:0:0:
500,144,213895,1,8,0:0:0:0:
387,285,214071,6,0,P|330:293|251:204,1,179.2000021875,2|2,0:0|0:0,0:0:0:0:
364,91,214601,1,8,0:0:0:0:
160,192,214777,1,4,0:0:0:0:
92,116,214954,2,0,L|102:9,1,89.60000109375,2|4,0:0|0:0,0:0:0:0:
225,17,215307,1,12,0:0:0:0:
225,17,215395,1,0,0:0:0:0:
225,17,215483,1,0,0:0:0:0:
307,74,215660,6,0,P|254:115|192:107,1,89.60000109375,4|0,0:1|0:0,0:0:0:0:
39,81,216013,2,0,P|93:87|141:129,1,89.60000109375,8|0,0:0|0:0,0:0:0:0:
213,287,216366,2,0,P|178:242|172:200,1,89.60000109375,6|2,0:0|0:0,0:0:0:0:
307,74,216719,1,8,0:0:0:0:
171,210,216895,1,2,0:0:0:0:
88,120,217071,6,0,P|22:105|-36:110,1,89.60000109375,4|2,0:0|0:0,0:0:0:0:
213,287,217424,2,0,P|279:275|331:247,1,89.60000109375,8|4,0:0|0:0,0:0:0:0:
416,146,217777,1,2,0:0:0:0:
253,22,217954,1,4,0:0:0:0:
486,204,218130,2,0,P|506:144|481:89,1,89.60000109375,12|2,0:0|0:0,0:0:0:0:
332,15,218483,6,0,L|343:103,1,89.60000109375,4|0,0:1|0:0,0:0:0:0:
194,222,218836,2,0,L|183:134,1,89.60000109375,12|0,0:0|0:0,0:0:0:0:
11,119,219189,2,0,P|7:163|26:204,1,89.60000109375,2|2,0:0|0:0,0:0:0:0:
127,289,219542,1,8,0:0:0:0:
25,203,219719,1,2,0:0:0:0:
194,222,219895,6,0,P|223:279|218:319,1,89.60000109375,0|2,0:0|0:0,0:0:0:0:
37,296,220248,2,0,L|146:287,1,89.60000109375,12|0,0:0|0:0,0:0:0:0:
274,365,220601,1,4,0:0:0:0:
127,289,220777,1,2,0:0:0:0:
268,188,220954,2,0,L|377:179,1,89.60000109375,8|0,0:0|0:0,0:0:0:0:
511,266,221307,6,0,P|448:290|404:274,1,89.60000109375,2|0,0:0|0:0,0:0:0:0:
268,188,221660,1,8,0:0:0:0:
351,348,221836,1,0,0:0:0:0:
451,203,222013,2,0,P|448:149|417:108,1,89.60000109375,2|2,0:0|0:0,0:0:0:0:
265,37,222366,2,0,L|371:46,1,89.60000109375,8|2,0:0|0:0,0:0:0:0:
242,194,222719,6,0,L|137:201,1,89.60000109375,0|2,0:0|0:0,0:0:0:0:
24,128,223071,1,12,0:0:0:0:
21,323,223248,1,2,0:0:0:0:
152,199,223424,2,0,P|170:125|145:80,1,89.60000109375,4|2,0:0|0:0,0:0:0:0:
75,253,223777,2,0,P|131:290|188:283,1,89.60000109375,8|0,0:0|0:0,0:0:0:0:
308,168,224130,5,4,0:1:0:0:
152,199,224307,1,2,0:0:0:0:
378,107,224483,2,0,P|399:149|378:224,1,89.60000109375,12|0,0:0|0:0,0:0:0:0:
277,340,224836,1,2,0:0:0:0:
192,296,225013,1,2,0:0:0:0:
100,319,225189,1,8,0:0:0:0:
17,274,225366,6,0,P|-14:180|55:106,1,179.2000021875,2|2,0:0|0:0,0:0:0:0:
189,50,225895,1,8,0:0:0:0:
81,201,226071,1,4,0:0:0:0:
170,241,226248,2,0,L|271:230,1,89.60000109375,2|6,0:0|0:0,0:0:0:0:
324,143,226601,1,12,0:0:0:0:
324,143,226689,1,0,0:0:0:0:
324,143,226777,1,0,0:0:0:0:
472,292,226954,6,0,P|430:331|326:305,1,134.400001640625,4|0,0:1|0:0,0:0:0:0:
276,284,227307,2,0,P|209:285|172:323,1,89.60000109375,8|0,0:0|0:0,0:0:0:0:
96,368,227660,1,6,0:0:0:0:
94,192,227836,1,0,0:0:0:0:
94,192,227924,1,0,0:0:0:0:
94,192,228013,1,12,0:0:0:0:
215,46,228189,1,2,0:0:0:0:
40,120,228366,6,0,P|111:143|157:118,1,89.60000109375,12|2,0:0|0:0,0:0:0:0:
288,104,228719,1,12,0:0:0:0:
101,30,228895,1,8,0:0:0:0:
101,30,228983,1,8,0:0:0:0:
101,30,229071,1,8,0:0:0:0:
182,202,229248,1,8,0:0:0:0:
288,104,229424,1,8,0:0:0:0:
320,88,229513,1,0,0:0:0:0:
355,83,229601,1,4,0:3:0:0:
388,95,229689,1,0,0:0:0:0:
413,118,229777,1,12,0:0:0:0:
272,296,230130,6,0,P|212:316|124:244,1,172.80000421875,8|2,0:0|0:0,0:0:0:0:
28,360,230660,1,4,0:0:0:0:
212,228,230836,1,8,0:0:0:0:
312,336,231013,6,0,B|296:269|296:269|312:233|312:233|291:139,1,172.80000421875,2|2,0:0|0:0,0:0:0:0:
396,292,231542,1,8,0:0:0:0:
212,228,231719,2,0,L|192:132,1,86.4000021093751,4|2,0:0|0:0,0:0:0:0:
272,68,232071,1,4,0:0:0:0:
88,104,232248,1,8,0:0:0:0:
194,143,232424,1,4,0:0:0:0:
64,96,232601,6,0,L|44:0,1,86.4000021093751,2|0,0:0|0:0,0:0:0:0:
264,208,232954,2,0,P|288:152|276:104,1,86.4000021093751,12|0,0:0|0:0,0:0:0:0:
240,384,233307,2,0,P|216:328|228:280,1,86.4000021093751,2|2,0:0|0:0,0:0:0:0:
285,128,233660,1,8,0:0:0:0:
128,240,233836,1,0,0:0:0:0:
304,320,234013,6,0,L|400:308,1,86.4000021093751,0|2,0:0|0:0,0:0:0:0:
512,156,234366,2,0,L|426:166,1,86.4000021093751,12|0,0:0|0:0,0:0:0:0:
232,72,234719,1,2,0:0:0:0:
200,216,234895,1,2,0:0:0:0:
304,128,235071,2,0,P|324:68|304:20,1,86.4000021093751,12|0,0:0|0:0,0:0:0:0:
242,0,235336,1,0,0:0:0:0:
242,0,235424,6,0,L|146:12,1,86.4000021093751,4|0,0:1|0:0,0:0:0:0:
0,192,235777,2,0,P|76:148|128:168,1,129.600003164063,12|0,0:0|0:0,0:0:0:0:
200,216,236130,2,0,P|264:212|296:188,1,86.4000021093751,2|4,0:0|0:0,0:0:0:0:
152,296,236483,1,8,0:0:0:0:
224,127,236660,6,0,P|212:71|164:39,1,86.4000021093751,2|0,0:0|0:0,0:0:0:0:
304,48,237013,1,2,0:0:0:0:
132,124,237189,1,8,0:0:0:0:
272,200,237366,2,0,L|392:188,1,86.4000021093751,4|2,0:0|0:0,0:0:0:0:
444,112,237719,1,4,0:0:0:0:
420,268,237895,1,12,0:0:0:0:
416,288,237983,1,0,0:0:0:0:
412,308,238071,1,0,0:0:0:0:
164,128,238248,6,0,P|118:71|108:44,1,86.4000021093751,2|0,0:0|0:0,0:0:0:0:
348,128,238601,2,0,P|394:71|404:44,1,86.4000021093751,8|0,0:0|0:0,0:0:0:0:
160,220,238954,2,0,P|84:192|48:192,1,86.4000021093751,6|2,0:0|0:0,0:0:0:0:
352,220,239307,2,0,P|428:192|464:192,1,86.4000021093751,12|2,0:0|0:0,0:0:0:0:
256,308,239660,5,4,0:0:0:0:
256,168,239836,1,2,0:0:0:0:
81,182,240013,5,8,0:0:0:0:
160,40,240189,1,4,0:0:0:0:
256,168,240366,5,8,0:0:0:0:
280,52,240542,1,4,0:0:0:0:
419,127,240719,5,12,0:0:0:0:
392,36,240895,1,0,0:0:0:0:
392,36,240983,1,0,0:0:0:0:
392,36,241071,6,0,P|468:44|512:108,1,129.600003164063,4|0,0:1|0:0,0:0:0:0:
441,207,241424,2,0,P|417:142|425:114,1,86.4000021093751,12|0,0:0|0:0,0:0:0:0:
272,76,241777,1,2,0:0:0:0:
392,36,241954,1,2,0:0:0:0:
276,104,242130,2,0,L|184:96,1,86.4000021093751,8|2,0:0|0:0,0:0:0:0:
85,224,242483,6,0,P|145:216|169:192,1,86.4000021093751,0|2,0:0|0:0,0:0:0:0:
64,320,242836,1,12,0:0:0:0:
100,136,243013,1,0,0:0:0:0:
0,234,243189,2,0,L|112:221,1,86.4000021093751,6|2,0:0|0:0,0:0:0:0:
204,74,243542,1,12,0:0:0:0:
286,162,243719,1,0,0:0:0:0:
286,162,243807,1,0,0:0:0:0:
286,162,243895,6,0,P|346:154|378:124,1,86.4000021093751,2|0,0:0|0:0,0:0:0:0:
442,30,244248,1,8,0:0:0:0:
301,72,244424,1,0,0:0:0:0:
301,72,244513,1,0,0:0:0:0:
301,72,244601,1,2,0:0:0:0:
451,169,244777,1,2,0:0:0:0:
312,240,244954,2,0,L|307:139,1,86.4000021093751,8|2,0:0|0:0,0:0:0:0:
143,302,245307,6,0,L|154:206,1,86.4000021093751,0|2,0:0|0:0,0:0:0:0:
301,72,245660,1,12,0:0:0:0:
208,160,245836,1,0,0:0:0:0:
193,177,245924,1,0,0:0:0:0:
178,193,246013,1,6,0:0:0:0:
272,232,246189,1,6,0:0:0:0:
416,108,246366,2,0,L|398:4,1,86.4000021093751,4|0,0:1|0:0,0:0:0:0:
165,124,246719,6,0,L|158:230,1,86.4000021093751,4|0,0:1|0:0,0:0:0:0:
52,336,247071,2,0,P|17:278|24:225,1,86.4000021093751,12|0,0:0|0:0,0:0:0:0:
192,308,247424,2,0,P|240:304|280:276,1,86.4000021093751,2|2,0:0|0:0,0:0:0:0:
328,208,247777,1,8,0:0:0:0:
360,344,247954,6,0,B|396:376|456:344|456:344|472:264,1,172.80000421875,0|2,0:0|0:0,0:0:0:0:
496,140,248483,1,8,0:0:0:0:
328,208,248660,2,0,P|284:200|244:168,1,86.4000021093751,4|2,0:0|0:0,0:0:0:0:
172,88,249013,1,6,0:0:0:0:
324,120,249189,1,12,0:0:0:0:
324,120,249277,1,0,0:0:0:0:
324,120,249366,1,0,0:0:0:0:
144,168,249542,6,0,L|32:204,1,86.4000021093751,4|0,0:1|0:0,0:0:0:0:
352,240,249895,2,0,L|464:204,1,86.4000021093751,8|0,0:0|0:0,0:0:0:0:
256,61,250248,2,0,L|130:53,1,86.4000021093751,6|2,0:0|0:0,0:0:0:0:
264,322,250601,2,0,L|390:330,1,86.4000021093751,12|2,0:0|0:0,0:0:0:0:
472,172,250954,5,4,0:0:0:0:
472,172,251307,1,12,0:0:0:0:
371,41,251483,1,8,0:0:0:0:
353,54,251571,1,8,0:0:0:0:
336,68,251660,2,0,L|328:164,1,86.4000021093751,8|8,0:3|0:3,0:3:0:0:
176,316,252013,2,0,L|184:220,1,86.4000021093751,8|8,0:3|0:3,0:3:0:0:
115,99,252366,5,0,0:0:0:0:
