osu file format v14

[General]
AudioFilename: audio.mp3
AudioLeadIn: 0
PreviewTime: 54916
Countdown: 0
SampleSet: Soft
StackLeniency: 0.7
Mode: 0
LetterboxInBreaks: 0
WidescreenStoryboard: 1

[Editor]
DistanceSpacing: 0.9
BeatDivisor: 4
GridSize: 4
TimelineZoom: 3.099999

[Metadata]
Title:daze
TitleUnicode:daze
Artist:Jin feat. MARiA from GARNiDELiA
ArtistUnicode:じん ft. メイリア from GARNiDELiA
Creator:_kotachi_
Version:Insane
Source:メカクシティアクターズ
Tags:mekakucity actors jin kagerou project カゲロウプロジェクト S_o_h Akitoshi fufu-
BeatmapID:1159590
BeatmapSetID:513067

[Difficulty]
HPDrainRate:6
CircleSize:4
OverallDifficulty:7.2
ApproachRate:9
SliderMultiplier:1.6
SliderTickRate:1

[Events]
//Background and Video events
0,0,"4f33df89-f448-412d-c19b-5c90a04e7892.jpg",0,0
//Break Periods
//Storyboard Layer 0 (Background)
//Storyboard Layer 1 (Fail)
//Storyboard Layer 2 (Pass)
//Storyboard Layer 3 (Foreground)
//Storyboard Sound Samples

[TimingPoints]
750,303.030303030303,4,2,0,70,1,0
1507,-100,4,2,1,70,0,0
15598,-133.333333333333,4,2,1,70,0,0
16356,-111.111111111111,4,2,2,70,0,0
26053,-100,4,2,2,70,0,0
35901,-100,4,2,1,70,0,0
42416,-83.3333333333333,4,2,1,70,0,0
43022,-71.4285714285714,4,2,1,70,0,0
43477,-100,4,2,1,70,0,0
54992,-66.6666666666667,4,2,1,70,0,0
55219,-100,4,2,1,5,0,0
55295,-90.9090909090909,4,2,1,80,0,1
57416,-66.6666666666667,4,2,1,80,0,1
57719,-90.9090909090909,4,2,1,80,0,1
64689,-66.6666666666667,4,2,1,80,0,1
64916,-100,4,2,1,5,0,1
64992,-90.9090909090909,4,2,1,80,0,1
67113,-66.6666666666667,4,2,1,80,0,1
67416,-90.9090909090909,4,2,1,80,0,1
69840,-90.9090909090909,4,2,1,80,0,1
74992,-90.9090909090909,4,2,1,70,0,0
81053,-133.333333333333,4,2,1,70,0,0
81810,-100,4,2,1,70,0,0
85446,-83.3333333333333,4,2,1,70,0,0
87871,-133.333333333333,4,2,1,70,0,0
88628,-133.333333333333,4,2,1,5,0,0

[Colours]
Combo1 : 255,255,0
Combo2 : 255,0,0
Combo3 : 128,0,0
Combo4 : 255,128,64
Combo5 : 128,64,64

[HitObjects]
176,184,750,6,0,B|264:164|244:228|348:196,2,160,2|2|2,0:0|0:0|0:0,0:0:0:0:
300,124,1507,2,8,L|292:72,2,40
192,76,1810,6,0,B|140:68|140:68|28:100,1,160,4|2,0:0|0:0,0:0:0:0:
40,260,2265,1,8,0:0:0:0:
132,148,2416,1,8,0:0:0:0:
172,304,2568,1,2,0:0:0:0:
260,188,2719,1,8,0:0:0:0:
287,198,2794,1,8,0:0:0:0:
317,199,2870,1,8,0:0:0:0:
346,190,2946,1,8,0:0:0:0:
370,172,3022,6,0,P|400:124|348:16,1,160,6|2,0:0|0:0,0:0:0:0:
184,104,3477,1,8,0:0:0:0:
165,127,3553,1,8,0:3:0:0:
156,155,3628,1,4,0:3:0:0:
159,185,3704,1,2,0:0:0:0:
173,211,3780,2,0,L|212:207,3,40,8|8|8|8,0:3|0:3|0:3|0:3,0:0:0:0:
104,284,4083,2,0,L|64:280,1,40,4|4,0:3|0:3,0:0:0:0:
205,337,4234,6,0,B|265:329|265:329|301:345|301:345|369:337,1,160,6|0,0:0|0:0,0:0:0:0:
340,128,4689,1,8,0:0:0:0:
320,248,4840,1,8,0:0:0:0:
328,104,4992,1,2,0:0:0:0:
452,212,5143,1,8,0:0:0:0:
449,241,5218,1,8,0:0:0:0:
446,271,5294,1,8,0:0:0:0:
443,301,5370,1,8,0:0:0:0:
440,331,5446,6,0,P|399:341|355:337,1,80,6|0,0:0|0:0,0:0:0:0:
328,228,5749,1,8,0:3:0:0:
328,228,5825,1,8,0:3:0:0:
328,228,5901,1,4,0:3:0:0:
416,236,6053,1,2,0:0:0:0:
228,248,6204,1,8,0:0:0:0:
384,148,6356,1,8,0:0:0:0:
396,128,6659,6,0,B|428:76|388:24|388:24|312:12,1,160,6|0,0:0|0:0,0:0:0:0:
181,82,7113,1,8,0:0:0:0:
300,128,7265,1,8,0:0:0:0:
188,180,7416,2,0,L|180:68,1,80,0|2,0:0|0:0,0:0:0:0:
288,248,7719,1,8,0:0:0:0:
320,120,7871,1,2,0:0:0:0:
188,180,8022,6,0,L|96:192,1,80,0|2,0:0|0:0,0:0:0:0:
288,248,8325,2,8,L|380:260,1,80
300,128,8628,1,2,0:0:0:0:
428,96,8780,1,2,0:0:0:0:
428,96,8856,1,0,0:0:0:0:
428,96,8931,1,8,0:0:0:0:
424,200,9083,6,0,P|448:256|392:340,1,160,2|2,0:0|0:0,0:0:0:0:
288,248,9537,2,8,P|292:200|292:156,1,80
192,280,9840,2,8,P|188:328|188:372,1,80,2|2,0:0|0:0,0:0:0:0:
328,384,10143,1,8,0:0:0:0:
288,248,10295,1,0,0:0:0:0:
113,265,10446,6,0,L|201:281,1,80,2|0,0:0|0:0,0:0:0:0:
44,196,10750,1,8,0:0:0:0:
84,348,10901,1,0,0:0:0:0:
136,176,11053,1,8,0:0:0:0:
24,284,11204,1,8,0:0:0:0:
24,284,11280,1,8,0:0:0:0:
24,284,11356,1,8,0:0:0:0:
196,244,11507,6,0,B|264:248|264:248|288:232|288:232|380:236,1,160,6|0,0:0|0:0,0:0:0:0:
232,160,11962,1,8,0:0:0:0:
336,132,12113,1,8,0:0:0:0:
350,234,12265,2,0,L|334:318,1,80,2|2,0:0|0:0,0:0:0:0:
232,160,12568,2,0,L|248:76,1,80,8|0,0:0|0:0,0:0:0:0:
336,132,12871,5,2,0:0:0:0:
350,234,13022,1,0,0:0:0:0:
232,160,13174,2,8,L|144:152,1,80
248,80,13477,1,0,0:0:0:0:
220,248,13628,1,2,0:0:0:0:
220,248,13704,1,0,0:0:0:0:
220,248,13780,1,8,0:0:0:0:
336,132,13931,6,0,B|380:144|412:128|412:128|436:72|488:76,1,160,2|2,0:0|0:0,0:0:0:0:
444,232,14386,1,8,0:0:0:0:
496,160,14537,1,8,0:0:0:0:
496,160,14613,1,8,0:0:0:0:
496,160,14689,1,8,0:0:0:0:
360,236,14840,1,8,0:3:0:0:
496,304,14992,1,4,0:3:0:0:
308,316,15143,1,2,0:0:0:0:
400,160,15295,5,8,0:0:0:0:
400,160,15598,2,0,B|420:96|388:40|388:40|368:80|328:84,1,180.000006866455,8|8,0:0|0:0,0:0:0:0:
264,140,16204,1,8,0:0:0:0:
156,60,16356,6,0,L|144:220,1,143.999995605469,4|0,0:0|0:0,0:0:0:0:
112,300,16810,2,0,L|212:292,1,71.9999978027344,8|0,0:0|0:0,0:0:0:0:
264,228,17113,2,0,P|264:268|324:360,1,143.999995605469,2|8,0:0|0:0,0:0:0:0:
348,260,17568,2,0,P|348:220|288:128,1,143.999995605469,2|2,0:0|0:0,0:0:0:0:
208,80,18022,2,0,L|208:160,1,71.9999978027344,8|0,0:0|0:0,0:0:0:0:
264,228,18325,1,2,0:0:0:0:
264,228,18477,1,2,0:0:0:0:
156,216,18628,1,8,0:0:0:0:
68,292,18780,6,0,B|48:252|48:252|84:132,1,143.999995605469,2|2,0:0|0:0,0:0:0:0:
176,132,19234,1,8,0:0:0:0:
176,132,19386,2,0,L|272:128,1,71.9999978027344,2|0,0:0|0:0,0:0:0:0:
264,228,19689,2,0,L|168:224,1,71.9999978027344,2|8,0:0|0:0,0:0:0:0:
336,172,19992,6,0,B|388:172|388:172|424:192|424:192|500:188,1,143.999995605469,2|2,0:0|0:0,0:0:0:0:
360,256,20446,2,0,B|352:296|352:296|364:336,1,71.9999978027344,8|0,0:0|0:0,0:0:0:0:
360,325,20674,1,0,0:0:0:0:
360,325,20750,1,2,0:0:0:0:
444,292,20901,1,2,0:0:0:0:
272,296,21053,1,8,0:0:0:0:
348,180,21204,6,0,B|336:128|336:128|364:80|336:20,1,143.999995605469,6|2,0:0|0:0,0:0:0:0:
200,80,21659,2,0,L|304:76,1,71.9999978027344,8|0,0:0|0:0,0:0:0:0:
200,164,21962,2,0,B|120:144|144:200|56:168,1,143.999995605469,2|8,0:0|0:0,0:0:0:0:
172,236,22416,2,0,B|252:256|228:200|316:232,1,143.999995605469,2|2,0:0|0:0,0:0:0:0:
236,80,22871,1,8,0:0:0:0:
280,148,23022,1,0,0:0:0:0:
316,80,23174,1,2,0:0:0:0:
196,152,23325,1,2,0:0:0:0:
360,148,23477,1,8,0:0:0:0:
276,8,23628,6,0,P|212:4|156:84,1,143.999995605469,2|2,0:0|0:0,0:0:0:0:
280,148,24083,1,8,0:0:0:0:
196,152,24234,2,0,P|212:196|236:220,1,71.9999978027344,2|0,0:0|0:0,0:0:0:0:
312,210,24537,2,0,P|296:166|272:142,1,71.9999978027344,2|8,0:0|0:0,0:0:0:0:
236,80,24840,6,0,B|280:56|328:84|328:84|368:48,1,143.999995605469,2|2,0:0|0:0,0:0:0:0:
384,160,25295,1,8,0:0:0:0:
444,64,25446,1,0,3:0:0:0:
444,64,25522,1,0,3:0:0:0:
444,64,25598,1,0,3:0:0:0:
464,224,25750,1,8,0:0:0:0:
384,160,25901,1,2,0:0:0:0:
412,320,26053,6,0,B|344:312|344:312|320:320|320:320|240:308,1,160,6|0,0:0|0:0,0:0:0:0:
308,164,26507,2,0,B|292:200|292:200|300:248,1,80,8|0,0:0|0:0,0:0:0:0:
376,212,26734,1,0,3:0:0:0:
376,212,26810,2,0,B|392:176|392:176|384:128,1,80,2|0,0:0|0:0,0:0:0:0:
288,24,27113,1,8,0:0:0:0:
308,164,27265,1,0,0:0:0:0:
396,64,27416,6,0,P|444:88|460:128,1,80,2|0,0:0|0:0,0:0:0:0:
456,184,27719,1,8,0:0:0:0:
362,294,27871,2,0,L|386:130,1,160,2|2,0:0|0:0,0:0:0:0:
296,240,28325,1,8,0:0:0:0:
200,140,28477,6,0,L|100:144,1,80,2|0,0:0|0:0,0:0:0:0:
44,228,28780,1,0,0:0:0:0:
44,228,28931,1,8,0:0:0:0:
224,240,29083,2,0,L|124:244,1,80,2|0,0:0|0:0,0:0:0:0:
68,328,29386,1,2,0:0:0:0:
68,328,29537,1,8,0:0:0:0:
244,336,29689,6,0,P|296:312|316:212,1,160,2|2,0:0|0:0,0:0:0:0:
240,140,30143,1,8,0:0:0:0:
224,240,30295,1,0,0:0:0:0:
224,240,30371,1,0,0:0:0:0:
224,240,30446,1,2,0:0:0:0:
328,116,30598,1,2,0:0:0:0:
148,168,30749,1,8,0:0:0:0:
318,218,30901,6,0,B|430:206|430:206|486:246,1,160,6|2,0:0|0:0,0:0:0:0:
264,304,31356,2,0,P|228:264|221:215,1,80,8|0,0:0|0:0,0:0:0:0:
248,152,31659,2,0,B|264:100|264:100|236:56|236:56|252:0,1,160,2|8,0:0|0:0,0:0:0:0:
400,84,32113,1,2,0:0:0:0:
328,36,32265,2,0,P|368:4|408:-4,1,80,0|2,0:0|0:0,0:0:0:0:
400,84,32568,1,8,0:0:0:0:
248,152,32719,2,0,B|280:136|320:136|320:136|348:176|412:176,1,160,2|2,0:0|0:0,0:0:0:0:
400,84,33174,1,8,0:0:0:0:
480,140,33325,6,0,L|488:236,1,80,2|0,0:0|0:0,0:0:0:0:
400,84,33628,1,0,0:0:0:0:
400,84,33780,1,8,0:0:0:0:
393,175,33931,2,0,L|401:271,1,80,2|0,0:0|0:0,0:0:0:0:
313,119,34234,1,2,0:0:0:0:
313,119,34386,1,8,0:0:0:0:
245,250,34537,6,0,B|301:242|301:242|341:262|341:262|405:254,1,160,6|8,0:0|0:0,0:0:0:0:
313,119,34992,2,0,B|305:83|305:83|317:31,1,80,8|0,0:3|0:0,0:0:0:0:
400,176,35295,2,0,B|408:212|408:212|396:264,1,80,4|8,0:3|0:0,0:0:0:0:
398,254,35522,1,8,0:0:0:0:
398,254,35598,1,8,0:0:0:0:
313,119,35749,1,2,0:0:0:0:
248,252,35901,5,12,0:0:0:0:
96,144,36053,1,0,0:0:0:0:
236,132,36204,1,8,0:0:0:0:
100,240,36356,1,0,0:0:0:0:
256,360,36507,1,8,0:0:0:0:
88,248,36659,1,4,0:3:0:0:
88,248,36734,1,4,0:3:0:0:
88,248,36810,1,4,0:3:0:0:
248,252,36962,6,0,B|360:240|360:240|316:284,1,160,8|8,0:0|0:0,0:0:0:0:
176,308,37416,2,0,L|156:216,1,80,2|8,0:0|0:0,0:0:0:0:
244,88,37719,2,0,L|227:166,1,80,2|8,0:0|0:0,0:0:0:0:
227,166,37946,1,8,0:0:0:0:
227,166,38022,1,8,0:0:0:0:
256,8,38174,5,8,0:0:0:0:
256,8,38249,1,8,0:0:0:0:
256,8,38325,2,0,B|336:4|308:72|416:56,1,160,6|8,0:0|0:0,0:0:0:0:
308,196,38780,2,0,P|260:184|220:164,1,80,2|0,0:0|0:0,0:0:0:0:
360,132,39083,1,2,0:0:0:0:
324,280,39234,1,8,0:0:0:0:
164,144,39386,6,0,B|152:192|152:192|180:240|180:240|156:312,1,160,6|0,0:0|0:0,0:0:0:0:
80,132,39840,2,0,P|104:84|136:64,1,80,8|8,0:0|0:3,0:0:0:0:
272,240,40143,1,4,0:3:0:0:
164,144,40295,1,0,0:0:0:0:
84,252,40446,2,0,P|76:296|92:348,1,80,8|0,0:0|0:0,0:0:0:0:
235,311,40749,5,6,0:0:0:0:
232,172,40901,1,0,0:0:0:0:
348,244,41053,1,8,0:0:0:0:
235,311,41204,2,0,P|199:307|139:279,2,80,0|2|2,0:0|0:0|0:0,0:0:0:0:
348,244,41659,1,8,0:0:0:0:
243,161,41810,6,0,P|215:113|295:109,1,160,6|0,0:0|0:0,0:0:0:0:
348,244,42265,1,8,0:0:0:0:
233,169,42416,6,0,P|209:97|305:113,1,191.999994140625,2|2,0:0|0:0,0:0:0:0:
348,244,42871,1,8,0:0:0:0:
223,180,43022,6,0,P|191:128|315:132,1,223.999993164063,6|2,0:0|0:0,0:0:0:0:
348,244,43477,1,8,0:0:0:0:
214,259,43628,2,0,P|170:243|142:199,1,80,0|2,0:0|0:0,0:0:0:0:
223,180,43931,1,2,0:0:0:0:
216,336,44083,1,8,0:0:0:0:
82,256,44234,6,0,P|74:200|86:176,1,80,6|0,0:0|0:0,0:0:0:0:
300,300,44537,2,0,P|311:337|301:375,1,80,2|8,0:0|0:0,0:0:0:0:
214,259,44840,1,0,0:0:0:0:
368,184,44992,5,8,0:3:0:0:
368,184,45068,1,8,0:3:0:0:
368,184,45143,1,8,0:3:0:0:
368,184,45219,1,8,0:3:0:0:
368,184,45295,2,0,L|456:176,1,80,4|0,0:3|0:0,0:0:0:0:
284,120,45598,5,12,0:0:0:0:
300,296,45749,1,0,0:0:0:0:
188,104,45901,1,8,0:0:0:0:
204,280,46052,1,0,0:0:0:0:
96,88,46204,1,8,0:0:0:0:
112,264,46355,1,4,0:3:0:0:
112,264,46431,1,4,0:3:0:0:
112,264,46507,1,4,0:3:0:0:
292,208,46659,6,0,B|344:204|344:204|384:224|384:224|448:216,1,160,8|8,0:0|0:0,0:0:0:0:
320,296,47113,1,0,0:0:0:0:
400,136,47265,1,8,0:0:0:0:
408,304,47416,1,0,0:0:0:0:
232,288,47568,2,0,L|180:280,2,40,8|8|8,0:0|0:0|0:0,0:0:0:0:
252,136,47871,1,8,0:0:0:0:
252,136,47946,1,8,0:0:0:0:
252,136,48022,6,0,B|208:156|170:133|170:133|132:108|84:132,1,160,6|8,0:0|0:0,0:0:0:0:
212,68,48477,2,0,P|268:60|308:76,1,80,2|0,0:0|0:0,0:0:0:0:
128,200,48780,2,0,P|84:200|44:184,1,80,2|8,0:0|0:0,0:0:0:0:
224,232,49083,6,0,B|224:296|280:308|280:308|344:288,1,160,6|2,0:0|0:0,0:0:0:0:
304,128,49537,2,0,L|304:224,1,80,8|0,0:0|0:0,0:0:0:0:
408,156,49840,2,8,L|408:32,2,120
408,288,50446,6,0,P|396:332|364:364,1,80,6|0,0:0|0:0,0:0:0:0:
176,276,50749,2,0,B|260:260|240:320|344:288,1,160,12|2,0:0|0:0,0:0:0:0:
200,352,51204,1,2,0:0:0:0:
292,216,51356,1,8,0:0:0:0:
200,352,51507,6,0,P|152:352|100:252,1,160,2|2,0:0|0:0,0:0:0:0:
176,132,51962,1,8,0:0:0:0:
176,276,52113,1,2,0:0:0:0:
80,152,52265,2,0,P|80:116|100:64,1,80,2|2,0:0|0:0,0:0:0:0:
176,132,52568,1,8,0:0:0:0:
176,276,52719,1,2,0:0:0:0:
312,264,52871,6,0,L|273:258,1,40,12|0,0:0|0:0,0:0:0:0:
408,234,53022,2,0,L|448:228,2,40,4|4|4,0:3|0:3|0:3,0:0:0:0:
307,182,53325,6,0,L|268:176,1,40,8|0,0:0|0:0,0:0:0:0:
404,150,53476,2,0,L|444:144,2,40,4|4|4,0:3|0:3|0:3,0:0:0:0:
304,100,53780,5,8,0:0:0:0:
282,96,53855,1,8,0:0:0:0:
261,92,53931,1,8,0:0:0:0:
241,89,54007,1,8,0:0:0:0:
219,85,54083,5,12,0:0:0:0:
252,232,54234,1,8,0:0:0:0:
372,168,54386,5,8,0:0:0:0:
176,172,54537,1,12,0:0:0:0:
176,172,54840,5,0,0:0:0:0:
88,312,54992,2,0,B|124:256|82:204|82:204|44:208|30:236,1,180.000006866455,8|0,0:0|0:0,0:0:0:0:
28,268,55295,6,0,B|120:252|100:324|232:296,1,176.000005371094,6|8,0:0|0:0,0:0:0:0:
255,167,55749,1,0,0:0:0:0:
80,188,55901,2,0,P|80:140|96:92,1,88.000002685547,0|2,0:0|0:0,0:0:0:0:
267,81,56204,2,0,P|267:129|251:177,1,88.000002685547,8|0,0:0|0:0,0:0:0:0:
188,112,56507,5,2,0:0:0:0:
340,40,56659,1,2,0:0:0:0:
332,208,56810,1,8,0:0:0:0:
267,81,56962,2,0,P|239:41|195:25,1,88.000002685547,2|0,0:0|0:0,0:0:0:0:
107,113,57265,1,2,0:0:0:0:
336,124,57416,2,0,B|401:83|461:129|461:129|417:157,1,180.000006866455,8|0,0:0|0:0,0:0:0:0:
332,208,57719,6,0,P|228:236|144:196,1,176.000005371094,6|8,0:0|0:0,0:0:0:0:
192,104,58174,1,0,0:0:0:0:
72,192,58325,2,0,P|72:244|108:292,1,88.000002685547,2|2,0:0|0:0,0:0:0:0:
192,104,58628,2,0,P|192:52|156:4,1,88.000002685547,8|0,0:0|0:0,0:0:0:0:
168,216,58931,5,2,0:0:0:0:
100,80,59083,1,2,0:0:0:0:
192,224,59234,1,8,0:0:0:0:
276,60,59386,2,0,B|340:52|340:52|392:96|448:68,1,176.000005371094,2|2,0:0|0:0,0:0:0:0:
372,192,59840,1,8,0:0:0:0:
272,152,59992,1,0,0:0:0:0:
486,140,60143,6,0,B|466:184|486:224|486:224|430:248|450:328,1,176.000005371094,6|8,0:0|0:0,0:0:0:0:
372,192,60598,2,0,P|376:148|368:96,1,88.000002685547,2|0,0:0|0:0,0:0:0:0:
268,244,60901,2,0,P|264:288|272:340,1,88.000002685547,2|8,0:0|0:0,0:0:0:0:
216,152,61204,6,0,P|220:108|212:56,1,88.000002685547,2|0,0:0|0:0,0:0:0:0:
111,212,61507,2,0,P|107:256|115:308,1,88.000002685547,2|8,0:0|0:0,0:0:0:0:
268,244,61810,2,0,B|384:236|384:236|328:284,1,176.000005371094,2|2,0:0|0:0,0:0:0:0:
285,156,62265,1,8,0:0:0:0:
192,272,62416,1,0,0:0:0:0:
200,88,62568,6,0,P|200:144|112:212,1,176.000005371094,6|8,0:0|0:0,0:0:0:0:
116,120,63022,2,0,B|56:128|11:79|11:79|60:45,1,176.000005371094,0|2,0:0|0:0,0:0:0:0:
200,172,63477,1,8,0:0:0:0:
98,299,63628,6,0,L|111:212,1,88.000002685547,2|6,0:0|0:0,0:0:0:0:
200,88,63931,1,8,0:0:0:0:
200,88,64007,1,8,0:0:0:0:
200,88,64083,1,8,0:0:0:0:
316,248,64234,2,8,L|328:312,2,44.0000013427735
396,120,64537,1,8,0:0:0:0:
396,120,64613,1,8,0:0:0:0:
396,120,64689,2,0,B|456:128|501:79|501:79|448:44,1,180.000006866455,8|2,0:0|0:0,0:0:0:0:
316,56,64992,6,0,P|304:136|384:204,1,176.000005371094,6|8,0:0|0:0,0:0:0:0:
460,184,65446,1,0,0:0:0:0:
460,184,65598,2,0,P|456:228|432:268,1,88.000002685547,0|2,0:0|0:0,0:0:0:0:
280,300,65901,2,0,P|284:256|308:216,1,88.000002685547,8|2,0:0|0:0,0:0:0:0:
360,284,66204,5,2,0:0:0:0:
208,232,66356,2,0,L|88:244,1,88.000002685547,0|8,0:0|0:0,0:0:0:0:
56,148,66659,2,0,B|84:204|84:204|56:344,1,176.000005371094,2|2,0:0|0:0,0:0:0:0:
219,365,67113,2,0,B|203:314|203:314|220:285|220:285|210:248|210:248|231:166,1,180.000006866455,8|0,0:0|0:0,0:0:0:0:
224,104,67416,6,0,B|272:72|336:84|336:84|372:160,1,176.000005371094,6|12,0:0|0:0,0:0:0:0:
208,232,67871,1,0,0:0:0:0:
284,188,68022,2,0,P|296:232|280:284,1,88.000002685547,2|2,0:0|0:0,0:0:0:0:
156,144,68325,2,0,P|144:100|160:48,1,88.000002685547,8|0,0:0|0:0,0:0:0:0:
224,104,68628,5,2,0:0:0:0:
208,232,68780,2,0,L|108:240,1,88.000002685547,2|8,0:0|0:0,0:0:0:0:
224,104,69083,2,0,B|341:92|341:92|300:136,1,176.000005371094,2|2,0:0|0:0,0:0:0:0:
156,144,69537,1,8,0:0:0:0:
208,232,69689,1,0,0:0:0:0:
308,224,69840,6,0,P|296:280|196:336,1,176.000005371094,6|8,0:0|0:0,0:0:0:0:
40,249,70295,2,0,B|140:281|104:205|212:233,1,176.000005371094,2|2,0:0|0:0,0:0:0:0:
80,176,70749,1,8,0:0:0:0:
80,176,70901,1,0,0:0:0:0:
220,88,71053,6,0,B|284:100|284:100|328:88|328:88|400:100,1,176.000005371094,6|8,0:0|0:0,0:0:0:0:
168,152,71507,2,0,P|140:104|208:8,1,176.000005371094,2|2,0:0|0:0,0:0:0:0:
248,172,71962,2,0,L|256:280,1,88.000002685547,4|0,0:3|0:0,0:0:0:0:
392,96,72265,5,12,0:0:0:0:
348,244,72416,2,0,L|356:352,1,88.000002685547,0|2,0:0|0:0,0:0:0:0:
248,172,72719,1,8,0:0:0:0:
392,96,72871,1,0,0:0:0:0:
348,244,73022,1,2,0:0:0:0:
288,88,73174,2,0,L|280:-20,1,88.000002685547,8|2,0:0|0:0,0:0:0:0:
392,96,73477,5,2,0:0:0:0:
248,172,73628,1,8,0:0:0:0:
416,100,73780,1,0,0:0:0:0:
220,168,73931,1,2,0:0:0:0:
376,232,74083,2,8,L|421:226,3,44.0000013427735
344,236,74386,1,8,0:0:0:0:
311,240,74461,1,8,0:0:0:0:
278,245,74537,1,8,0:0:0:0:
246,250,74613,1,8,0:0:0:0:
213,255,74689,6,0,B|160:260|160:260|120:292|120:292|44:272,1,176.000005371094,6|8,0:0|0:0,0:0:0:0:
96,104,75143,1,0,0:0:0:0:
96,104,75219,1,0,0:0:0:0:
96,104,75295,2,0,P|104:164|80:216,1,88.000002685547,2|2,0:0|0:0,0:0:0:0:
51,359,75598,2,0,P|43:299|67:247,1,88.000002685547,8|2,0:0|0:0,0:0:0:0:
184,256,75901,6,0,L|272:252,2,88.000002685547,2|2|8,0:0|0:0|0:0,0:0:0:0:
96,189,76356,1,2,0:0:0:0:
220,144,76507,2,0,L|308:140,2,88.000002685547,0|2|8,0:0|0:0|0:0,0:0:0:0:
128,84,76962,1,0,0:0:0:0:
256,40,77113,6,0,B|328:8|384:48|384:48|316:76,1,176.000005371094,2|8,0:0|0:0,0:0:0:0:
220,144,77568,1,0,0:0:0:0:
344,148,77719,2,0,P|352:184|332:248,1,88.000002685547,2|2,0:0|0:0,0:0:0:0:
217,229,78022,2,0,P|209:193|229:129,1,88.000002685547,8|0,0:0|0:0,0:0:0:0:
256,40,78325,6,0,L|160:52,1,88.000002685547,2|2,0:0|0:0,0:0:0:0:
71,63,78628,1,8,0:0:0:0:
67,224,78780,2,0,P|99:140|55:48,1,176.000005371094,2|2,0:0|0:0,0:0:0:0:
219,143,79234,1,8,0:0:0:0:
168,48,79386,5,2,0:0:0:0:
168,48,79462,1,2,0:0:0:0:
168,48,79537,2,0,B|232:40|232:40|272:56|272:56|364:44,1,176.000005371094,6|8,0:0|0:0,0:0:0:0:
219,143,79992,1,2,0:0:0:0:
219,143,80068,1,2,0:0:0:0:
219,143,80143,1,2,0:0:0:0:
360,44,80295,1,8,0:0:0:0:
340,216,80446,1,4,0:3:0:0:
384,40,80598,1,8,0:3:0:0:
484,196,80749,5,8,0:0:0:0:
484,196,81053,2,0,B|492:304|492:304|424:348,1,180.000006866455,8|8,0:0|0:0,0:0:0:0:
340,216,81659,1,8,0:0:0:0:
368,136,81810,6,0,B|332:120|296:140|296:140|252:168|200:136,1,160,6|2,0:0|0:0,0:0:0:0:
340,216,82265,2,0,P|344:248|324:304,1,80,4|0,0:3|0:0,0:0:0:0:
252,80,82568,2,0,P|248:48|268:-8,2,80,8|0|4,0:0|0:0|0:3,0:0:0:0:
436,40,83022,6,0,B|324:48|324:48|376:-4,1,160,6|0,0:0|0:0,0:0:0:0:
456,128,83477,2,0,L|448:240,1,80,8|0,0:0|0:0,0:0:0:0:
352,136,83780,1,8,0:3:0:0:
326,140,83855,1,8,0:3:0:0:
305,156,83931,1,8,0:3:0:0:
293,180,84007,1,8,0:3:0:0:
294,206,84083,1,4,0:3:0:0:
306,230,84158,1,4,0:3:0:0:
328,245,84234,6,0,B|244:232|272:292|168:272,1,160,6|2,0:0|0:0,0:0:0:0:
304,320,84689,1,8,0:0:0:0:
204,200,84840,1,8,0:0:0:0:
148,348,84992,1,2,0:0:0:0:
328,244,85143,2,8,L|388:244,3,40
296,244,85446,6,0,L|304:144,1,95.9999970703126,12|0,0:0|0:0,0:0:0:0:
91,79,85749,2,0,L|98:174,1,95.9999970703126,8|0,0:0|0:0,0:0:0:0:
340,8,86053,2,0,L|244:17,1,95.9999970703126,8|0,0:0|0:0,0:0:0:0:
98,174,86356,2,0,L|193:183,1,95.9999970703126,8|0,0:0|0:0,0:0:0:0:
416,112,86659,6,0,L|424:216,1,95.9999970703126,12|0,0:0|0:0,0:0:0:0:
312,360,86962,2,0,L|319:264,1,95.9999970703126,8|0,0:0|0:0,0:0:0:0:
224,88,87265,2,0,L|232:192,1,95.9999970703126,8|0,0:0|0:0,0:0:0:0:
92,336,87568,2,0,L|99:240,1,95.9999970703126,8|0,0:0|0:0,0:0:0:0:
0,48,87871,6,0,B|42:19|84:36|84:36|128:52|164:20|164:20|108:73|157:131|157:131|158:83,1,330.000012588501,6|0,0:0|0:0,0:0:0:0:
