osu file format v14

[General]
AudioFilename: audio.mp3
AudioLeadIn: 0
PreviewTime: 54916
Countdown: 0
SampleSet: Soft
StackLeniency: 0.7
Mode: 0
LetterboxInBreaks: 0
WidescreenStoryboard: 1

[Editor]
DistanceSpacing: 1
BeatDivisor: 4
GridSize: 4
TimelineZoom: 2.6

[Metadata]
Title:daze
TitleUnicode:daze
Artist:Jin feat. MARiA from GARNiDELiA
ArtistUnicode:じん ft. メイリア from GARNiDELiA
Creator:_kotachi_
Version:Hard
Source:メカクシティアクターズ
Tags:mekakucity actors jin kagerou project カゲロウプロジェクト S_o_h Akitoshi fufu-
BeatmapID:1090272
BeatmapSetID:513067

[Difficulty]
HPDrainRate:5
CircleSize:4
OverallDifficulty:7
ApproachRate:8
SliderMultiplier:1.4
SliderTickRate:1

[Events]
//Background and Video events
Video,-740,"zeda.avi"
0,0,"4f33df89-f448-412d-c19b-5c90a04e7892.jpg",0,0
//Break Periods
//Storyboard Layer 0 (Background)
//Storyboard Layer 1 (Fail)
//Storyboard Layer 2 (Pass)
//Storyboard Layer 3 (Foreground)
//Storyboard Sound Samples

[TimingPoints]
750,303.030303030303,4,2,0,70,1,0
1507,-100,4,2,1,70,0,0
16356,-100,4,2,2,70,0,0
35901,-100,4,2,1,70,0,0
55295,-90.9090909090909,4,2,1,70,0,1
74689,-100,4,2,1,70,0,0
81053,-133.333333333333,4,2,1,70,0,0
81810,-100,4,2,1,70,0,0

[Colours]
Combo1 : 255,255,0
Combo2 : 255,0,0
Combo3 : 128,0,0
Combo4 : 255,128,64
Combo5 : 128,64,64

[HitObjects]
256,188,750,6,2,L|256:44,2,140
172,212,1507,2,0,L|144:184,2,35,2|2|2,0:0|0:0|0:0,0:0:0:0:
236,280,1810,6,0,P|312:264|348:208,1,140,4|2,0:0|0:0,0:0:0:0:
432,192,2265,2,0,L|436:112,1,70,8|8,0:0|0:0,0:0:0:0:
360,84,2568,1,0,0:0:0:0:
408,16,2719,2,8,L|452:48,3,35
384,0,3022,6,0,P|312:12|268:92,1,140,4|2,0:0|0:0,0:0:0:0:
220,140,3477,2,0,L|172:132,4,35,8|8|8|8|0,0:0|0:0|0:0|0:3|0:0,0:0:0:0:
192,220,3931,1,4,0:3:0:0:
196,224,4083,1,2,0:0:0:0:
280,244,4234,6,0,P|280:280|376:340,1,140,4|2,0:0|0:0,0:0:0:0:
364,256,4689,2,0,L|456:248,2,70,8|8|2,0:0|0:0|0:0,0:0:0:0:
336,172,5143,2,8,L|384:168,2,35
340,80,5446,6,0,P|388:80|436:4,2,140,4|8|2,0:0|0:0|0:0,0:0:0:0:
356,0,6204,1,8,0:0:0:0:
356,0,6356,1,8,0:0:0:0:
264,128,6659,6,0,B|240:176|240:176|256:292,1,140,4|0,0:0|0:0,0:0:0:0:
328,208,7113,1,8,0:0:0:0:
336,296,7265,1,8,0:0:0:0:
412,240,7416,2,0,L|488:228,2,70,0|2|8,0:0|0:0|0:0,0:0:0:0:
408,152,7871,1,0,0:0:0:0:
320,112,8022,6,0,L|308:28,1,70,2|0,0:0|0:0,0:0:0:0:
276,180,8325,2,8,L|354:211,1,70
240,108,8628,2,0,L|173:160,2,70,2|0|8,0:0|0:0|0:0,0:0:0:0:
224,16,9083,6,0,B|148:4|160:56|64:36,1,140,2|2,0:0|0:0,0:0:0:0:
0,28,9537,2,8,P|1:62|15:94,1,70
92,132,9840,1,0,0:0:0:0:
92,132,9992,1,2,0:0:0:0:
100,220,10143,2,0,P|72:256|32:268,1,70,8|2,0:0|0:0,0:0:0:0:
25,188,10446,5,0,0:0:0:0:
25,188,10598,1,2,0:0:0:0:
100,220,10750,2,0,L|176:212,1,70,8|0,0:0|0:0,0:0:0:0:
169,306,11053,2,0,L|245:298,1,70,8|0,0:0|0:0,0:0:0:0:
238,298,11280,1,8,0:0:0:0:
238,298,11356,1,8,0:0:0:0:
324,272,11507,6,0,B|316:224|316:224|324:184|324:184|312:120,1,140,4|2,0:0|0:0,0:0:0:0:
222,94,11962,2,8,L|232:164,1,70
137,117,12265,2,0,L|128:48,1,70,0|2,0:0|0:0,0:0:0:0:
46,118,12568,2,0,L|56:188,1,70,8|0,0:0|0:0,0:0:0:0:
152,208,12871,5,2,0:0:0:0:
152,208,13022,2,0,L|164:288,1,70,0|8,0:0|0:0,0:0:0:0:
80,336,13325,2,0,B|120:316|120:316|224:340,1,140,8|2,0:0|0:0,0:0:0:0:
244,264,13780,1,8,0:0:0:0:
296,332,13931,6,0,P|324:292|280:188,1,140,2|2,0:0|0:0,0:0:0:0:
228,176,14386,1,8,0:0:0:0:
296,124,14537,1,8,0:0:0:0:
296,124,14613,1,8,0:0:0:0:
296,124,14689,2,0,L|372:120,1,70,8|8,0:0|0:3,0:0:0:0:
440,176,14992,2,0,L|516:172,1,70,4|2,0:3|0:0,0:0:0:0:
492,80,15295,5,8,0:0:0:0:
512,272,15598,1,8,0:0:0:0:
348,184,16053,2,8,L|278:190,1,70
292,280,16356,6,0,B|216:288|236:240|136:248,1,140,4|2,0:0|0:0,0:0:0:0:
104,178,16810,2,0,P|72:238|92:304,2,140,8|2|8,0:0|0:0|0:0,0:0:0:0:
188,164,17568,1,0,0:0:0:0:
136,96,17719,2,0,L|128:16,2,70,2|0|8,0:0|0:0|0:0,0:0:0:0:
220,88,18174,2,0,B|260:104|272:144|272:144|312:152|352:132,1,140,0|2,0:0|0:0,0:0:0:0:
408,108,18628,1,8,0:0:0:0:
408,192,18780,6,0,B|424:232|424:232|408:336,1,140,2|2,0:0|0:0,0:0:0:0:
333,276,19234,1,8,0:0:0:0:
333,276,19386,2,0,B|317:236|317:236|333:132,1,140,2|2,0:0|0:0,0:0:0:0:
340,56,19840,1,8,0:0:0:0:
256,80,19992,6,0,B|180:72|200:124|100:104,1,140,2|2,0:0|0:0,0:0:0:0:
48,48,20446,1,8,0:0:0:0:
48,48,20598,1,2,0:0:0:0:
44,135,20750,2,0,P|40:175|44:215,1,70,0|2,0:0|0:0,0:0:0:0:
129,212,21053,1,8,0:0:0:0:
56,296,21204,6,0,B|108:288|108:288|144:308|144:308|204:300,1,140,4|2,0:0|0:0,0:0:0:0:
164,220,21659,2,0,B|168:196|168:196|152:144,1,70,8|0,0:0|0:0,0:0:0:0:
248,232,21962,2,0,P|280:280|268:360,1,140,2|8,0:0|0:0,0:0:0:0:
356,368,22416,1,0,0:0:0:0:
372,288,22568,2,0,P|376:248|368:200,1,70,2|0,0:0|0:0,0:0:0:0:
352,136,22871,1,8,0:0:0:0:
352,136,23022,2,0,B|312:152|268:124|268:124|212:148,1,140,2|2,0:0|0:0,0:0:0:0:
132,124,23477,1,8,0:0:0:0:
132,124,23628,6,0,B|128:72|144:32|144:32|84:60,1,140,2|0,0:0|0:0,0:0:0:0:
56,184,24083,1,8,0:0:0:0:
56,184,24234,2,0,B|60:236|44:276|44:276|104:248,1,140,2|2,0:0|0:0,0:0:0:0:
156,208,24689,1,8,0:0:0:0:
168,292,24840,6,0,P|224:260|232:184,1,140,2|2,0:0|0:0,0:0:0:0:
264,104,25295,2,0,P|305:77|329:70,1,70,8|0,0:0|0:0,0:0:0:0:
347,70,25522,1,0,3:0:0:0:
347,70,25598,1,0,3:0:0:0:
352,152,25750,2,0,P|360:200|352:236,1,70,2|0,0:0|0:0,0:0:0:0:
376,304,26053,6,0,B|300:316|316:264|228:276,1,140,4|2,0:0|0:0,0:0:0:0:
176,328,26507,2,0,P|160:272|204:200,1,140,8|2,0:0|0:0,0:0:0:0:
282,189,26962,1,0,0:0:0:0:
300,112,27113,2,2,P|265:112|233:127,1,70,8|0,0:0|0:0,0:0:0:0:
152,128,27416,2,0,P|144:92|148:44,2,70,2|0|8,0:0|0:0|0:0,0:0:0:0:
196,204,27871,2,0,P|152:216|76:168,1,140,2|2,0:0|0:0,0:0:0:0:
0,136,28325,1,8,0:0:0:0:
0,136,28477,6,0,B|8:184|8:184|0:224|0:224|16:296,1,140,2|2,0:0|0:0,0:0:0:0:
92,300,28931,1,8,0:0:0:0:
148,364,29083,2,0,B|140:316|140:316|148:276|148:276|132:204,1,140,2|2,0:0|0:0,0:0:0:0:
152,132,29537,1,8,0:0:0:0:
224,192,29689,6,0,B|304:212|284:156|376:184,1,140,2|2,0:0|0:0,0:0:0:0:
432,248,30143,1,8,0:0:0:0:
432,248,30295,1,2,0:0:0:0:
512,223,30446,2,0,P|492:191|464:167,1,70,0|2,0:0|0:0,0:0:0:0:
407,116,30749,1,8,0:0:0:0:
316,104,30901,6,0,B|236:124|256:68|164:96,1,140,4|2,0:0|0:0,0:0:0:0:
136,176,31356,2,0,P|100:144|96:48,2,140,8|2|8,0:0|0:0|0:0,0:0:0:0:
184,252,32113,1,2,0:0:0:0:
184,252,32265,2,0,P|148:264|96:256,2,70,0|2|8,0:0|0:0|0:0,0:0:0:0:
276,252,32719,2,0,P|316:200|304:128,1,140,0|2,0:0|0:0,0:0:0:0:
236,80,33174,1,8,0:0:0:0:
152,104,33325,6,0,B|104:80|48:112|48:112|84:136,1,140,2|2,0:0|0:0,0:0:0:0:
136,184,33780,1,8,0:0:0:0:
184,252,33931,2,0,B|232:276|288:244|288:244|262:226,1,140,2|2,0:0|0:0,0:0:0:0:
212,164,34386,1,8,0:0:0:0:
136,184,34537,6,0,P|108:220|148:324,1,140,4|8,0:0|0:0,0:0:0:0:
204,336,34992,2,0,P|252:344|296:332,1,70,4|0,0:3|0:0,0:0:0:0:
332,276,35295,2,0,P|380:268|424:280,1,70,8|8,0:3|0:0,0:0:0:0:
420,276,35522,1,8,0:0:0:0:
440,280,35598,2,0,P|474:283|508:275,1,70,8|2,0:0|0:0,0:0:0:0:
468,196,35901,6,0,P|472:160|464:112,1,70,8|0,0:0|0:0,0:0:0:0:
456,40,36204,2,0,P|422:54|385:85,1,70,8|0,0:0|0:0,0:0:0:0:
324,128,36507,2,0,P|353:149|398:166,1,70,8|0,0:0|0:0,0:0:0:0:
468,128,36810,1,2,0:0:0:0:
395,74,36962,6,0,P|355:46|263:62,1,140,8|8,0:0|0:0,0:0:0:0:
232,136,37416,2,0,P|236:176|228:220,1,70,2|8,0:0|0:0,0:0:0:0:
140,240,37719,2,0,P|136:200|144:156,1,70,2|8,0:0|0:0,0:0:0:0:
144,152,37946,1,8,0:0:0:0:
148,136,38022,2,0,P|152:96|144:52,1,70,8|8,0:0|0:0,0:0:0:0:
56,28,38325,6,0,B|48:64|54:91|54:91|36:128|52:168,1,140,4|8,0:0|0:0,0:0:0:0:
36,256,38780,2,0,B|68:260|96:248|96:248|124:256|124:256|152:240|192:248,1,140,2|2,0:0|0:0,0:0:0:0:
248,288,39234,1,8,0:0:0:0:
248,288,39386,6,0,B|268:236|268:236|232:128,1,140,4|2,0:0|0:0,0:0:0:0:
304,96,39840,1,8,0:0:0:0:
304,96,39992,1,8,0:3:0:0:
392,72,40143,2,0,L|476:84,1,70,4|2,0:3|0:0,0:0:0:0:
340,4,40446,2,0,L|256:16,1,70,8|2,0:0|0:0,0:0:0:0:
208,72,40749,6,0,P|172:56|76:96,1,140,4|8,0:0|0:0,0:0:0:0:
68,172,41204,2,0,B|72:224|72:224|64:256|64:256|72:316,1,140,2|2,0:0|0:0,0:0:0:0:
156,264,41659,1,8,0:0:0:0:
228,320,41810,2,0,B|268:312|300:328|300:328|344:328|392:296,1,140,4|2,0:0|0:0,0:0:0:0:
396,228,42265,1,8,0:0:0:0:
308,236,42416,2,0,B|302:193|334:163|334:163|300:134|311:79,1,140,2|2,0:0|0:0,0:0:0:0:
312,24,42871,1,8,0:0:0:0:
392,104,43022,6,0,B|440:128|440:128|456:184|528:184,1,140,4|2,0:0|0:0,0:0:0:0:
480,260,43477,1,8,0:0:0:0:
416,320,43628,2,0,B|364:316|364:316|332:328|332:328|264:312,1,140,2|2,0:0|0:0,0:0:0:0:
324,244,44083,1,8,0:0:0:0:
232,240,44234,6,0,P|188:292|216:376,1,140,4|0,0:0|0:0,0:0:0:0:
280,316,44689,1,8,0:0:0:0:
280,316,44840,1,2,0:0:0:0:
313,238,44992,2,0,P|306:191|288:162,1,70,8|0,0:3|0:0,0:0:0:0:
276,168,45219,1,8,0:0:0:0:
276,168,45295,1,8,0:0:0:0:
318,98,45446,1,2,0:0:0:0:
376,160,45598,6,0,B|412:164|412:164|456:152,1,70,12|0,0:0|0:0,0:0:0:0:
400,80,45901,2,0,B|385:46|385:46|353:14,1,70,8|0,0:0|0:0,0:0:0:0:
318,98,46204,2,0,B|296:127|296:127|284:171,1,70,8|2,0:0|0:0,0:0:0:0:
296,240,46507,1,2,0:0:0:0:
352,324,46659,6,0,P|296:340|216:304,1,140,8|8,0:0|0:0,0:0:0:0:
204,208,47113,2,0,L|108:212,1,70,2|8,0:0|0:0,0:0:0:0:
48,287,47416,2,0,L|144:291,1,70,2|8,0:0|0:0,0:0:0:0:
136,296,47643,1,8,0:0:0:0:
152,303,47719,2,0,L|248:307,1,70,8|8,0:0|0:0,0:0:0:0:
272,232,48022,6,0,B|308:200|308:200|412:216,1,140,4|8,0:0|0:0,0:0:0:0:
444,296,48477,2,2,P|480:260|488:232,1,70
472,152,48780,2,0,P|436:116|428:88,1,70,2|8,0:0|0:0,0:0:0:0:
440,8,49083,6,0,B|400:0|360:36|360:36|332:24|332:24|288:52|224:16,1,210,4|8,0:0|0:0,0:0:0:0:
192,156,49840,2,8,P|144:112|140:64,2,105
284,144,50446,6,0,B|288:232|288:232|316:212|348:212,1,140,4|12,0:0|0:0,0:0:0:0:
444,192,50901,1,0,0:0:0:0:
444,192,51053,1,2,0:0:0:0:
408,272,51204,2,0,P|368:292|332:288,1,70,2|8,0:0|0:0,0:0:0:0:
320,372,51507,6,0,P|272:344|264:256,1,140,2|2,0:0|0:0,0:0:0:0:
328,212,51962,2,0,P|300:172|272:164,1,70,8|2,0:0|0:0,0:0:0:0:
200,192,52265,1,0,0:0:0:0:
260,264,52416,1,2,0:0:0:0:
260,264,52568,2,0,P|252:304|232:336,1,70,8|0,0:0|0:0,0:0:0:0:
172,272,52871,5,12,0:0:0:0:
91,294,53022,2,0,L|46:301,2,35,4|4|4,0:3|0:3|0:3,0:0:0:0:
142,178,53325,5,8,0:0:0:0:
62,201,53477,2,0,L|17:208,2,35,4|4|4,0:3|0:3|0:3,0:0:0:0:
112,84,53780,6,0,L|156:72,3,35,8|8|8|8,0:0|0:0|0:0|0:0,0:0:0:0:
176,72,54083,1,12,0:0:0:0:
212,168,54234,1,2,0:0:0:0:
276,84,54386,1,8,0:0:0:0:
176,72,54537,1,12,0:0:0:0:
312,188,54840,5,2,0:0:0:0:
312,188,54992,2,0,P|364:160|380:132,1,70,8|0,0:0|0:0,0:0:0:0:
462,166,55295,6,0,B|452:218|409:239|409:239|421:298,1,154.000004699707,4|8,0:0|0:0,0:0:0:0:
336,280,55749,1,2,0:0:0:0:
336,280,55901,2,0,L|239:287,1,77.0000023498536,0|2,0:0|0:0,0:0:0:0:
212,194,56204,2,0,L|302:201,1,77.0000023498536,8|0,0:0|0:0,0:0:0:0:
369,152,56507,2,0,L|364:66,2,77.0000023498536,2|0|8,0:0|0:0|0:0,0:0:0:0:
284,112,56962,2,0,B|212:93|202:145|124:116,1,154.000004699707,2|2,0:0|0:0,0:0:0:0:
80,53,57416,1,8,0:0:0:0:
80,53,57568,1,0,0:0:0:0:
47,133,57719,6,0,B|15:181|15:181|48:287,1,154.000004699707,4|8,0:0|0:0,0:0:0:0:
129,256,58174,1,0,0:0:0:0:
204,294,58325,2,0,L|291:287,1,77.0000023498536,2|0,0:0|0:0,0:0:0:0:
343,223,58628,2,0,L|426:234,1,77.0000023498536,8|2,0:0|0:0,0:0:0:0:
505,249,58931,1,0,0:0:0:0:
477,162,59083,2,0,P|472:109|488:74,1,77.0000023498536,2|8,0:0|0:0,0:0:0:0:
472,8,59386,2,0,B|425:20|425:20|380:10|380:10|320:24,1,154.000004699707,2|2,0:0|0:0,0:0:0:0:
379,91,59840,2,0,B|374:131|374:131|391:172,1,77.0000023498536,8|0,0:0|0:0,0:0:0:0:
427,244,60143,6,0,B|383:265|343:240|343:240|288:276,1,154.000004699707,4|8,0:0|0:0,0:0:0:0:
200,308,60598,2,0,P|196:268|212:224,1,77.0000023498536,2|0,0:0|0:0,0:0:0:0:
275,171,60901,2,0,P|279:131|266:87,1,77.0000023498536,2|8,0:0|0:0,0:0:0:0:
196,144,61204,2,0,P|168:140|118:118,1,77.0000023498536
52,78,61507,2,0,P|48:43|30:4,1,77.0000023498536,2|8,0:0|0:0,0:0:0:0:
50,164,61810,2,0,P|22:185|2:301,1,154.000004699707,2|2,0:0|0:0,0:0:0:0:
83,253,62265,1,8,0:0:0:0:
83,253,62416,1,0,0:0:0:0:
178,263,62568,6,0,L|339:274,1,154.000004699707,4|8,0:0|0:0,0:0:0:0:
396,187,63022,2,0,L|232:193,1,154.000004699707,2|2,0:0|0:0,0:0:0:0:
201,119,63477,2,0,P|171:143|155:178,1,77.0000023498536,8|0,0:0|0:0,0:0:0:0:
178,263,63780,5,4,0:0:0:0:
254,335,63931,2,8,L|293:338,2,38.5000011749268
157,378,64234,2,8,L|105:370,2,38.5000011749268
148,285,64537,1,8,0:0:0:0:
148,285,64613,1,8,0:0:0:0:
148,285,64689,2,0,L|264:277,1,115.50000352478,8|8,0:0|0:0,0:0:0:0:
287,277,64992,6,0,B|335:273|335:273|376:295|376:295|433:281,1,154.000004699707,4|8,0:0|0:0,0:0:0:0:
501,331,65446,1,0,0:0:0:0:
501,331,65598,2,0,P|513:291|505:245,1,77.0000023498536,2|2,0:0|0:0,0:0:0:0:
453,194,65901,2,0,P|441:161|446:113,1,77.0000023498536,8|0,0:0|0:0,0:0:0:0:
387,57,66204,2,0,P|417:39|444:6,2,77.0000023498536,2|0|8,0:0|0:0|0:0,0:0:0:0:
355,138,66659,2,0,P|317:115|199:126,1,154.000004699707,2|2,0:0|0:0,0:0:0:0:
160,193,67113,1,8,0:0:0:0:
160,193,67265,1,0,0:0:0:0:
248,208,67416,6,0,P|268:248|240:353,1,154.000004699707,4|12,0:0|0:0,0:0:0:0:
164,360,67871,1,0,0:0:0:0:
99,303,68022,2,0,L|18:277,1,77.0000023498536,0|2,0:0|0:0,0:0:0:0:
98,216,68325,2,0,L|171:191,1,77.0000023498536,8|0,0:0|0:0,0:0:0:0:
233,142,68628,1,2,0:0:0:0:
317,146,68780,2,0,L|341:223,1,77.0000023498536,0|8,0:0|0:0,0:0:0:0:
288,288,69083,2,0,P|361:308|420:258,1,154.000004699707,2|2,0:0|0:0,0:0:0:0:
425,186,69537,2,0,P|424:136|404:96,1,77.0000023498536,8|0,0:0|0:0,0:0:0:0:
356,48,69840,6,0,L|203:36,1,154.000004699707,4|8,0:0|0:0,0:0:0:0:
168,120,70295,2,0,L|324:135,1,154.000004699707,2|2,0:0|0:0,0:0:0:0:
400,144,70749,2,0,P|380:192|336:212,1,77.0000023498536,8|0,0:0|0:0,0:0:0:0:
272,220,71053,6,0,B|276:322|276:322|233:288,1,154.000004699707,4|8,0:0|0:0,0:0:0:0:
176,216,71507,2,0,B|171:111|171:111|217:144,1,154.000004699707,2|2,0:0|0:0,0:0:0:0:
292,135,71962,2,0,L|287:45,1,77.0000023498536,8|0,0:0|0:0,0:0:0:0:
360,192,72265,6,0,L|457:186,2,77.0000023498536,4|0|2,0:0|0:0|0:0,0:0:0:0:
280,224,72719,2,0,L|185:216,2,77.0000023498536,8|0|2,0:0|0:0|0:0,0:0:0:0:
272,308,73174,1,8,0:0:0:0:
272,308,73325,1,0,0:0:0:0:
184,304,73477,2,0,L|98:294,1,77.0000023498536,2|8,0:0|0:0,0:0:0:0:
48,204,73780,2,0,L|136:213,1,77.0000023498536,2|8,0:0|0:0,0:0:0:0:
172,136,74083,2,8,L|177:84,4,38.5000011749268
260,156,74537,1,8,0:0:0:0:
260,156,74613,1,8,0:0:0:0:
260,156,74689,6,0,P|316:156|392:88,1,140,4|12,0:0|0:0,0:0:0:0:
292,64,75143,1,0,0:0:0:0:
376,24,75295,2,0,L|452:16,1,70,2|2,0:0|0:0,0:0:0:0:
472,100,75598,2,0,P|480:140|464:192,1,70,8|0,0:0|0:0,0:0:0:0:
436,256,75901,2,0,P|431:290|439:324,2,70,2|0|8,0:0|0:0|0:0,0:0:0:0:
384,176,76356,2,0,B|300:168|336:216|232:192,1,140,2|2,0:0|0:0,0:0:0:0:
280,116,76810,1,8,0:0:0:0:
200,128,76962,1,0,0:0:0:0:
120,136,77113,6,0,L|116:216,1,70,2|0,0:0|0:0,0:0:0:0:
204,276,77416,2,0,L|200:206,1,70,8|0,0:0|0:0,0:0:0:0:
200,128,77719,1,0,0:0:0:0:
280,116,77871,1,2,0:0:0:0:
360,104,78022,2,0,L|440:92,1,70,8|0,0:0|0:0,0:0:0:0:
376,188,78325,2,0,L|296:200,2,70,2|0|8,0:0|0:0|0:0,0:0:0:0:
472,176,78780,2,0,B|504:156|504:156|488:264,1,140,2|2,0:0|0:0,0:0:0:0:
404,272,79234,1,8,0:0:0:0:
320,296,79386,5,2,0:0:0:0:
320,296,79462,1,0,0:0:0:0:
320,296,79537,2,0,B|280:288|280:288|224:292,1,70,4|0,0:0|0:0,0:0:0:0:
276,368,79840,1,8,0:0:0:0:
192,348,79992,1,2,0:0:0:0:
192,348,80143,2,0,B|152:356|152:356|122:353,1,70,8|8,0:0|0:3,0:0:0:0:
146,264,80446,1,4,0:3:0:0:
146,264,80598,1,2,0:0:0:0:
219,211,80749,5,8,0:0:0:0:
219,211,81053,2,0,P|224:140|300:92,1,157.500006008148,8|8,0:0|0:0,0:0:0:0:
213,42,81659,1,8,0:0:0:0:
304,12,81810,6,0,B|352:24|352:24|392:16|392:16|464:32,1,140,4|2,0:0|0:0,0:0:0:0:
396,112,82265,2,0,B|404:144|404:144|396:188,1,70,4|0,0:3|0:0,0:0:0:0:
312,220,82568,2,0,B|304:188|304:188|312:144,2,70,8|8|4,0:0|0:3|0:3,0:0:0:0:
392,268,83022,6,0,P|360:300|264:300,1,140,4|2,0:0|0:0,0:0:0:0:
220,232,83477,2,0,P|184:228|140:240,1,70,8|0,0:0|0:0,0:0:0:0:
184,316,83780,2,0,L|188:360,4,35,2|2|2|2|2,0:0|0:0|0:0|0:0|0:0,0:0:0:0:
96,308,84234,6,0,B|64:280|64:244|64:244|40:212|0:208,1,140,4|2,0:0|0:0,0:0:0:0:
96,160,84689,2,0,L|180:152,1,70,8|0,0:0|0:0,0:0:0:0:
252,140,84992,1,2,0:0:0:0:
320,208,85143,2,8,L|324:260,3,35
324,264,85446,6,0,P|364:320|316:332,1,140,4|8,0:0|0:0,0:0:0:0:
193,333,86053,2,0,P|141:302|188:264,1,140,8|8,0:0|0:0,0:0:0:0:
304,172,86659,6,8,P|372:160|423:114,1,140,12|8,0:0|0:0,0:0:0:0:
207,173,87265,2,8,P|139:162|88:116,1,140
256,32,87871,5,4,0:0:0:0:
