osu file format v14

[General]
AudioFilename: audio.mp3
AudioLeadIn: 0
PreviewTime: 54916
Countdown: 0
SampleSet: Soft
StackLeniency: 0.7
Mode: 0
LetterboxInBreaks: 0
WidescreenStoryboard: 1

[Editor]
DistanceSpacing: 1
BeatDivisor: 4
GridSize: 4
TimelineZoom: 2.6

[Metadata]
Title:daze
TitleUnicode:daze
Artist:Jin feat. MARiA from GARNiDELiA
ArtistUnicode:じん ft. メイリア from GARNiDELiA
Creator:_kotachi_
Version:Easy
Source:メカクシティアクターズ
Tags:mekakucity actors jin kagerou project カゲロウプロジェクト S_o_h Akitoshi fufu-
BeatmapID:1090270
BeatmapSetID:513067

[Difficulty]
HPDrainRate:2.5
CircleSize:3
OverallDifficulty:2
ApproachRate:3
SliderMultiplier:0.9
SliderTickRate:1

[Events]
//Background and Video events
0,0,"4f33df89-f448-412d-c19b-5c90a04e7892.jpg",0,0
Video,-740,"zeda.avi"
//Break Periods
//Storyboard Layer 0 (Background)
//Storyboard Layer 1 (Fail)
//Storyboard Layer 2 (Pass)
//Storyboard Layer 3 (Foreground)
//Storyboard Sound Samples

[TimingPoints]
750,303.030303030303,4,2,0,70,1,0
1507,-100,4,2,1,70,0,0
16356,-100,4,2,2,70,0,0
35901,-100,4,2,1,70,0,0
55295,-100,4,2,1,70,0,1
74689,-100,4,2,1,70,0,0

[Colours]
Combo1 : 255,255,0
Combo2 : 255,0,0
Combo3 : 128,0,0
Combo4 : 255,128,64
Combo5 : 128,64,64

[HitObjects]
276,96,1810,6,0,B|325:62|385:94|385:94|441:127|496:100,1,225,4|2,0:0|0:0,0:0:0:0:
424,221,3022,2,0,P|376:296|236:291,1,225,4|2,0:0|0:0,0:0:0:0:
144,215,4234,2,0,B|124:155|160:107|160:107|96:83|104:3,1,225,4|2,0:0|0:0,0:0:0:0:
238,17,5446,2,0,B|354:9|318:101|454:85,1,225,4|8,0:0|0:0,0:0:0:0:
507,205,6659,6,0,P|464:304|351:309,1,225,4|2,0:0|0:0,0:0:0:0:
268,323,7719,1,8,0:0:0:0:
182,349,8022,2,0,P|186:285|206:253,1,90,2|8,0:0|0:0,0:0:0:0:
283,234,8628,2,0,P|279:170|259:138,1,90,2|8,0:0|0:0,0:0:0:0:
246,60,9234,6,0,B|298:52|330:84|330:84|366:120|418:108,1,180,2|2,0:0|0:0,0:0:0:0:
487,157,10143,2,0,P|499:117|491:65,2,90,8|2|8,0:0|0:0|0:0,0:0:0:0:
407,199,11053,1,2,0:0:0:0:
472,316,11507,6,0,P|370:301|238:301,1,225,4|2,0:0|0:0,0:0:0:0:
158,293,12568,1,8,0:0:0:0:
70,270,12871,2,0,P|86:228|123:204,1,90,2|8,0:0|0:0,0:0:0:0:
156,122,13477,2,0,P|193:146|210:188,1,90,2|8,0:0|0:0,0:0:0:0:
265,258,14083,6,0,P|303:162|293:74,1,180,2|2,0:0|0:0,0:0:0:0:
208,100,14992,1,2,0:0:0:0:
245,15,15295,2,8,P|288:2|345:11,1,90
508,224,16356,6,0,P|449:255|366:246,1,135,4|8,0:0|0:0,0:0:0:0:
339,173,17113,2,0,P|279:141|244:143,1,90,2|8,0:0|0:0,0:0:0:0:
172,176,17719,2,0,P|133:229|146:312,2,135,2|2|8,0:0|0:0|0:0,0:0:0:0:
230,107,18931,6,0,P|157:86|83:157,1,180,2|2,0:0|0:0,0:0:0:0:
172,176,19840,2,0,P|214:198|260:194,2,90,8|2|8,0:0|0:0|0:0,0:0:0:0:
230,107,20750,2,0,P|295:96|382:111,1,135,2|4,0:0|0:0,0:0:0:0:
475,179,21659,6,0,P|469:266|405:327,1,180,8|8,0:0|0:0,0:0:0:0:
331,377,22568,2,0,P|320:313|362:247,2,135,2|0|8,0:0|0:0|0:0,0:0:0:0:
406,328,23780,1,2,0:0:0:0:
443,246,24083,2,0,B|467:146|467:146|455:70,1,180,8|8,0:0|0:0,0:0:0:0:
368,93,24992,2,0,B|270:101,1,90,2|6,0:0|0:0,0:0:0:0:
214,164,25598,2,0,P|163:201|82:183,1,135,8|6,0:0|0:0,0:0:0:0:
34,70,26507,6,0,B|90:82|122:66|122:66|174:42|242:66,1,180,8|8,0:0|0:0,0:0:0:0:
296,31,27416,2,0,P|292:107|192:147,1,180,2|2,0:0|0:0,0:0:0:0:
116,153,28325,2,0,B|132:197|132:197|128:240,1,90,8|2,0:0|0:0,0:0:0:0:
56,294,28931,2,0,B|40:250|40:250|44:198,1,90,8|2,0:0|0:0,0:0:0:0:
29,117,29537,1,8,0:0:0:0:
103,66,29840,2,0,P|195:84|241:76,1,135,2|0,0:0|0:0,0:0:0:0:
317,114,30598,2,0,P|383:108|423:120,1,90,8|6,0:0|0:0,0:0:0:0:
396,256,31356,6,0,P|320:264|276:360,1,180,8|8,0:0|0:0,0:0:0:0:
368,344,32265,2,0,P|420:344|460:312,1,90,2|8,0:0|0:0,0:0:0:0:
484,240,32871,2,0,P|464:204|416:168,1,90,0|8,0:0|0:0,0:0:0:0:
336,160,33477,2,0,P|276:164|224:108,2,135,2|2|8,0:0|0:0|0:0,0:0:0:0:
396,96,34689,2,0,P|388:48|352:8,1,90,2|0,0:0|0:0,0:0:0:0:
304,84,35295,1,8,0:0:0:0:
164,200,35901,6,8,B|160:91,2,90
300,188,36962,2,8,P|336:240|328:324,1,135
260,356,37719,2,8,P|248:308|268:248,1,90
300,188,38325,6,0,B|388:184|388:184|496:176,1,180,4|2,0:0|0:0,0:0:0:0:
392,280,39386,2,0,L|256:284,1,135,4|8,0:0|0:0,0:0:0:0:
176,324,40143,2,0,P|168:280|184:228,1,90,4|8,0:3|0:0,0:0:0:0:
208,152,40749,2,0,P|176:108|132:92,2,90,2|8|2,0:0|0:0|0:0,0:0:0:0:
300,248,41810,2,0,P|368:244|440:244,1,135,4|8,0:0|0:0,0:0:0:0:
512,192,42568,1,2,0:0:0:0:
400,116,43022,6,0,P|344:144|268:140,1,135,4|8,0:0|0:0,0:0:0:0:
288,232,43780,1,0,0:0:0:0:
228,300,44083,1,8,0:0:0:0:
148,256,44386,2,8,L|140:148,2,90,2|8|2,0:0|0:0|0:0,0:0:0:0:
148,344,45295,1,8,0:0:0:0:
228,300,45598,6,8,L|320:288,2,90
292,180,46659,2,8,L|436:160,1,135
504,208,47416,2,0,P|520:168|500:108,1,90,2|8,0:0|0:0,0:0:0:0:
436,72,48022,6,0,B|240:104,1,180,4|2,0:0|0:0,0:0:0:0:
204,24,49083,2,0,P|158:97|180:152,1,135,4|8,0:0|0:0,0:0:0:0:
224,212,49840,2,0,P|156:228|80:148,1,180,8|4,0:0|0:0,0:0:0:0:
4,216,50749,5,8,0:0:0:0:
28,304,51053,2,2,L|124:312,1,90,2|8,0:0|0:0,0:0:0:0:
208,320,51659,2,0,B|308:300|280:368|384:356,1,180,2|2,0:0|0:0,0:0:0:0:
436,288,52568,1,8,0:0:0:0:
256,192,52871,12,8,54083,0:0:0:0:
176,64,55295,6,0,B|360:48,1,180,4|2,0:0|0:0,0:0:0:0:
388,132,56204,1,8,0:0:0:0:
344,212,56507,2,0,P|385:227|429:218,2,90,2|8|0,0:0|0:0|0:0,0:0:0:0:
296,136,57416,1,8,0:0:0:0:
248,216,57719,6,0,B|172:252|172:252|72:228,1,180,4|2,0:0|0:0,0:0:0:0:
124,152,58628,1,8,0:0:0:0:
112,64,58931,2,0,P|148:64|212:144,2,135,2|2|8,0:0|0:0|0:0,0:0:0:0:
40,120,60143,6,0,B|28:172|28:172|40:300,1,180,4|2,0:0|0:0,0:0:0:0:
128,272,61053,1,8,0:0:0:0:
208,312,61356,2,0,P|216:260|200:220,1,90,2|8,0:0|0:0,0:0:0:0:
128,176,61962,2,0,P|120:124|136:84,1,90,2|8,0:0|0:0,0:0:0:0:
208,136,62568,2,0,L|344:128,2,135,2|0|8,0:0|0:0|0:0,0:0:0:0:
128,176,63780,2,0,L|112:280,1,90,4|8,0:0|0:0,0:0:0:0:
204,276,64386,1,8,0:0:0:0:
292,284,64689,1,8,0:0:0:0:
380,292,64992,6,0,P|464:296|500:212,1,180,4|2,0:0|0:0,0:0:0:0:
464,136,65901,1,8,0:0:0:0:
376,160,66204,2,0,P|332:176|276:172,2,90,2|8|2,0:0|0:0|0:0,0:0:0:0:
320,92,67113,1,8,0:0:0:0:
232,96,67416,6,0,P|168:120|112:212,1,180,4|2,0:0|0:0,0:0:0:0:
160,288,68325,1,8,0:0:0:0:
248,272,68628,2,0,B|332:252|312:300|400:280,2,135,2|2|8,0:0|0:0|0:0,0:0:0:0:
196,200,69840,6,0,P|176:152|184:96,1,90,4|8,0:0|0:0,0:0:0:0:
264,140,70446,1,2,0:0:0:0:
352,116,70749,1,8,0:0:0:0:
432,160,71053,2,0,B|456:204|456:204|452:248,1,90,4|8,0:0|0:0,0:0:0:0:
408,324,71659,1,2,0:0:0:0:
360,248,71962,1,8,0:0:0:0:
320,328,72265,6,8,B|252:344|252:344|180:320,2,135,12|8|8,0:0|0:0|0:0,0:0:0:0:
276,248,73477,2,0,P|288:200|332:164,1,90,2|8,0:0|0:0,0:0:0:0:
404,160,74083,2,0,P|384:116|344:88,1,90,8|8,0:0|0:0,0:0:0:0:
260,96,74689,6,0,P|168:76|76:80,1,180,4|2,0:0|0:0,0:0:0:0:
124,160,75598,1,8,0:0:0:0:
100,248,75901,2,0,P|92:296|104:348,2,90,2|8|0,0:0|0:0|0:0,0:0:0:0:
188,228,76810,1,8,0:0:0:0:
276,220,77113,6,0,B|380:228|332:276|452:280,1,180,2|2,0:0|0:0,0:0:0:0:
444,184,78022,2,0,L|428:80,1,90,8|2,0:0|0:0,0:0:0:0:
420,4,78628,1,8,0:0:0:0:
348,60,78931,2,0,B|288:60|288:60|244:88|244:88|160:76,1,180,2|4,0:0|0:0,0:0:0:0:
92,108,79840,6,0,P|92:52|116:16,2,90,8|8|4,0:0|0:3|0:3,0:0:0:0:
164,164,80749,1,8,0:0:0:0:
80,200,81053,1,8,0:0:0:0:
340,304,81810,6,0,B|356:248|312:208|312:208|332:140|396:136,1,225,4|8,0:0|0:0,0:0:0:0:
292,48,83022,2,0,B|236:28|192:80|192:80|148:128|76:92,1,225,4|8,0:0|0:0,0:0:0:0:
72,232,84234,2,0,B|120:240|148:200|148:200|216:256|292:220,1,225,4|8,0:0|0:0,0:0:0:0:
256,192,85446,12,12,87871,0:0:0:0:
