osu file format v14

[General]
AudioFilename: audio.mp3
AudioLeadIn: 0
PreviewTime: 76335
Countdown: 0
SampleSet: Soft
StackLeniency: 0.3
Mode: 0
LetterboxInBreaks: 0
WidescreenStoryboard: 1

[Editor]
Bookmarks: 5197,20197,39206,48711,58216,69652,77226,83241,83315,83390,91484,97424,101880,106929,116434,124602,135444,141979,154454,163810,166335,180593,187721,190098,198711,209107,218761
DistanceSpacing: 1.3
BeatDivisor: 8
GridSize: 16
TimelineZoom: 2.100001

[Metadata]
Title:Headphone Actor
TitleUnicode:ヘッドフォンアクター
Artist:JIN feat. LiSA
ArtistUnicode:じん feat. LiSA
Creator:Amiya
Version:Collab Hard
Source:カゲロウプロジェクト
Tags:Kibbleru -Akito cococolaco Sidetail Sparhten kkipalt mekakucity actors Japanese pop メカクシティアクターズ
BeatmapID:2009111
BeatmapSetID:936267

[Difficulty]
HPDrainRate:4
CircleSize:4
OverallDifficulty:6
ApproachRate:8
SliderMultiplier:1
SliderTickRate:1

[Events]
//Background and Video events
0,0,"takane.jpg",0,0
//Break Periods
2,97624,101100
2,155642,163060
//Storyboard Layer 0 (Background)
//Storyboard Layer 1 (Fail)
//Storyboard Layer 2 (Pass)
//Storyboard Layer 3 (Foreground)
//Storyboard Sound Samples

[TimingPoints]
-1,297.029702970297,4,2,1,40,1,0
20196,-83.3333333333333,4,2,1,30,0,0
20197,-83.3333333333333,4,2,1,70,0,0
39206,-83.3333333333333,4,2,1,60,0,0
48710,-100,4,2,1,60,0,0
48711,-100,4,2,1,50,0,0
58216,-100,4,2,1,60,0,0
65345,-100,4,2,1,65,0,0
73513,-100,4,2,1,70,0,0
76187,-100,4,2,1,50,0,0
76484,-100,4,2,1,60,0,0
77226,-76.9230769230769,4,2,1,80,0,1
84206,-76.9230769230769,4,2,1,90,0,1
86731,-76.9230769230769,4,2,1,80,0,1
91484,-83.3333333333333,4,2,1,60,0,0
94899,-83.3333333333333,4,2,1,70,0,0
96385,-83.3333333333333,4,2,1,50,0,0
97424,-83.3333333333333,4,2,1,20,0,0
101880,-83.3333333333333,4,2,1,60,0,0
106929,-100,4,2,1,50,0,0
116434,-100,4,2,1,60,0,0
128315,-100,4,2,1,70,0,0
134404,-100,4,2,1,50,0,0
134999,-100,4,2,1,70,0,0
135444,-76.9230769230769,4,2,1,80,0,1
142424,-76.9230769230769,4,2,1,90,0,1
144949,-76.9230769230769,4,2,1,80,0,1
149701,-83.3333333333333,4,2,1,60,0,0
153117,-83.3333333333333,4,2,1,70,0,0
163810,-83.3333333333333,4,2,1,40,0,0
164999,-83.3333333333333,4,2,1,50,0,0
165593,-83.3333333333333,4,2,1,60,0,0
165890,-83.3333333333333,4,2,1,65,0,0
166187,-83.3333333333333,4,2,1,75,0,0
166335,-76.9230769230769,4,2,1,85,0,1
173315,-76.9230769230769,4,2,1,95,0,1
175840,-76.9230769230769,4,2,1,85,0,1
180593,-83.3333333333333,4,2,1,60,0,0
189503,-83.3333333333333,4,2,1,30,0,0
189652,-83.3333333333333,4,2,1,35,0,0
190098,-83.3333333333333,4,2,1,70,0,0
209107,-83.3333333333333,4,2,1,60,0,0
219503,-83.3333333333333,4,2,1,30,0,0
219800,-83.3333333333333,4,2,1,5,0,0

[Colours]
Combo1 : 120,233,227
Combo2 : 199,151,215
Combo3 : 255,145,162
Combo4 : 172,188,253

[HitObjects]
274,161,741,6,0,P|268:136|271:110,2,50,2|2|2,0:0|0:0|0:0,0:0:0:0:
322,204,1187,6,0,L|212:198,1,100,2|2,0:0|0:0,0:0:0:0:
144,302,1781,2,0,L|254:296,1,100,2|2,0:0|0:0,0:0:0:0:
308,292,2226,6,0,P|348:320|408:315,2,100,2|2|2,0:0|0:0|0:0,0:0:0:0:
226,190,3117,1,2,0:0:0:0:
226,190,3266,2,0,L|234:134,1,50,2|2,0:0|0:0,0:0:0:0:
245,76,3563,6,0,P|276:80|302:74,2,50,2|2|2,0:0|0:0|0:0,0:0:0:0:
184,52,4008,2,0,P|153:47|83:83,1,100,2|2,0:0|0:0,0:0:0:0:
55,127,4454,2,0,L|61:179,1,50,2|2,0:0|0:0,0:0:0:0:
107,227,4751,5,2,0:0:0:0:
107,227,4899,2,0,L|113:279,1,50,2|2,0:0|0:0,0:0:0:0:
122,341,5197,1,2,0:0:0:0:
233,274,5494,2,0,P|236:247|230:218,2,50,2|2|2,0:0|0:0|0:0,0:0:0:0:
196,332,5939,5,2,0:0:0:0:
196,332,6088,2,0,L|136:330,1,50,2|2,0:0|0:0,0:0:0:0:
80,327,6385,2,0,L|74:219,1,100,2|2,0:0|0:0,0:0:0:0:
118,179,6830,2,0,L|115:125,1,50,2|2,0:0|0:0,0:0:0:0:
109,64,7127,6,0,P|72:61|57:55,2,50,2|2|2,0:0|0:0|0:0,0:0:0:0:
170,41,7573,1,2,0:0:0:0:
238,151,7870,2,0,P|235:174|243:213,2,50,2|2|2,0:0|0:0|0:0,0:0:0:0:
264,92,8315,5,2,0:0:0:0:
264,92,8464,2,0,L|325:90,1,50,2|2,0:0|0:0,0:0:0:0:
365,42,8761,2,0,P|351:85|367:136,1,100,2|2,0:0|0:0,0:0:0:0:
429,183,9206,1,2,0:0:0:0:
429,183,9355,6,0,P|443:226|427:277,1,100,2|2,0:0|0:0,0:0:0:0:
369,316,9800,1,2,0:0:0:0:
369,316,9949,1,2,0:0:0:0:
262,241,10246,1,2,0:0:0:0:
262,241,10395,2,0,P|257:211|265:184,1,50,2|2,1:2|0:0,0:0:0:0:
308,147,10692,6,0,P|274:129|213:148,1,100,2|2,1:2|0:0,0:0:0:0:
217,144,11286,2,0,P|183:126|122:145,1,100,2|2,0:0|0:0,0:0:0:0:
87,193,11731,1,0,0:0:0:0:
122,254,11880,5,2,0:0:0:0:
122,254,12028,2,0,L|120:311,1,50,2|0,0:0|0:0,0:0:0:0:
113,368,12325,1,2,0:0:0:0:
219,293,12622,2,0,P|261:277|317:291,1,100,2|2,0:0|0:0,0:0:0:0:
364,329,13068,6,0,P|391:323|415:328,2,50,2|2|2,0:0|0:0|0:0,0:0:0:0:
314,370,13513,2,0,L|213:373,1,100,2|2,0:0|0:0,0:0:0:0:
214,372,14107,1,2,0:0:0:0:
181,315,14256,5,2,0:0:0:0:
181,315,14404,2,0,L|186:262,1,50,2|0,0:0|0:0,0:0:0:0:
146,213,14701,2,0,P|189:233|250:217,1,100,2|2,0:0|0:0,0:0:0:0:
286,178,15147,2,0,L|283:127,1,50,2|2,0:0|0:0,0:0:0:0:
218,121,15444,5,2,0:0:0:0:
218,121,15593,2,0,L|221:70,1,50,2|2,0:0|0:0,0:0:0:0:
229,6,15890,1,2,0:0:0:0:
103,37,16187,1,2,0:0:0:0:
145,159,16484,6,0,P|137:212|99:250,1,100,2|2,0:0|0:0,0:0:0:0:
147,369,17078,2,0,P|153:320|185:282,1,100,2|2,0:0|0:0,0:0:0:0:
248,270,17523,2,0,L|306:276,1,50,2|2,0:0|0:0,0:0:0:0:
362,283,17820,5,2,0:0:0:0:
238,89,20197,6,0,P|272:130|266:212,1,119.999996337891,4|8,1:2|0:0,0:0:0:0:
142,267,20791,1,0,1:0:0:0:
142,267,20939,2,0,P|169:250|204:248,1,59.9999981689454,0|8,1:0|0:0,0:0:0:0:
270,285,21236,6,0,P|325:288|382:248,1,119.999996337891,4|0,1:2|1:0,0:0:0:0:
411,180,21682,2,0,P|421:151|446:129,1,59.9999981689454,8|0,0:0|0:0,0:0:0:0:
393,68,21979,2,0,P|362:73|330:63,1,59.9999981689454,0|0,1:0|1:0,0:0:0:0:
290,133,22276,2,0,P|310:156|316:188,1,59.9999981689454,8|0,0:0|0:0,0:0:0:0:
283,265,22573,6,0,P|227:246|163:270,1,119.999996337891,4|8,1:2|0:0,0:0:0:0:
80,363,23167,1,0,1:0:0:0:
80,363,23315,2,0,P|92:335|88:301,1,59.9999981689454,0|8,1:0|0:0,0:0:0:0:
32,243,23612,6,0,P|19:199|48:129,1,119.999996337891,4|0,1:2|1:0,0:0:0:0:
127,108,24058,2,0,P|160:113|198:104,1,59.9999981689454,8|0,0:0|0:0,0:0:0:0:
244,45,24355,2,0,P|273:40|302:45,1,59.9999981689454,0|0,1:0|1:0,0:0:0:0:
373,88,24652,2,0,P|405:93|444:84,1,59.9999981689454,8|0,0:0|1:0,0:0:0:0:
495,37,24949,6,0,P|517:83|491:148,1,119.999996337891,4|8,1:2|0:0,0:0:0:0:
401,179,25395,1,0,0:0:0:0:
401,179,25543,2,0,P|412:210|406:243,2,59.9999981689454,0|0|8,1:0|1:0|0:0,0:0:0:0:
341,124,25989,6,0,P|292:149|219:129,1,119.999996337891,4|0,1:2|1:0,0:0:0:0:
177,80,26434,2,0,P|134:71|106:80,1,59.9999981689454,8|0,0:0|0:0,0:0:0:0:
62,152,26731,2,0,P|76:193|96:213,1,59.9999981689454,0|0,1:0|1:0,0:0:0:0:
175,217,27028,2,0,P|202:183|210:155,1,59.9999981689454,8|0,0:0|1:0,0:0:0:0:
263,99,27325,6,0,P|300:85|384:137,1,119.999996337891,4|8,1:2|0:2,0:0:0:0:
400,191,27771,1,0,0:0:0:0:
400,191,27919,2,0,P|395:222|406:256,2,59.9999981689454,0|0|8,1:0|1:0|0:0,0:0:0:0:
455,119,28365,6,0,P|486:67|473:10,1,119.999996337891,4|0,1:2|1:0,0:0:0:0:
379,24,28810,1,8,0:0:0:0:
379,24,28959,2,0,P|319:23|275:62,1,119.999996337891,0|0,0:0|1:0,0:0:0:0:
254,144,29404,1,8,0:0:0:0:
153,184,29701,6,0,P|197:144|257:145,1,119.999996337891,4|8,1:2|0:0,0:0:0:0:
330,255,30296,1,0,1:0:0:0:
330,255,30444,2,0,P|320:221|327:189,1,59.9999981689454,0|8,1:0|0:0,0:0:0:0:
374,130,30741,2,0,P|392:95|363:7,1,119.999996337891,4|0,1:2|1:0,0:0:0:0:
297,61,31187,2,0,P|265:67|233:61,1,59.9999981689454,8|0,0:0|0:0,0:0:0:0:
181,9,31484,2,0,P|148:2|117:9,1,59.9999981689454,0|0,1:0|1:0,0:0:0:0:
68,62,31781,2,0,P|36:68|5:62,1,59.9999981689454,8|0,0:0|1:0,0:0:0:0:
0,146,32078,6,0,P|34:146|87:219,1,119.999996337891,4|8,1:2|0:0,0:0:0:0:
56,336,32672,1,0,1:0:0:0:
56,336,32820,2,0,P|77:309|106:301,1,59.9999981689454,0|8,1:0|0:0,0:0:0:0:
173,332,33117,6,0,P|223:353|295:330,1,119.999996337891,4|0,1:2|1:0,0:0:0:0:
325,272,33563,2,0,P|330:240|323:210,1,59.9999981689454,8|0,0:0|0:0,0:0:0:0:
384,170,33860,2,0,P|409:190|438:200,1,59.9999981689454,0|0,1:0|1:0,0:0:0:0:
448,277,34157,2,8,P|416:288|394:310,1,59.9999981689454,8|0,0:0|1:0,0:0:0:0:
356,374,34454,6,0,P|319:356|241:378,1,119.999996337891,4|8,1:2|0:0,0:0:0:0:
178,325,34899,1,0,0:0:0:0:
178,325,35048,2,0,P|179:286|163:260,2,59.9999981689454,0|0|8,1:0|1:0|0:0,0:0:0:0:
94,304,35494,6,0,P|72:248|92:192,1,119.999996337891,4|0,1:2|1:0,0:0:0:0:
178,181,35939,2,0,P|190:151|188:115,1,59.9999981689454,8|0,0:0|0:0,0:0:0:0:
130,74,36236,2,0,P|98:78|66:98,1,59.9999981689454,0|0,1:0|1:0,0:0:0:0:
53,176,36533,2,0,P|73:201|106:218,1,59.9999981689454,8|0,0:0|1:0,0:0:0:0:
178,181,36830,6,0,P|232:191|273:250,1,119.999996337891,4|8,1:2|0:0,0:0:0:0:
252,327,37276,1,0,0:0:0:0:
252,327,37424,2,0,P|217:321|193:329,2,59.9999981689454,0|0|8,1:0|1:0|0:0,0:0:0:0:
336,348,37870,6,0,P|379:363|454:334,1,119.999996337891,4|8,1:2|3:0,0:0:0:0:
491,279,38315,1,8,0:0:0:0:
439,215,38464,1,8,3:0:0:0:
488,137,38612,1,8,0:0:0:0:
488,137,38909,2,0,L|493:174,2,29.9999990844727,8|8|8,0:0|0:0|0:0,0:0:0:0:
511,67,39206,6,0,P|483:101|405:102,1,119.999996337891,12|0,1:2|0:0,0:0:0:0:
411,105,39800,1,0,1:0:0:0:
332,93,39949,2,0,L|340:232,1,119.999996337891,0|8,1:0|0:0,0:0:0:0:
261,214,40395,5,0,0:0:0:0:
261,214,40543,2,0,P|202:227|142:202,1,119.999996337891,0|0,1:0|0:0,0:0:0:0:
171,114,40989,1,0,1:0:0:0:
171,114,41137,1,0,1:0:0:0:
171,114,41286,2,0,L|165:51,1,59.9999981689453,8|0,0:0|0:0,0:0:0:0:
85,30,41583,6,0,P|54:35|15:115,1,119.999996337891,0|8,1:0|0:0,0:0:0:0:
75,158,42028,2,0,L|68:229,1,59.9999981689453,0|0,0:0|1:0,0:0:0:0:
0,280,42325,2,0,L|7:351,1,59.9999981689453,0|0,1:0|0:0,0:0:0:0:
88,309,42622,5,8,0:0:0:0:
207,316,42919,1,0,1:0:0:0:
321,322,43216,2,0,L|389:332,2,59.9999981689453,0|0|0,0:0|1:0|1:0,0:0:0:0:
281,251,43662,2,0,L|277:187,1,59.9999981689453,8|0,0:0|0:0,0:0:0:0:
282,96,43959,6,0,P|307:114|399:106,1,119.999996337891,0|8,1:0|0:0,0:0:0:0:
471,103,44404,2,0,L|479:167,1,59.9999981689453,0|0,0:0|1:0,0:0:0:0:
508,228,44701,2,0,L|500:292,1,59.9999981689453,8|0,0:0|0:0,0:0:0:0:
442,331,44999,1,8,0:0:0:0:
394,276,45147,5,0,0:0:0:0:
394,276,45296,2,0,L|270:268,1,119.999996337891,0|0,1:0|0:0,0:0:0:0:
240,332,45741,1,0,1:0:0:0:
240,332,45890,1,0,1:0:0:0:
240,332,46038,2,0,L|173:328,1,59.9999981689453,8|0,0:0|0:0,0:0:0:0:
104,342,46335,6,0,P|79:322|85:233,1,119.999996337891,0|8,1:0|0:0,0:0:0:0:
132,189,46781,2,0,L|200:187,1,59.9999981689453,0|0,0:0|1:0,0:0:0:0:
230,126,47078,2,0,L|298:128,1,59.9999981689453,8|0,0:0|0:0,0:0:0:0:
353,161,47375,5,8,0:0:0:0:
420,61,47672,1,0,1:0:0:0:
473,169,47969,1,0,1:0:0:0:
416,131,48117,2,0,L|373:134,4,29.9999990844727,8|8|10|8|10,0:0|0:0|0:0|0:0|0:0,0:0:0:0:
385,273,48711,6,0,B|334:255|334:290|273:268,1,99.9999999999999,6|10,1:2|0:0,0:0:0:0:
178,220,49305,1,0,1:0:0:0:
178,220,49454,1,2,1:2:0:0:
123,113,49751,6,0,L|233:107,1,99.9999999999999,10|2,0:0|1:2,0:0:0:0:
282,81,50197,1,10,0:0:0:0:
282,81,50345,2,0,P|259:104|253:178,1,99.9999999999999,2|2,0:0|1:2,0:0:0:0:
281,225,50791,1,10,0:0:0:0:
389,174,51088,6,0,L|395:288,1,99.9999999999999,2|8,1:2|0:0,0:0:0:0:
280,311,51682,1,0,1:0:0:0:
280,311,51830,1,2,1:2:0:0:
238,198,52127,6,0,L|126:191,1,99.9999999999999,10|2,0:0|1:2,0:0:0:0:
78,217,52573,2,0,L|73:166,1,50,8|2,0:0|0:0,0:0:0:0:
69,102,52870,1,0,1:0:0:0:
69,102,53018,1,2,1:2:0:0:
69,102,53167,1,10,0:0:0:0:
184,70,53464,6,0,P|190:47|181:22,2,50,2|2|10,1:2|0:0|0:0,0:0:0:0:
134,111,53909,2,0,L|144:173,2,50,2|0|2,0:0|1:0|1:2,0:0:0:0:
263,118,54503,6,0,L|247:230,1,99.9999999999999,10|2,0:0|1:2,0:0:0:0:
205,265,54949,1,10,0:0:0:0:
205,265,55098,2,0,P|234:247|305:248,1,99.9999999999999,2|2,0:0|1:2,0:0:0:0:
355,276,55543,2,0,P|386:280|412:274,1,50,10|2,0:0|0:0,0:0:0:0:
457,238,55840,6,0,L|446:130,1,99.9999999999999,0|8,1:0|0:0,0:0:0:0:
345,74,56434,1,0,1:0:0:0:
345,74,56583,1,0,1:0:0:0:
312,189,56880,6,0,L|208:184,1,99.9999999999999,8|0,0:0|1:0,0:0:0:0:
147,184,57325,1,8,0:0:0:0:
147,184,57474,2,0,P|188:164|215:102,1,99.9999999999999,0|2,0:0|1:2,0:0:0:0:
210,53,57919,2,0,P|194:26|175:12,1,50,10|2,0:0|0:0,0:0:0:0:
114,7,58216,5,6,1:2:0:0:
22,98,58513,2,0,P|66:86|119:112,1,99.9999999999999,10|2,0:0|0:0,0:0:0:0:
145,163,58959,1,2,1:2:0:0:
254,93,59256,6,0,L|247:35,2,50,10|0|2,0:0|0:0|1:2,0:0:0:0:
313,119,59701,1,8,0:0:0:0:
363,77,59850,2,0,L|356:19,2,50,2|0|2,0:0|1:0|1:2,0:0:0:0:
422,103,60296,2,0,L|427:152,1,50,10|2,0:0|0:0,0:0:0:0:
437,217,60593,5,2,1:2:0:0:
313,256,60890,2,0,P|277:233|205:244,1,99.9999999999999,10|0,0:0|1:0,0:0:0:0:
168,272,61335,1,2,1:2:0:0:
151,143,61632,5,10,0:0:0:0:
84,254,61929,1,2,1:2:0:0:
67,125,62226,1,2,0:0:0:0:
166,208,62523,1,2,0:0:0:0:
166,208,62672,1,10,0:0:0:0:
192,80,62969,5,2,1:2:0:0:
316,117,63266,2,0,P|266:120|226:169,1,99.9999999999999,10|0,0:0|1:0,0:0:0:0:
218,216,63711,1,2,1:2:0:0:
318,298,64008,6,0,L|311:356,2,50,10|0|2,0:0|0:0|1:2,0:0:0:0:
377,272,64453,1,8,0:0:0:0:
427,314,64602,2,0,L|420:372,2,50,2|0|2,0:0|1:0|1:2,0:0:0:0:
486,288,65048,2,0,L|491:239,1,50,10|2,0:0|1:2,0:0:0:0:
501,174,65345,5,2,1:2:0:0:
372,157,65642,1,8,0:0:0:0:
372,157,65791,2,0,P|390:111|373:55,1,99.9999999999999,2|2,0:0|1:2,0:0:0:0:
333,17,66236,1,10,0:0:0:0:
333,17,66385,5,6,1:2:0:0:
271,131,66682,1,0,1:0:0:0:
203,20,66979,1,0,0:0:0:0:
161,69,67127,2,0,L|170:135,1,50,0|0,1:0|1:0,0:0:0:0:
206,170,67424,2,0,L|197:236,1,50,8|8,0:0|0:0,0:0:0:0:
157,269,67721,6,0,P|208:255|270:284,1,99.9999999999999,6|8,1:2|0:0,0:0:0:0:
251,268,68315,2,0,P|302:254|364:283,1,99.9999999999999,2|10,2:0|0:0,0:0:0:0:
391,314,68761,6,0,L|380:209,1,99.9999999999999,2|2,1:2|1:2,0:0:0:0:
375,149,69206,1,10,0:0:0:0:
375,149,69355,1,2,0:0:0:0:
247,172,69652,2,0,L|246:224,2,50,2|10|2,1:2|0:0|1:2,0:0:0:0:
288,121,70098,6,0,P|249:149|183:141,1,99.9999999999999,2|10,1:2|0:0,0:0:0:0:
141,117,70543,2,0,P|91:116|51:144,1,99.9999999999999,2|2,0:0|1:2,0:0:0:0:
19,201,70989,1,10,0:0:0:0:
19,201,71137,2,0,L|27:306,1,99.9999999999999,2|2,1:2|1:2,0:0:0:0:
140,238,71731,1,2,0:0:0:0:
190,357,72028,1,2,1:2:0:0:
190,357,72177,1,10,0:0:0:0:
311,309,72474,6,0,P|254:293|232:238,1,99.9999999999999,2|10,1:2|0:0,0:0:0:0:
231,195,72919,2,0,L|238:88,1,99.9999999999999,2|2,0:0|1:2,0:0:0:0:
304,80,73365,1,10,0:0:0:0:
304,80,73513,2,0,L|311:187,1,99.9999999999999,2|0,1:2|1:0,0:0:0:0:
317,244,73959,1,10,0:0:0:0:
317,244,74107,2,0,P|337:197|390:180,1,99.9999999999999,2|2,0:0|1:2,0:0:0:0:
505,213,74701,6,0,L|497:329,1,99.9999999999999,6|8,1:2|0:0,0:0:0:0:
448,368,75147,1,2,1:2:0:0:
395,314,75296,2,0,L|357:310,1,25,8|8,0:0|0:0,0:0:0:0:
335,326,75444,2,0,P|343:298|339:266,2,50,8|8|8,0:0|3:0|3:0,0:0:0:0:
271,366,75890,1,8,3:0:0:0:
20,170,77226,6,0,B|75:172|75:172|105:150|105:150|160:152,1,129.999994049073,6|10,1:2|0:0,0:0:0:0:
244,154,77672,2,0,L|249:238,1,64.9999970245363,0|2,0:0|1:2,0:0:0:0:
258,311,77969,1,2,1:2:0:0:
400,265,78266,2,0,P|364:256|321:265,1,64.9999970245363,6|0,1:2|0:0,0:0:0:0:
359,365,78563,2,0,P|395:374|437:365,1,64.9999970245363,2|8,1:2|0:0,0:0:0:0:
508,322,78860,1,2,0:0:0:0:
508,322,79008,2,0,L|513:241,1,64.9999970245363,2|2,1:2|1:2,0:0:0:0:
438,184,79305,2,0,L|434:103,1,64.9999970245363,10|2,0:0|0:0,0:0:0:0:
430,25,79602,6,0,B|390:19|390:19|362:39|362:39|292:29,1,129.999994049073,6|10,1:2|0:0,0:0:0:0:
194,13,80048,1,0,0:0:0:0:
194,13,80197,2,0,L|202:94,1,64.9999970245363,2|0,1:2|1:0,0:0:0:0:
301,124,80494,1,10,0:0:0:0:
301,124,80643,2,0,L|293:205,1,64.9999970245363,6|0,1:2|0:0,0:0:0:0:
277,286,80939,1,2,1:2:0:0:
277,286,81088,1,8,0:0:0:0:
91,303,81385,2,0,L|87:224,1,64.9999970245363,2|10,1:2|0:0,0:0:0:0:
176,181,81682,2,0,L|180:102,1,64.9999970245363,2|2,1:2|0:0,0:0:0:0:
148,23,81979,6,0,B|202:24|202:24|232:3|232:3|288:4,1,129.999994049073,6|10,1:2|0:0,0:0:0:0:
371,7,82424,1,0,0:0:0:0:
371,7,82573,2,0,P|363:80|384:154,1,129.999994049073,2|10,1:2|0:0,0:0:0:0:
363,230,83018,2,0,P|326:218|280:217,1,64.9999970245363,6|0,1:2|0:0,0:0:0:0:
217,276,83315,2,0,P|182:287|147:291,1,64.9999970245363,2|8,1:2|0:0,0:0:0:0:
64,267,83612,1,2,0:0:0:0:
106,178,83761,1,6,1:2:0:0:
39,112,83909,1,6,1:2:0:0:
39,112,84058,1,6,1:2:0:0:
54,27,84206,6,0,B|94:20|94:20|123:40|123:40|193:30,1,129.999994049073,14|2,1:2|1:2,0:0:0:0:
276,12,84652,2,0,L|269:112,1,97.4999955368044,10|0,0:0|0:0,0:0:0:0:
202,127,84949,2,0,P|268:109|340:156,1,129.999994049073,2|2,1:2|1:2,0:0:0:0:
372,221,85395,2,0,L|364:301,1,64.9999970245363,10|0,0:0|1:0,0:0:0:0:
267,345,85692,2,0,L|260:265,1,64.9999970245363,10|0,0:0|1:0,0:0:0:0:
186,219,85989,2,0,L|144:213,1,32.4999985122681,10|8,0:0|0:0,0:0:0:0:
118,183,86137,2,0,L|126:263,1,64.9999970245363,10|0,0:0|1:0,0:0:0:0:
45,287,86434,2,0,L|52:367,1,64.9999970245363,2|10,1:2|0:2,0:0:0:0:
134,383,86731,6,0,B|189:384|189:384|219:363|219:363|274:364,1,129.999994049073,6|10,1:2|0:0,0:0:0:0:
353,375,87177,1,0,0:0:0:0:
416,301,87325,1,2,1:2:0:0:
416,301,87474,2,0,L|410:223,1,64.9999970245363,2|8,1:2|0:0,0:0:0:0:
322,192,87771,2,0,L|328:114,1,64.9999970245363,6|0,1:2|0:0,0:0:0:0:
341,32,88068,1,2,1:2:0:0:
171,65,88365,1,2,0:0:0:0:
171,65,88513,2,0,L|166:143,1,64.9999970245363,2|2,1:2|1:2,0:0:0:0:
87,176,88810,2,0,L|92:253,1,64.9999970245363,10|2,0:0|1:2,0:0:0:0:
76,337,89107,6,0,B|116:330|116:330|144:350|144:350|214:340,1,129.999994049073,6|10,1:2|0:0,0:0:0:0:
303,321,89553,1,0,0:0:0:0:
303,321,89701,2,0,L|310:243,1,64.9999970245363,2|0,1:2|1:0,0:0:0:0:
321,162,89999,1,2,1:2:0:0:
235,175,90147,6,0,P|234:112|173:64,1,129.999994049073,14|8,0:0|3:0,0:0:0:0:
87,62,90593,1,8,3:0:0:0:
109,144,90741,1,8,3:0:0:0:
70,222,90890,2,0,L|23:228,2,32.4999985122681,8|0|0,3:0|0:0|1:2,0:0:0:0:
150,255,91187,1,0,1:2:0:0:
41,383,91484,6,0,P|159:367|172:367,1,119.999996337891,2|8,1:2|0:0,0:0:0:0:
236,333,91929,2,0,P|293:350|321:351,1,59.9999981689454,2|0,0:0|1:0,0:0:0:0:
359,297,92226,1,2,1:2:0:0:
506,378,92523,6,0,P|478:264|478:244,1,119.999996337891,10|2,0:0|1:2,0:0:0:0:
418,202,92969,1,10,0:0:0:0:
463,131,93117,1,2,0:0:0:0:
399,75,93266,2,0,P|356:97|280:79,1,119.999996337891,2|10,1:2|0:0,0:0:0:0:
266,3,93711,1,2,0:0:0:0:
212,67,93860,5,2,1:2:0:0:
212,67,94008,2,0,P|138:73|68:85,2,119.999996337891,2|2|2,0:0|0:0|1:2,0:0:0:0:
231,149,94751,1,2,1:2:0:0:
156,186,94899,1,8,0:3:0:0:
256,192,94974,12,8,96236,0:0:0:0:
156,186,96682,6,0,P|150:123|314:158,1,299.999990844727,0|4,0:0|0:0,0:0:0:0:
314,142,101880,6,0,L|310:78,1,59.9999981689453,8|0,0:0|0:0,0:0:0:0:
252,20,102177,6,0,P|194:8|141:34,1,119.999996337891,0|8,1:0|0:0,0:0:0:0:
98,91,102622,1,0,1:0:0:0:
25,88,102771,1,0,1:0:0:0:
25,88,102919,2,0,L|33:152,1,59.9999981689453,0|8,1:0|0:0,0:0:0:0:
73,207,103217,1,0,1:0:0:0:
31,275,103365,5,0,1:0:0:0:
31,275,103514,2,0,L|155:267,1,119.999996337891,0|0,1:0|0:0,0:0:0:0:
221,227,103959,1,0,1:0:0:0:
221,227,104108,1,0,1:0:0:0:
221,227,104256,2,0,L|225:294,1,59.9999981689453,8|0,0:0|0:0,0:0:0:0:
277,361,104553,6,0,P|333:372|378:335,1,119.999996337891,0|8,1:0|0:0,0:0:0:0:
375,263,104999,1,0,1:0:0:0:
451,281,105147,1,0,1:0:0:0:
451,281,105296,2,0,L|452:221,1,59.9999981689453,0|8,1:0|0:0,0:0:0:0:
511,179,105593,5,0,1:0:0:0:
463,42,105890,1,0,1:0:0:0:
319,46,106187,1,0,0:0:0:0:
297,114,106335,2,0,L|254:117,4,29.9999990844727,8|8|8|8|8,0:0|0:0|0:0|0:0|0:0,0:0:0:0:
204,38,106929,6,0,B|153:56|153:21|92:43,1,99.9999999999999,2|2,1:2|1:2,0:0:0:0:
49,5,107375,1,2,0:0:0:0:
1,126,107672,1,0,0:0:0:0:
133,107,107969,2,0,L|139:217,1,99.9999999999999,2|2,0:0|0:0,0:0:0:0:
12,237,108563,2,0,L|24:353,1,100,2|2,0:0|0:0,0:0:0:0:
214,367,109306,6,0,L|328:361,1,99.9999999999999,2|0,0:0|0:0,0:0:0:0:
337,301,109751,1,2,0:0:0:0:
453,358,110048,1,2,0:0:0:0:
505,239,110345,2,0,L|512:127,1,99.9999999999999,2|2,0:0|0:0,0:0:0:0:
381,151,110939,2,0,L|374:39,1,99.9999999999999,2|2,0:0|0:2,0:0:0:0:
428,13,111385,1,2,1:2:0:0:
304,52,111682,6,0,P|310:75|301:100,2,50,2|2|2,0:2|0:0|1:2,0:0:0:0:
255,8,112127,2,0,L|138:29,1,100,2|2,0:0|0:0,0:0:0:0:
158,155,112721,2,0,L|41:134,1,100,2|2,0:0|0:0,0:0:0:0:
20,189,113167,1,2,1:2:0:0:
103,288,113464,2,0,L|87:365,2,75,8|8|8,0:0|0:0|0:0,0:0:0:0:
159,256,114058,6,0,L|241:244,1,75,8|8,0:0|0:0,0:0:0:0:
318,294,114503,1,8,0:0:0:0:
374,262,114652,2,0,P|381:181|438:163,1,150,8|14,0:0|0:0,0:0:0:0:
512,42,116137,6,0,P|496:15|477:1,1,50,10|2,0:2|0:0,0:0:0:0:
420,25,116434,5,6,1:2:0:0:
331,120,116731,2,0,P|287:132|234:106,1,99.9999999999999,10|0,0:0|1:2,0:0:0:0:
210,52,117177,1,2,1:2:0:0:
99,120,117474,6,0,L|41:113,2,50,10|2|0,0:0|0:0|1:0,0:0:0:0:
143,166,117919,1,10,0:0:0:0:
114,224,118068,2,0,L|135:334,1,100,2|2,0:0|1:2,0:0:0:0:
97,377,118514,2,0,L|146:382,1,50,10|2,0:0|1:2,0:0:0:0:
195,338,118811,5,2,1:2:0:0:
318,377,119108,2,0,P|367:380|409:356,1,99.9999999999999,10|0,0:0|1:0,0:0:0:0:
426,293,119553,1,2,1:2:0:0:
390,168,119850,5,10,0:0:0:0:
472,67,120147,1,2,1:2:0:0:
507,192,120444,1,2,1:2:0:0:
426,289,120741,1,2,1:2:0:0:
426,289,120890,1,10,0:0:0:0:
390,168,121187,5,2,1:2:0:0:
263,139,121484,2,0,P|260:88|252:31,1,100,10|0,0:0|1:2,0:0:0:0:
199,3,121929,1,2,1:2:0:0:
95,81,122226,6,0,L|37:74,2,50,10|0|0,0:0|0:0|1:0,0:0:0:0:
122,139,122671,1,10,0:0:0:0:
79,188,122820,2,0,L|187:196,1,100,2|0,0:0|1:0,0:0:0:0:
229,235,123266,2,0,L|234:284,1,50,10|2,0:0|0:0,0:0:0:0:
186,329,123563,5,2,1:2:0:0:
310,364,123860,1,10,0:0:0:0:
310,364,124009,2,0,P|360:365|416:350,1,100,2|0,0:0|0:0,0:0:0:0:
449,303,124454,1,8,3:0:0:0:
449,303,124603,5,12,0:0:0:0:
396,183,124900,1,0,1:2:0:0:
511,122,125197,1,8,0:0:0:0:
450,99,125345,2,0,L|444:58,4,25,8|8|8|8|0,0:0|0:0|0:0|0:0|1:0,0:0:0:0:
320,101,125939,6,0,P|269:115|207:86,1,99.9999999999999,4|10,2:0|0:0,0:0:0:0:
128,14,126533,2,0,P|77:0|15:29,1,99.9999999999999,2|8,1:2|0:0,0:0:0:0:
1,70,126979,6,0,L|11:169,1,99.9999999999999,2|0,1:2|1:0,0:0:0:0:
67,201,127424,1,10,0:0:0:0:
67,201,127573,1,2,0:2:0:0:
169,280,127870,2,0,L|168:332,2,50,2|10|2,1:2|0:0|0:2,0:0:0:0:
208,228,128316,6,0,P|247:256|313:248,1,99.9999999999999,6|8,1:2|0:0,0:0:0:0:
353,287,128761,2,0,P|303:286|263:314,1,99.9999999999999,2|0,0:2|1:2,0:0:0:0:
306,362,129207,1,10,0:0:0:0:
306,362,129355,6,0,L|411:370,1,99.9999999999999,2|0,1:2|1:0,0:0:0:0:
512,315,129949,1,2,0:0:0:0:
424,219,130246,1,10,0:0:0:0:
424,219,130395,1,0,1:0:0:0:
463,167,130543,1,10,0:0:0:0:
463,167,130692,6,0,L|449:64,1,100,2|10,1:2|0:0,0:0:0:0:
392,37,131137,2,0,P|331:24|292:30,1,100,2|2,0:0|1:2,0:0:0:0:
255,84,131583,1,8,0:0:0:0:
255,84,131731,6,0,P|194:97|148:91,1,100,6|0,1:2|1:0,0:0:0:0:
117,41,132177,1,10,0:0:0:0:
117,41,132325,2,0,P|70:61|53:114,1,99.9999999999999,2|2,1:2|1:2,0:0:0:0:
143,192,132919,6,0,L|151:308,1,99.9999999999999,2|8,1:2|0:0,0:0:0:0:
101,348,133365,1,10,0:0:0:0:
175,359,133514,2,0,L|213:355,1,25,8|8,0:0|0:0,0:0:0:0:
228,332,133662,2,0,P|236:304|232:272,2,50,10|8|8,0:0|3:0|0:3,0:0:0:0:
295,365,134108,1,8,0:3:0:0:
17,237,135444,6,0,B|72:235|72:235|102:257|102:257|157:255,1,129.999994049073,14|10,1:2|0:0,0:0:0:0:
239,194,135890,2,0,L|244:110,1,64.9999970245363,0|2,0:0|1:2,0:0:0:0:
206,31,136187,1,2,1:2:0:0:
323,142,136484,2,0,P|355:145|387:137,1,64.9999970245363,6|0,1:2|0:0,0:0:0:0:
439,18,136781,2,0,P|475:9|517:18,1,64.9999970245363,2|8,1:2|0:0,0:0:0:0:
455,96,137078,1,2,0:0:0:0:
455,96,137226,2,0,L|450:177,1,64.9999970245363,2|2,1:2|1:2,0:0:0:0:
508,250,137523,2,0,L|512:331,1,64.9999970245363,10|2,0:0|0:0,0:0:0:0:
420,368,137820,6,0,B|380:374|380:374|352:354|352:354|282:364,1,129.999994049073,6|10,1:2|0:0,0:0:0:0:
186,368,138266,1,0,0:0:0:0:
186,368,138415,2,0,L|194:287,1,64.9999970245363,2|0,1:2|1:0,0:0:0:0:
308,286,138712,1,10,0:0:0:0:
308,286,138861,2,0,L|300:205,1,64.9999970245363,6|0,1:2|0:0,0:0:0:0:
335,116,139157,1,2,1:2:0:0:
335,116,139306,1,10,0:0:0:0:
127,40,139603,2,0,L|123:119,1,64.9999970245363,2|2,1:2|1:2,0:0:0:0:
215,166,139900,2,0,L|219:245,1,64.9999970245363,10|0,0:0|1:0,0:0:0:0:
133,301,140197,6,0,B|187:300|187:300|217:321|217:321|273:320,1,129.999994049073,6|10,1:2|0:0,0:0:0:0:
359,357,140642,1,0,0:0:0:0:
359,357,140791,2,0,P|351:284|372:210,1,129.999994049073,2|10,1:2|0:0,0:0:0:0:
435,146,141236,2,0,P|467:142|497:131,1,64.9999970245363,6|0,1:2|0:0,0:0:0:0:
354,48,141533,1,2,1:2:0:0:
354,48,141682,2,0,L|236:32,2,97.4999955368044,0|8|6,0:0|0:0|1:2,0:0:0:0:
313,123,142276,1,6,1:2:0:0:
222,112,142424,6,0,B|182:119|182:119|153:99|153:99|83:109,1,129.999994049073,14|2,1:2|1:2,0:0:0:0:
31,183,142870,2,0,L|38:283,1,97.4999955368044,10|0,0:0|0:0,0:0:0:0:
76,344,143167,2,0,P|142:362|214:315,1,129.999994049073,2|0,1:2|1:0,0:0:0:0:
296,350,143613,2,0,L|292:279,1,64.9999970245363,10|0,0:0|1:0,0:0:0:0:
383,253,143910,2,0,L|388:188,1,64.9999970245363,10|0,0:0|1:0,0:0:0:0:
444,338,144207,2,0,L|486:344,1,32.4999985122681,8|8,0:0|0:0,0:0:0:0:
512,374,144355,2,0,L|504:294,1,64.9999970245363,10|0,0:2|1:0,0:0:0:0:
467,226,144652,2,0,L|474:146,1,64.9999970245363,2|10,1:2|0:2,0:0:0:0:
512,68,144949,6,0,B|473:67|473:67|443:87|443:87|388:87,1,129.999994049073,6|10,1:2|0:0,0:0:0:0:
299,32,145395,1,0,0:0:0:0:
214,91,145543,1,2,1:2:0:0:
130,28,145692,2,0,L|124:106,1,64.9999970245363,2|8,1:2|0:2,0:0:0:0:
35,145,145989,2,0,L|41:222,1,64.9999970245363,6|0,1:2|0:0,0:0:0:0:
0,305,146286,1,2,1:2:0:0:
196,373,146583,1,2,0:0:0:0:
196,373,146731,2,0,L|191:295,1,64.9999970245363,2|2,1:2|1:2,0:0:0:0:
296,253,147028,2,0,L|291:317,1,64.9999970245363,10|2,0:0|1:2,0:0:0:0:
373,382,147325,6,0,B|413:378|413:378|435:351|435:351|505:343,1,129.999994049073,6|10,1:2|0:0,0:0:0:0:
506,242,147771,1,0,0:0:0:0:
506,242,147919,2,0,L|513:164,1,64.9999970245363,2|0,1:2|1:0,0:0:0:0:
421,194,148217,1,2,1:2:0:0:
474,103,148365,6,0,P|411:102|363:41,1,129.999994049073,14|8,0:0|3:0,0:0:0:0:
266,28,148811,1,8,3:0:0:0:
191,100,148959,1,8,3:0:0:0:
110,33,149108,2,0,P|67:66|60:142,1,129.999994049073,8|0,3:0|0:0,0:0:0:0:
18,325,149701,6,0,P|136:341|149:341,1,119.999996337891,2|8,1:2|0:0,0:0:0:0:
215,321,150147,2,0,P|272:338|299:341,1,59.9999981689454,2|0,0:2|1:0,0:0:0:0:
348,303,150443,1,2,1:2:0:0:
497,381,150740,6,0,P|469:267|469:247,1,119.999996337891,10|0,0:0|1:0,0:0:0:0:
390,235,151186,1,10,0:0:0:0:
418,157,151334,1,2,0:0:0:0:
501,147,151483,2,0,P|515:89|491:35,1,119.999996337891,2|10,1:2|0:0,0:0:0:0:
413,5,151928,1,2,0:0:0:0:
356,68,152077,5,2,1:2:0:0:
356,68,152225,2,0,P|282:62|212:50,1,119.999996337891,2|2,0:0|0:0,0:0:0:0:
73,15,152820,1,2,1:2:0:0:
119,85,152968,1,10,0:0:0:0:
76,158,153116,1,8,3:0:0:0:
256,192,153191,12,8,154453,3:0:0:0:
9,328,163810,5,10,0:0:0:0:
9,328,164107,2,0,P|36:343|140:358,1,119.999996337891,10|0,0:0|1:2,0:0:0:0:
196,318,164553,2,0,L|186:239,2,59.9999981689454,10|8|8,0:0|3:0|3:0,0:0:0:0:
274,362,164999,1,10,0:0:0:0:
427,175,165444,6,0,L|432:205,10,29.9999990844727,8|8|10|8|10|8|10|8|10|8|10,0:0|0:0|0:0|0:0|0:0|0:0|0:0|0:0|0:0|0:0|0:0,0:0:0:0:
498,136,166335,6,0,B|443:138|443:138|413:116|413:116|358:118,1,129.999994049073,14|10,1:2|0:0,0:0:0:0:
270,212,166781,2,0,L|186:207,1,64.9999970245363,0|2,0:0|1:2,0:0:0:0:
100,207,167078,1,2,1:2:0:0:
175,74,167375,2,0,P|184:110|175:153,1,64.9999970245363,6|0,1:2|0:0,0:0:0:0:
100,207,167672,2,0,P|90:233|101:270,1,64.9999970245363,2|0,1:2|0:0,0:0:0:0:
0,367,167969,1,2,1:2:0:0:
0,367,168117,2,0,L|81:362,1,64.9999970245363,2|2,1:2|1:2,0:0:0:0:
161,307,168414,2,0,L|242:311,1,64.9999970245363,2|10,0:0|0:0,0:0:0:0:
322,365,168711,6,0,B|362:359|362:359|390:379|390:379|460:369,1,129.999994049073,6|10,1:2|0:0,0:0:0:0:
507,280,169157,1,0,0:0:0:0:
507,280,169306,2,0,L|499:199,1,64.9999970245363,2|2,1:2|1:2,0:0:0:0:
389,221,169603,1,10,0:0:0:0:
389,221,169752,2,0,L|397:140,1,64.9999970245363,6|0,1:2|0:0,0:0:0:0:
413,54,170048,1,2,1:2:0:0:
413,54,170197,1,10,0:0:0:0:
196,8,170494,2,0,L|200:87,1,64.9999970245363,2|2,1:2|1:2,0:0:0:0:
109,137,170791,2,0,L|105:58,1,64.9999970245363,10|0,0:0|1:0,0:0:0:0:
3,28,171088,6,0,B|2:82|2:82|23:112|23:112|22:168,1,129.999994049073,6|10,1:2|0:0,0:0:0:0:
126,216,171682,2,0,P|134:289|113:363,1,129.999994049073,2|10,1:2|0:0,0:0:0:0:
20,300,172127,2,0,P|57:288|103:287,1,64.9999970245363,6|0,1:2|0:0,0:0:0:0:
193,356,172424,2,0,P|228:367|263:371,1,64.9999970245363,2|10,1:2|0:0,0:0:0:0:
353,317,172721,1,8,0:0:0:0:
447,374,172870,1,6,1:2:0:0:
506,281,173018,1,6,1:2:0:0:
506,281,173167,1,6,1:2:0:0:
400,248,173315,6,8,B|407:208|407:208|387:179|387:179|397:109,1,129.999994049073,14|2,1:2|1:2,0:0:0:0:
297,45,173761,2,0,L|304:145,1,97.4999955368044,10|0,0:2|0:0,0:0:0:0:
245,188,174058,2,0,P|179:170|107:217,1,129.999994049073,2|2,1:2|1:2,0:0:0:0:
18,165,174504,2,0,L|26:245,1,64.9999970245363,10|0,0:0|1:0,0:0:0:0:
137,270,174801,2,0,L|132:335,1,64.9999970245363,10|0,1:2|0:0,0:0:0:0:
242,344,175098,2,0,L|284:350,1,32.4999985122681,8|8,0:0|0:0,0:0:0:0:
310,380,175246,2,0,L|302:300,1,64.9999970245363,10|0,0:0|1:1,0:0:0:0:
408,247,175543,2,0,L|401:327,1,64.9999970245363,2|10,1:2|0:0,0:0:0:0:
345,176,175840,6,0,B|383:175|383:175|413:196|413:196|468:195,1,129.999994049073,6|10,1:2|0:0,0:0:0:0:
506,91,176286,1,0,0:0:0:0:
407,42,176434,1,2,1:2:0:0:
407,42,176583,2,0,L|413:120,1,64.9999970245363,2|10,1:2|0:0,0:0:0:0:
291,116,176880,2,0,L|295:51,1,64.9999970245363,6|0,1:2|0:0,0:0:0:0:
194,6,177177,1,2,1:2:0:0:
23,146,177474,1,2,0:0:0:0:
23,146,177622,2,0,L|28:224,1,64.9999970245363,2|2,1:2|1:2,0:0:0:0:
136,231,177919,2,0,L|131:308,1,64.9999970245363,10|2,0:0|1:2,0:0:0:0:
43,362,178216,6,0,B|83:355|83:355|111:375|111:375|181:365,1,129.999994049073,6|10,1:2|0:0,0:0:0:0:
272,384,178662,1,0,0:0:0:0:
272,384,178810,2,0,L|265:306,1,64.9999970245363,2|0,1:2|1:0,0:0:0:0:
235,232,179108,1,2,1:2:0:0:
321,259,179256,6,0,P|322:196|383:148,1,129.999994049073,14|8,0:0|3:0,0:0:0:0:
445,81,179702,1,8,3:0:0:0:
357,24,179850,1,8,3:0:0:0:
276,89,179999,2,0,L|278:120,2,32.4999985122681,8|0|8,3:0|0:0|3:0,0:0:0:0:
175,62,180296,1,8,3:0:0:0:
80,201,180593,6,0,P|198:217|211:217,1,119.999996337891,2|8,1:2|0:0,0:0:0:0:
215,299,181038,2,0,P|272:282|300:281,1,59.9999981689454,2|0,0:0|1:0,0:0:0:0:
344,326,181335,1,2,1:2:0:0:
502,381,181632,6,0,P|474:267|474:247,1,119.999996337891,10|0,0:0|1:0,0:0:0:0:
405,216,182078,1,10,0:0:0:0:
482,184,182226,1,2,0:0:0:0:
418,128,182375,2,0,L|425:47,1,59.9999981689454,2|0,1:2|1:0,0:0:0:0:
484,10,182672,1,10,0:0:0:0:
336,90,182969,5,2,1:2:0:0:
336,90,183117,2,0,P|262:84|192:72,1,119.999996337891,2|2,0:0|0:0,0:0:0:0:
54,32,183711,2,0,B|71:59|87:95|81:164,1,119.999996337891,2|10,1:2|0:0,0:0:0:0:
26,304,184305,6,0,L|96:298,1,59.9999981689454,2|10,1:2|0:0,0:0:0:0:
152,350,184602,2,0,L|222:344,1,59.9999981689454,2|2,1:2|1:2,0:0:0:0:
286,305,184899,1,2,1:2:0:0:
286,305,185048,2,0,L|292:235,1,59.9999981689454,10|2,0:2|1:2,0:0:0:0:
347,364,185345,6,0,P|465:380|478:380,1,119.999996337891,2|8,1:2|0:0,0:0:0:0:
507,307,185790,2,0,P|490:249|490:221,1,59.9999981689454,2|0,1:2|0:0,0:0:0:0:
506,166,186087,1,2,1:2:0:0:
338,180,186384,6,0,P|366:66|366:46,1,119.999996337891,10|2,0:0|1:2,0:0:0:0:
297,4,186830,1,10,0:0:0:0:
199,141,187127,2,0,P|141:155|87:131,1,119.999996337891,10|0,0:0|1:2,0:0:0:0:
64,51,187572,1,12,0:0:0:0:
36,274,190098,5,4,1:2:0:0:
171,373,190395,2,0,P|214:373|246:342,1,89.9999972534181,8|8,0:0|0:0,0:0:0:0:
279,220,190840,2,0,P|308:216|336:225,1,59.9999981689454,0|8,1:0|0:0,0:0:0:0:
381,289,191137,6,0,P|436:292|493:252,1,119.999996337891,4|0,1:2|1:0,0:0:0:0:
446,191,191583,2,0,P|456:162|481:140,1,59.9999981689454,8|8,0:0|0:0,0:0:0:0:
432,78,191880,2,0,P|401:83|369:73,1,59.9999981689454,0|0,1:0|1:0,0:0:0:0:
318,20,192177,2,0,P|287:15|255:25,1,59.9999981689454,8|0,0:0|1:0,0:0:0:0:
221,90,192474,6,0,P|165:109|101:85,1,119.999996337891,4|8,1:2|0:0,0:0:0:0:
31,226,193068,1,0,1:0:0:0:
31,226,193216,2,0,P|43:254|39:288,1,59.9999981689454,0|8,1:0|0:0,0:0:0:0:
94,347,193513,6,0,P|138:360|208:331,1,119.999996337891,4|0,1:2|1:0,0:0:0:0:
186,249,193959,2,0,P|219:254|257:245,1,59.9999981689454,8|0,0:0|0:0,0:0:0:0:
317,277,194256,2,0,P|322:306|317:335,1,59.9999981689454,0|0,1:0|1:0,0:0:0:0:
383,384,194553,2,0,P|415:389|454:380,1,59.9999981689454,8|0,0:0|1:0,0:0:0:0:
484,319,194850,5,4,1:2:0:0:
509,165,195147,2,0,P|486:111|477:79,2,89.9999972534181,8|8|0,0:0|0:0|1:0,0:0:0:0:
448,215,195741,1,8,0:0:0:0:
448,215,195890,6,0,P|399:190|326:210,1,119.999996337891,4|0,1:2|1:0,0:0:0:0:
263,178,196335,2,0,P|220:187|192:178,1,59.9999981689454,8|0,0:0|0:0,0:0:0:0:
127,174,196632,2,0,P|109:149|102:120,1,59.9999981689454,0|0,1:0|1:0,0:0:0:0:
159,246,196929,2,0,P|147:274|127:296,1,59.9999981689454,8|0,0:0|1:0,0:0:0:0:
63,341,197226,6,0,P|100:327|184:379,1,119.999996337891,4|8,1:2|0:0,0:0:0:0:
252,321,197672,1,0,0:0:0:0:
252,321,197820,2,0,P|247:352|258:386,2,59.9999981689454,0|0|8,1:2|1:2|0:0,0:0:0:0:
329,345,198266,6,0,P|360:293|347:236,1,119.999996337891,4|0,1:2|1:0,0:0:0:0:
388,167,198711,1,8,0:0:0:0:
388,167,198860,2,0,P|448:166|492:205,1,119.999996337891,0|0,1:0|1:0,0:0:0:0:
510,112,199305,1,8,0:0:0:0:
355,90,199602,6,0,P|311:50|251:51,1,119.999996337891,8|8,0:0|0:0,0:0:0:0:
117,100,200197,1,8,0:0:0:0:
117,100,200345,2,0,P|107:66|114:34,1,59.9999981689454,8|8,3:0|3:0,0:0:0:0:
181,9,200642,2,0,P|201:42|180:132,1,119.999996337891,12|0,1:2|1:0,0:0:0:0:
143,181,201088,2,0,P|111:187|79:181,1,59.9999981689454,8|8,0:0|0:0,0:0:0:0:
38,260,201385,2,0,P|67:255|96:262,1,59.9999981689454,0|0,1:0|1:0,0:0:0:0:
139,334,201682,2,0,P|171:340|202:334,1,59.9999981689454,8|0,0:0|1:0,0:0:0:0:
250,268,201979,6,0,P|284:268|337:341,1,119.999996337891,4|8,1:2|0:0,0:0:0:0:
421,363,202573,1,0,1:0:0:0:
421,363,202721,2,0,P|442:336|471:328,1,59.9999981689454,0|8,1:0|0:0,0:0:0:0:
509,256,203018,6,0,P|488:206|511:134,1,119.999996337891,4|0,1:2|1:0,0:0:0:0:
421,125,203464,2,0,P|426:93|419:63,1,59.9999981689454,8|0,0:0|0:0,0:0:0:0:
341,3,203761,2,0,P|336:35|343:65,1,59.9999981689454,0|8,1:0|0:0,0:0:0:0:
264,129,204058,2,0,P|269:99|264:70,1,59.9999981689454,8|8,0:0|0:0,0:0:0:0:
201,14,204355,6,0,P|145:-6|90:13,1,119.999996337891,12|8,1:2|0:0,0:0:0:0:
12,63,204800,1,0,0:0:0:0:
12,63,204949,2,0,P|13:24|-3:-2,2,59.9999981689454,0|0|8,1:0|1:2|0:0,0:0:0:0:
81,120,205395,6,0,P|62:175|84:230,1,119.999996337891,4|0,1:2|1:0,0:0:0:0:
38,307,205840,2,0,P|68:319|104:317,1,59.9999981689454,8|0,0:0|1:2,0:0:0:0:
172,365,206137,2,0,P|198:351|228:347,1,59.9999981689454,0|0,1:0|1:0,0:0:0:0:
304,299,206434,2,0,P|324:324|357:341,1,59.9999981689454,8|0,0:0|0:0,0:0:0:0:
431,370,206731,6,0,P|477:334|490:277,1,119.999996337891,4|0,1:2|1:0,0:0:0:0:
507,188,207177,1,8,0:3:0:0:
507,188,207325,2,0,P|513:153|505:129,2,59.9999981689454,8|8|0,0:3|0:0|1:0,0:0:0:0:
418,170,207771,6,0,P|375:185|300:156,1,119.999996337891,8|8,0:0|0:0,0:0:0:0:
263,84,208216,1,8,0:0:0:0:
173,92,208365,1,8,0:0:0:0:
150,178,208513,1,8,0:0:0:0:
150,178,208810,2,0,L|155:215,2,29.9999990844727,4|0|0,1:2|0:0|0:0,0:0:0:0:
222,231,209107,6,0,P|163:228|122:269,1,119.999996337891,0|8,1:0|0:0,0:0:0:0:
266,355,209701,1,0,1:0:0:0:
336,321,209850,2,0,L|475:329,1,119.999996337891,0|8,1:0|0:0,0:0:0:0:
500,264,210296,5,0,0:0:0:0:
500,264,210444,2,0,P|513:205|488:145,1,119.999996337891,0|0,1:0|0:0,0:0:0:0:
415,161,210890,1,0,1:0:0:0:
415,161,211038,1,0,1:0:0:0:
415,161,211187,2,0,L|421:98,1,59.9999981689453,8|0,0:0|0:0,0:0:0:0:
357,55,211484,6,0,P|330:71|248:34,1,119.999996337891,0|8,1:0|0:0,0:0:0:0:
183,8,211929,2,0,L|176:75,1,59.9999981689454,0|0,0:0|1:0,0:0:0:0:
102,93,212226,2,0,L|109:164,1,59.9999981689453,0|0,1:0|0:0,0:0:0:0:
48,203,212523,5,8,0:0:0:0:
166,224,212820,1,0,1:0:0:0:
241,317,213117,2,0,L|309:307,2,59.9999981689453,0|0|0,0:0|1:0|1:0,0:0:0:0:
215,371,213563,2,0,L|151:367,1,59.9999981689453,8|8,0:0|0:0,0:0:0:0:
78,359,213860,6,0,P|66:301|92:248,1,119.999996337891,0|8,1:0|0:0,0:0:0:0:
166,224,214305,2,0,L|225:216,1,59.9999981689453,0|0,0:0|1:0,0:0:0:0:
282,162,214602,2,0,L|341:169,1,59.9999981689453,0|0,1:0|0:0,0:0:0:0:
402,219,214900,1,8,0:0:0:0:
457,171,215048,5,0,0:0:0:0:
457,171,215197,2,0,L|465:47,1,119.999996337891,0|0,1:0|0:0,0:0:0:0:
400,6,215642,1,0,1:0:0:0:
400,6,215791,1,0,1:0:0:0:
400,6,215939,2,0,L|333:10,1,59.9999981689453,8|0,0:0|0:0,0:0:0:0:
292,75,216236,6,0,P|235:86|190:49,1,119.999996337891,4|8,1:2|0:0,0:0:0:0:
114,18,216682,2,0,L|116:86,1,59.9999981689453,0|0,0:0|1:0,0:0:0:0:
43,123,216979,2,0,L|41:191,1,59.9999981689453,0|8,1:0|0:0,0:0:0:0:
106,225,217276,5,0,1:0:0:0:
47,369,217573,1,0,1:0:0:0:
201,348,217870,1,0,0:0:0:0:
244,283,218018,2,0,L|241:240,4,29.9999990844727,8|8|8|8|8,3:0|0:0|0:0|0:0|0:0,0:0:0:0:
380,358,218612,6,0,L|391:307,2,29.9999990844727,8|8|12,3:0|3:0|0:0,0:0:0:0:
