osu file format v14

[General]
AudioFilename: audio.mp3
AudioLeadIn: 0
PreviewTime: 76383
Countdown: 0
SampleSet: Soft
StackLeniency: 0.7
Mode: 0
LetterboxInBreaks: 0
WidescreenStoryboard: 1

[Editor]
Bookmarks: 86705
DistanceSpacing: 1
BeatDivisor: 4
GridSize: 4
TimelineZoom: 2

[Metadata]
Title:Headphone Actor
TitleUnicode:ヘッドフォンアクター
Artist:JIN feat. LiSA
ArtistUnicode:じん feat. LiSA
Creator:captin1
Version:xChippy's Insane
Source:メカクシティアクターズ
Tags:vocaloid ia mekakucity actors kagerou project カゲロウプロジェクト amateurre xchippy anime rock japanese
BeatmapID:681726
BeatmapSetID:217105

[Difficulty]
HPDrainRate:5
CircleSize:4
OverallDifficulty:7.5
ApproachRate:9
SliderMultiplier:1.6
SliderTickRate:2

[Events]
//Background and Video events
0,0,"39277224.jpg",0,0
//Break Periods
2,17994,18976
2,39380,47491
2,97398,101254
2,155616,163184
//Storyboard Layer 0 (Background)
//Storyboard Layer 1 (Fail)
//Storyboard Layer 2 (Pass)
//Storyboard Layer 3 (Foreground)
//Storyboard Layer 4 (Overlay)
//Storyboard Sound Samples

[TimingPoints]
1161,297.029702970297,4,2,2,60,1,0
1161,-125,4,2,2,60,0,0
19576,-100,4,2,2,70,0,0
19873,-100,4,2,2,60,0,0
20170,-100,4,2,2,80,0,0
21359,-100,4,2,3,70,0,0
21433,-100,4,2,1,80,0,0
23735,-100,4,2,3,70,0,0
23809,-100,4,2,1,80,0,0
26111,-100,4,2,3,70,0,0
26185,-100,4,2,1,80,0,0
28487,-100,4,2,3,70,0,0
28561,-100,4,2,1,80,0,0
30863,-100,4,2,3,70,0,0
30938,-100,4,2,1,80,0,0
33240,-100,4,2,3,70,0,0
33314,-100,4,2,1,80,0,0
35616,-100,4,2,3,70,0,0
35690,-100,4,2,1,80,0,0
39180,-100,4,2,1,70,0,0
48685,-125,4,2,1,60,0,0
58190,-100,4,2,1,70,0,0
73487,-100,4,2,1,80,0,0
75863,-100,4,2,1,80,0,0
76309,-133.333333333333,4,2,1,80,0,0
76458,-133.333333333333,4,2,1,60,0,0
77200,-90.9090909090909,4,2,1,100,0,1
78388,-90.9090909090909,4,2,3,90,0,1
78462,-90.9090909090909,4,2,1,100,0,1
80764,-90.9090909090909,4,2,3,90,0,1
80839,-90.9090909090909,4,2,1,100,0,1
83141,-90.9090909090909,4,2,3,90,0,1
83215,-90.9090909090909,4,2,1,100,0,1
83438,-90.9090909090909,4,2,3,90,0,1
83512,-90.9090909090909,4,2,1,100,0,1
87893,-90.9090909090909,4,2,3,90,0,1
87967,-90.9090909090909,4,2,1,100,0,1
91458,-90.9090909090909,4,2,1,90,0,1
94576,-90.9090909090909,4,2,1,90,0,1
94873,-200,4,2,1,100,0,1
96210,-133.333333333333,4,2,1,100,0,0
96656,-200,4,2,1,100,0,0
101854,-100,4,2,1,70,0,0
106903,-125,4,2,1,60,0,0
116408,-100,4,2,1,80,0,0
131705,-100,4,2,1,90,0,0
134378,-100,4,2,1,60,0,0
134675,-100,4,2,1,70,0,0
134972,-100,4,2,1,80,0,0
135195,-100,4,2,1,90,0,0
135418,-90.9090909090909,4,2,1,100,0,1
136606,-90.9090909090909,4,2,3,90,0,1
136680,-90.9090909090909,4,2,1,100,0,1
138982,-90.9090909090909,4,2,3,90,0,1
139057,-90.9090909090909,4,2,1,100,0,1
141359,-90.9090909090909,4,2,3,90,0,1
141433,-90.9090909090909,4,2,1,100,0,1
146111,-90.9090909090909,4,2,3,90,0,1
146185,-90.9090909090909,4,2,1,100,0,1
149675,-90.9090909090909,4,2,1,80,0,1
153091,-90.9090909090909,4,2,1,100,0,1
154428,-111.111111111111,4,2,1,100,0,0
163784,-111.111111111111,4,2,1,90,0,0
164378,-111.111111111111,4,2,1,70,0,0
165269,-111.111111111111,4,2,1,50,0,0
165418,-111.111111111111,4,2,1,60,0,0
165715,-111.111111111111,4,2,1,70,0,0
166012,-111.111111111111,4,2,1,80,0,0
166161,-111.111111111111,4,2,1,90,0,0
166309,-90.9090909090909,4,2,1,100,0,1
167497,-90.9090909090909,4,2,3,90,0,1
167571,-90.9090909090909,4,2,1,100,0,1
169873,-90.9090909090909,4,2,3,90,0,1
169948,-90.9090909090909,4,2,1,100,0,1
172250,-90.9090909090909,4,2,3,90,0,1
172324,-90.9090909090909,4,2,1,100,0,1
177002,-90.9090909090909,4,2,3,90,0,1
177076,-90.9090909090909,4,2,1,100,0,1
180566,-90.9090909090909,4,2,1,90,0,1
183685,-76.9230769230769,4,2,1,90,0,1
183908,-90.9090909090909,4,2,1,90,0,1
185764,-76.9230769230769,4,2,1,90,0,1
186061,-90.9090909090909,4,2,1,90,0,1
187695,-111.111111111111,4,2,1,90,0,0
190071,-100,4,2,1,90,0,0
191260,-100,4,2,3,80,0,0
191334,-100,4,2,1,90,0,0
193636,-100,4,2,3,80,0,0
193710,-100,4,2,1,90,0,0
196012,-100,4,2,3,80,0,0
196086,-100,4,2,1,90,0,0
198388,-100,4,2,3,80,0,0
198462,-100,4,2,1,90,0,0
209081,-100,4,2,1,80,0,0
218735,-111.111111111111,4,2,1,90,0,1
219329,-111.111111111111,4,2,1,5,0,0

[Colours]
Combo1 : 244,123,126
Combo2 : 174,245,139
Combo3 : 84,137,152
Combo4 : 231,221,169
Combo5 : 149,166,164

[HitObjects]
184,152,1161,6,0,L|316:136,2,128,2|0|2,2:0|2:0|2:0,2:0:0:0:
76,120,1903,2,0,L|64:48,1,64,0|0,0:0|2:0,0:0:0:0:
116,216,2200,6,0,P|113:281|102:362,1,128,2|0,2:0|2:0,2:0:0:0:
105,343,2646,1,0,2:0:0:0:
213,176,2794,2,0,P|218:242|227:306,1,128,2|0,2:0|2:0,2:0:0:0:
304,359,3240,2,0,L|386:352,1,64,0|0,2:0|2:0,2:0:0:0:
468,280,3537,6,0,L|534:285,2,64,2|0|0,2:0|2:0|2:0,0:0:0:0:
400,212,3982,2,0,P|337:211|260:204,1,128,2|0,2:0|2:0,2:0:0:0:
159,185,4428,1,0,2:0:0:0:
247,225,4576,6,0,P|249:259|255:297,1,64,0|2,2:0|2:0,0:0:0:0:
160,95,4873,2,0,P|158:129|152:167,1,64,0|0,2:0|2:0,0:0:0:0:
256,48,5170,1,2,2:0:0:0:
260,52,5467,2,0,L|336:44,2,64,0|0|0,2:0|2:0|2:0,0:0:0:0:
160,96,5913,5,2,2:0:0:0:
159,185,6061,1,0,2:0:0:0:
247,225,6210,1,0,2:0:0:0:
326,138,6359,2,0,P|381:120|463:122,1,128,2|0,2:0|2:0,2:0:0:0:
351,258,6804,2,0,L|359:342,1,64,0|0,2:0|2:0,2:0:0:0:
247,225,7101,5,2,2:0:0:0:
324,152,7250,1,0,2:0:0:0:
355,261,7398,2,0,L|363:345,1,64,0|2,2:0|2:0,0:0:0:0:
168,180,7844,1,0,2:0:0:0:
126,254,7992,1,0,2:0:0:0:
198,299,8141,1,0,2:0:0:0:
83,184,8289,6,0,P|48:179|-6:176,1,64,2|0,2:0|2:0,0:0:0:0:
63,66,8586,1,0,2:0:0:0:
196,100,8735,2,0,P|259:86|335:72,1,128,2|0,2:0|2:0,2:0:0:0:
414,15,9180,1,0,2:0:0:0:
422,183,9329,6,0,P|374:178|317:166,1,96,2|0,2:0|0:0,2:0:0:0:
327,168,9626,1,0,2:0:0:0:
256,244,9774,2,0,L|264:328,1,64,0|2,2:0|2:0,0:0:0:0:
120,188,10220,1,0,2:0:0:0:
36,151,10368,2,0,L|41:85,1,64,0|0,1:0|2:0,2:0:0:0:
128,192,10665,6,0,L|134:327,1,128,2|0,1:0|2:0,2:0:0:0:
264,176,11260,2,0,L|269:48,1,128,2|0,2:0|2:0,0:0:0:0:
389,91,11705,1,0,2:0:0:0:
424,166,11854,5,2,2:0:0:0:
365,224,12002,2,0,P|347:278|339:342,1,96,0|0,2:0|0:0,2:0:0:0:
336,326,12299,2,0,L|256:318,1,64,2|0,2:0|2:0,2:0:0:0:
156,356,12596,2,0,P|128:353|76:348,1,64,0|0,2:0|0:0,2:0:0:0:
180,248,12893,1,0,2:0:0:0:
191,236,12967,1,0,0:0:0:0:
202,224,13042,6,0,L|195:140,1,64,2|0,2:0|2:0,0:0:0:0:
137,101,13339,1,0,2:0:0:0:
300,72,13487,2,0,L|288:200,1,128,2|0,2:0|2:0,2:0:0:0:
347,258,13933,1,0,2:0:0:0:
415,211,14081,6,0,L|497:202,1,64,0|2,2:0|2:0,0:0:0:0:
343,265,14378,2,0,L|237:257,1,96,0|0,2:0|0:0,2:0:0:0:
232,246,14675,2,0,L|148:238,1,64,2|0,2:0|0:0,2:0:0:0:
88,296,14972,1,0,2:0:0:0:
11,263,15121,1,0,2:0:0:0:
11,180,15269,1,0,2:0:0:0:
82,137,15418,5,2,2:0:0:0:
11,180,15566,1,0,2:0:0:0:
11,263,15714,1,0,2:0:0:0:
88,296,15863,2,0,L|96:376,1,64,2|0,2:0|2:0,2:0:0:0:
19,174,16161,2,0,L|28:73,1,96,2|0,2:0|0:0,2:0:0:0:
33,63,16458,6,0,P|99:68|173:48,1,128,2|0,2:0|2:0,2:0:0:0:
245,11,16903,1,0,2:0:0:0:
316,84,17052,2,0,L|465:64,1,128,2|0,2:0|2:0,2:0:0:0:
482,200,17497,1,0,2:0:0:0:
360,166,17646,1,0,2:0:0:0:
360,166,17720,1,0,2:0:0:0:
360,166,17794,1,2,2:0:0:0:
25,121,19576,6,0,L|123:113,1,80,2|2,2:0|2:0,0:0:0:0:
212,60,19873,2,0,L|214:18,3,40,0|0|0|0,2:0|0:0|0:0|2:0,2:0:0:0:
248,128,20170,6,0,L|243:292,1,160,6|10,1:2|2:0,2:0:0:0:
148,236,20616,1,0,2:0:0:0:
75,168,20764,2,0,P|143:140|171:136,1,80,2|0,1:0|1:0,0:0:0:0:
253,122,21061,1,10,2:0:0:0:
303,273,21210,6,0,P|226:250|148:236,1,160,0|0,1:0|1:0,2:0:0:0:
324,188,21656,2,0,P|384:184|428:176,1,80,10|0,2:0|2:0,0:0:0:0:
464,304,21953,2,0,P|408:292|348:280,1,80,2|0,1:2|1:0,0:0:0:0:
228,364,22250,2,0,P|268:355|324:347,1,80,10|0,2:0|1:0,2:0:0:0:
88,336,22547,6,0,P|60:288|72:160,1,160,2|10,1:2|2:0,2:0:0:0:
103,90,22992,1,0,2:0:0:0:
175,189,23141,2,0,L|167:273,1,80,2|0,1:0|1:0,0:0:0:0:
112,97,23438,1,10,2:0:0:0:
268,128,23586,6,0,L|276:300,1,160,0|0,1:0|1:0,2:0:0:0:
448,148,24032,2,0,L|364:140,1,80,10|0,2:0|2:0,0:0:0:0:
232,224,24329,2,0,L|311:231,1,80,2|0,1:2|1:0,0:0:0:0:
492,136,24626,2,0,L|408:128,1,80,10|0,2:0|1:0,2:0:0:0:
192,244,24923,6,0,P|270:251|372:264,1,160,2|10,1:2|2:0,2:0:0:0:
289,158,25368,1,0,2:0:0:0:
204,328,25517,2,0,P|162:333|111:336,1,80,2|0,1:0|1:0,0:0:0:0:
101,252,25814,1,10,2:0:0:0:
274,383,25962,6,0,P|307:312|292:235,1,160,0|0,1:0|1:0,2:0:0:0:
240,92,26408,2,0,B|213:133|213:133|200:180,1,80,10|0,2:0|2:0,0:0:0:0:
332,303,26705,2,0,B|322:277|322:277|292:235,1,80,2|0,1:0|1:0,2:0:0:0:
116,164,27002,2,0,B|71:185|71:185|32:220,1,80,10|0,2:0|1:0,0:0:0:0:
324,108,27299,6,0,P|376:116|474:182,1,160,2|10,1:0|2:0,2:0:0:0:
280,204,27745,1,0,2:0:0:0:
160,120,27893,2,0,P|151:79|147:15,1,80,2|0,1:0|1:0,0:0:0:0:
40,12,28190,1,10,2:0:0:0:
8,175,28339,6,0,P|75:162|172:115,1,160,0|0,1:0|1:0,2:0:0:0:
296,102,28784,2,0,P|337:104|410:106,1,80,10|0,2:0|2:0,0:0:0:0:
215,47,29081,1,2,1:0:0:0:
236,188,29230,2,0,P|240:230|240:275,1,80,0|10,1:0|2:0,0:0:0:0:
19,339,29527,1,0,1:0:0:0:
19,339,29601,1,0,1:0:0:0:
19,339,29675,6,0,P|90:304|175:311,1,160,6|10,1:2|2:0,2:0:0:0:
257,363,30121,1,0,2:0:0:0:
332,296,30269,2,0,P|346:240|346:199,2,80,2|0|10,1:0|1:0|2:0,0:0:0:0:
180,224,30715,6,0,P|160:164|167:54,1,160,0|0,1:0|1:0,2:0:0:0:
328,132,31161,2,0,P|348:172|360:224,1,80,10|0,2:0|2:0,0:0:0:0:
180,224,31458,2,0,P|156:269|146:326,1,80,2|0,1:0|1:0,0:0:0:0:
332,296,31755,1,10,2:0:0:0:
253,180,31903,1,0,1:0:0:0:
82,353,32052,6,0,P|162:373|231:325,1,160,2|10,1:0|2:0,2:0:0:0:
254,257,32497,1,0,2:0:0:0:
168,148,32646,2,0,P|130:143|76:139,1,80,2|0,1:0|1:0,0:0:0:0:
144,48,32943,1,10,2:0:0:0:
253,180,33091,6,0,P|329:161|417:151,1,160,0|0,1:0|1:0,2:0:0:0:
428,318,33537,2,0,P|412:270|412:222,1,80,10|0,2:0|2:0,0:0:0:0:
444,80,33834,2,0,P|424:140|404:164,1,80,2|0,1:0|1:0,2:0:0:0:
253,180,34131,2,0,P|295:189|361:212,1,80,10|0,2:0|1:0,0:0:0:0:
244,316,34428,6,0,P|168:308|76:324,1,160,2|10,1:0|2:0,2:0:0:0:
11,244,34873,1,0,2:0:0:0:
77,92,35022,2,0,L|85:176,1,80,2|0,1:0|1:0,0:0:0:0:
1,43,35319,1,10,2:0:0:0:
178,46,35467,6,0,L|193:206,1,160,0|0,1:0|1:0,2:0:0:0:
196,348,35913,2,0,L|104:356,1,80,10|0,2:0|2:0,0:0:0:0:
9,282,36210,2,0,L|101:274,1,80,2|0,1:0|1:0,0:0:0:0:
212,194,36507,2,0,L|120:202,1,80,10|0,2:0|1:0,2:0:0:0:
52,96,36804,6,0,B|115:97|115:97|134:87|134:87|239:90,1,160,2|10,1:0|2:0,2:0:0:0:
76,12,37250,1,0,2:0:0:0:
164,163,37398,2,0,L|159:257,1,80,2|0,1:0|1:0,2:0:0:0:
64,104,37695,1,2,1:0:0:0:
216,19,37844,6,0,L|304:24,1,80,12|0,2:0|0:0,2:0:0:0:
401,154,38141,1,8,2:3:0:0:
304,40,38289,1,8,2:3:0:0:
448,68,38438,1,8,2:3:0:0:
305,133,38586,1,8,2:3:0:0:
386,7,38735,1,0,1:0:0:0:
332,216,38883,2,0,P|291:222|248:200,1,80,8|0,2:0|2:0,2:0:0:0:
124,80,39180,5,4,1:0:0:0:
168,88,48091,5,8,2:0:0:0:
168,88,48165,1,8,2:0:0:0:
168,88,48240,2,0,L|124:76,2,40,8|8|0,2:0|2:0|1:0,0:0:0:0:
236,148,48537,1,0,0:0:0:0:
303,80,48685,6,0,L|392:65,1,64,4|0,1:0|2:0,2:0:0:0:
472,40,48982,1,8,2:0:0:0:
479,184,49131,2,0,P|418:181|337:148,1,128,0|0,2:0|1:0,0:0:0:0:
283,229,49576,2,0,P|243:237|199:238,1,64,0|8,0:0|2:0,0:0:0:0:
113,225,49873,5,0,0:0:0:0:
168,88,50022,2,0,L|174:177,1,64,0|8,1:0|2:0,0:0:0:0:
278,300,50319,2,0,L|287:147,1,128,0|0,2:0|1:0,0:0:0:0:
397,272,50764,2,0,L|384:187,1,64,8|0,2:0|2:0,2:0:0:0:
275,160,51061,6,0,P|237:163|185:151,1,64,2|0,1:0|0:0,2:0:0:0:
95,113,51359,1,8,2:0:0:0:
186,153,51507,2,0,L|191:273,1,96,0|0,2:0|0:0,0:0:0:0:
192,268,51804,2,0,L|116:263,1,64,0|0,1:0|0:0,0:0:0:0:
276,340,52101,6,0,P|332:314|408:300,1,128,8|0,2:0|1:0,2:0:0:0:
280,240,52547,1,8,2:0:0:0:
192,268,52695,2,0,P|123:242|41:228,1,128,0|0,2:0|1:0,0:0:0:0:
160,161,53141,2,0,L|248:151,1,64,8|0,2:0|0:0,2:0:0:0:
385,118,53438,6,0,P|392:81|389:35,1,64,2|0,1:0|2:0,2:0:0:0:
284,72,53735,1,8,2:0:0:0:
335,200,53883,2,0,P|395:211|461:167,2,128,0|2|8,2:0|1:0|2:0,0:0:0:0:
335,200,54774,6,0,L|251:196,1,64,0|8,1:0|2:0,0:0:0:0:
144,125,55071,1,2,2:0:0:0:
176,120,55146,1,2,0:0:0:0:
206,115,55220,1,0,1:0:0:0:
123,245,55368,2,0,L|40:253,1,64,0|8,1:0|2:0,0:0:0:0:
115,130,55665,1,0,2:0:0:0:
197,212,55814,6,0,P|203:255|193:297,1,64,2|0,1:0|2:0,2:0:0:0:
309,346,56111,2,0,B|318:323|318:323|306:303|306:303|321:269|312:224,1,128,8|0,2:0|1:0,2:0:0:0:
420,255,56557,2,0,P|429:215|431:174,1,64,0|0,1:0|2:0,2:0:0:0:
344,92,56854,6,0,L|186:77,1,128,8|0,2:0|1:0,2:0:0:0:
116,128,57299,1,8,2:0:0:0:
177,200,57448,2,0,L|260:189,1,64,0|0,2:0|1:0,0:0:0:0:
348,203,57745,1,0,1:0:0:0:
304,292,57893,1,8,2:0:0:0:
255,196,58042,1,0,2:0:0:0:
360,195,58190,6,0,L|446:186,1,80,4|0,1:0|2:0,0:0:0:0:
296,304,58487,2,0,L|213:298,1,80,8|0,2:0|2:0,0:0:0:0:
116,361,58784,1,0,1:0:0:0:
204,300,58933,1,2,1:0:0:0:
116,93,59230,6,0,L|31:83,2,80,8|0|0,2:0|0:0|1:0,2:0:0:0:
232,128,59675,1,8,2:0:0:0:
232,128,59824,2,0,L|320:116,2,80,0|0|0,2:0|1:0|1:0,0:0:0:0:
140,200,60269,2,0,B|126:226|126:226|130:256|121:290,1,80,8|0,2:0|2:0,2:0:0:0:
288,221,60566,6,0,P|350:212|376:199,1,80,2|0,1:0|2:0,2:0:0:0:
428,320,60863,2,0,P|387:311|338:305,1,80,8|0,2:0|2:0,0:0:0:0:
484,236,61160,1,0,1:0:0:0:
373,183,61309,2,0,P|365:137|365:91,1,80,2|0,1:0|2:0,2:0:0:0:
256,24,61606,1,8,2:0:0:0:
256,24,61903,6,0,L|160:17,1,80,0|8,1:0|2:0,0:0:0:0:
296,180,62200,2,0,P|307:139|300:93,1,80,0|0,2:0|1:0,2:0:0:0:
212,136,62497,1,0,1:0:0:0:
276,272,62646,2,0,P|320:269|356:248,1,80,8|0,2:0|2:0,0:0:0:0:
200,226,62943,5,2,1:0:0:0:
127,273,63091,1,0,2:0:0:0:
79,198,63240,2,0,B|52:189|52:189|-7:189,1,80,8|0,2:0|2:0,0:0:0:0:
127,273,63537,1,0,1:0:0:0:
144,136,63685,2,0,P|149:104|143:50,1,80,0|0,1:0|2:0,0:0:0:0:
308,116,63982,6,0,L|392:104,2,80,8|0|0,2:0|2:0|1:0,2:0:0:0:
460,216,64428,1,8,2:0:0:0:
460,216,64576,2,0,L|376:204,1,80,0|0,2:0|1:0,0:0:0:0:
384,104,64873,1,0,1:0:0:0:
296,240,65022,2,0,B|285:268|285:268|284:345,1,80,8|0,2:0|1:0,0:0:0:0:
157,187,65319,6,0,P|183:247|181:357,1,160,2|8,1:0|2:0,2:0:0:0:
59,232,65764,2,0,P|49:184|52:122,1,80,0|0,2:0|1:0,2:0:0:0:
157,188,66061,2,0,P|164:250|158:280,1,80,2|8,2:0|2:0,2:0:0:0:
112,88,66359,6,0,B|157:72|157:72|208:105|283:66,1,160,4|0,1:2|1:0,2:0:0:0:
340,159,66804,2,0,P|370:112|378:72,1,80,8|0,2:0|2:0,0:0:0:0:
240,160,67101,2,0,P|254:208|299:248,1,80,8|0,2:3|1:0,2:0:0:0:
306,252,67324,1,0,1:0:0:0:
345,252,67398,2,0,L|394:248,2,40,8|8|8,2:0|2:0|2:3,2:0:0:0:
196,336,67695,6,0,B|162:329|131:346|131:346|91:330|91:330|26:345,2,160,6|8|0,1:2|2:0|1:0,2:0:0:0:
303,331,68438,2,0,L|306:252,1,80,0|8,1:0|2:0,0:0:0:0:
185,176,68735,2,0,L|196:336,1,160,2|0,1:0|1:0,2:0:0:0:
88,268,69180,1,8,2:0:0:0:
92,140,69329,1,2,2:0:0:0:
92,140,69403,1,2,0:0:0:0:
92,140,69477,2,0,P|114:107|154:78,1,80,0|0,1:0|1:0,0:0:0:0:
208,200,69774,1,10,2:0:0:0:
88,268,69923,1,0,2:0:0:0:
256,116,70071,6,0,P|343:109|399:168,1,160,2|8,1:0|2:0,2:0:0:0:
315,277,70517,2,0,P|306:234|311:181,1,80,0|0,2:0|1:0,2:0:0:0:
416,240,70814,1,2,1:0:0:0:
396,344,70962,1,8,2:0:0:0:
216,304,71111,2,0,B|168:295|168:295|113:325|43:296,1,160,2|0,1:0|2:0,2:0:0:0:
288,376,71557,2,0,P|313:329|313:285,1,80,8|0,2:0|2:0,0:0:0:0:
188,231,71854,2,0,P|194:270|216:304,1,80,0|0,1:0|1:0,2:0:0:0:
272,164,72151,2,0,L|279:117,2,40,8|0|0,2:0|0:0|2:0,2:0:0:0:
188,232,72448,6,0,P|112:244|28:200,1,160,2|8,1:0|2:0,2:0:0:0:
208,88,72893,2,0,P|284:76|368:120,1,160,0|2,2:0|1:0,2:0:0:0:
396,208,73339,1,8,2:0:0:0:
124,148,73487,6,0,P|108:100|104:47,1,80,2|0,1:0|0:0,2:0:0:0:
208,88,73784,1,0,1:0:0:0:
188,232,73933,1,8,2:0:0:0:
68,240,74081,2,0,P|40:228|-7:185,1,80,2|0,2:0|1:0,2:0:0:0:
188,232,74378,1,2,1:0:0:0:
256,312,74527,1,8,2:0:0:0:
396,208,74675,6,0,P|424:275|403:370,1,160,4|0,1:2|1:0,2:0:0:0:
304,204,75121,2,0,P|262:202|208:188,1,80,8|0,2:0|1:0,0:0:0:0:
173,263,75344,1,0,1:0:0:0:
173,263,75418,2,0,P|123:266|69:278,1,80,8|8,2:0|2:3,0:0:0:0:
0,200,75715,1,8,2:3:0:0:
86,70,75863,6,0,P|159:44|241:44,1,160,10|0,2:0|0:0,0:0:0:0:
320,96,76309,2,0,L|387:92,1,60.0000022888184,0|2,0:0|2:0,0:0:0:0:
207,153,76606,2,0,L|125:144,1,60.0000022888184,2|2,2:0|2:0,0:0:0:0:
316,248,76903,2,0,L|388:239,1,60.0000022888184,2|2,2:0|2:0,0:0:0:0:
180,336,77200,6,0,P|103:345|28:266,1,176.000005371094,6|10,1:0|2:0,2:0:0:0:
132,164,77646,2,0,L|125:256,1,88.000002685547,0|2,2:0|1:0,0:0:0:0:
32,148,77943,2,0,L|26:44,1,88.000002685547,0|10,1:0|2:0,2:0:0:0:
132,164,78240,6,0,P|192:160|278:133,1,132.00000402832,0|0,1:0|0:0,2:0:0:0:
304,216,78537,2,0,P|352:220|401:229,1,88.000002685547,0|10,1:0|2:0,0:0:0:0:
328,344,78834,1,0,2:0:0:0:
205,303,78982,2,0,B|196:284|196:284|198:274|198:274|181:219,1,88.000002685547,2|0,1:0|1:0,0:0:0:0:
304,216,79279,2,0,B|313:197|313:197|311:187|311:187|328:132,1,88.000002685547,10|0,2:0|1:0,2:0:0:0:
192,60,79576,6,0,P|125:23|1:54,1,176.000005371094,2|10,1:0|2:0,2:0:0:0:
98,135,80022,1,0,2:0:0:0:
238,148,80170,2,0,P|270:115|291:53,1,88.000002685547,2|0,1:0|1:0,0:0:0:0:
192,60,80467,1,10,2:0:0:0:
184,236,80616,6,0,P|262:256|384:224,1,176.000005371094,0|0,1:0|1:0,2:0:0:0:
432,104,81061,2,0,P|381:100|319:86,1,88.000002685547,10|0,2:0|2:0,2:0:0:0:
192,60,81359,2,0,P|176:116|168:159,1,88.000002685547,2|0,1:0|1:0,0:0:0:0:
316,172,81656,2,0,P|326:214|331:258,1,88.000002685547,10|0,2:0|1:0,0:0:0:0:
108,339,81953,6,0,B|154:311|154:311|211:353|269:330,1,176.000005371094,6|10,1:2|2:0,2:0:0:0:
332,258,82398,1,0,2:0:0:0:
232,148,82547,2,0,P|221:196|231:252,1,88.000002685547,2|0,1:0|1:0,0:0:0:0:
270,330,82844,1,10,2:0:0:0:
432,216,82992,6,0,B|445:160|445:160|472:125|472:125|486:52,2,176.000005371094,0|0|0,1:0|1:0|2:0,2:0:0:0:
348,360,83735,1,2,2:0:0:0:
256,220,83883,1,0,1:0:0:0:
164,360,84032,1,10,2:0:0:0:
80,216,84180,6,2,B|66:160|66:160|39:125|39:125|27:47,1,176.000005371094,4|0,1:2|1:0,2:0:0:0:
208,44,84626,2,0,P|166:28|111:28,1,88.000002685547,10|0,2:0|2:0,2:0:0:0:
211,163,84923,2,0,P|271:139|322:41,1,176.000005371094,2|2,1:0|1:0,2:0:0:0:
208,44,85368,1,8,2:0:0:0:
196,170,85517,6,0,L|205:270,1,88.000002685547,0|8,0:0|2:0,0:0:0:0:
256,344,85814,1,10,2:0:0:0:
319,192,85962,1,0,1:0:0:0:
319,192,86037,1,0,1:0:0:0:
319,192,86111,2,0,L|328:95,1,88.000002685547,8|8,2:0|2:3,0:0:0:0:
128,24,86408,2,0,L|139:125,1,88.000002685547,8|8,2:3|2:0,0:0:0:0:
28,271,86705,6,0,P|-5:202|14:87,1,176.000005371094,4|10,1:0|2:0,2:0:0:0:
176,144,87151,2,0,P|129:154|85:143,1,88.000002685547,0|2,2:0|1:0,0:0:0:0:
248,60,87448,2,0,L|357:69,1,88.000002685547,0|10,1:0|2:0,2:0:0:0:
320,192,87745,6,0,L|475:168,1,132.00000402832,0|0,1:0|0:0,2:0:0:0:
479,251,88042,2,0,L|390:233,1,88.000002685547,0|10,1:0|2:0,0:0:0:0:
256,328,88339,1,0,2:0:0:0:
192,228,88487,2,0,P|177:187|176:144,1,88.000002685547,2|0,1:0|1:0,0:0:0:0:
336,107,88784,2,0,P|335:150|320:192,1,88.000002685547,10|0,2:0|1:0,0:0:0:0:
256,328,89081,6,0,P|319:272|416:293,1,176.000005371094,6|10,1:0|2:0,2:0:0:0:
345,367,89527,1,0,2:0:0:0:
164,348,89675,2,0,L|152:247,1,88.000002685547,2|0,1:0|1:0,0:0:0:0:
28,176,89972,1,10,2:0:0:0:
28,176,90121,6,2,B|87:190|87:190|136:146|208:175,1,176.000005371094,4|8,1:2|2:3,2:0:0:0:
314,143,90566,2,0,P|323:93|310:35,1,88.000002685547,8|8,2:3|2:3,0:0:0:0:
278,235,90863,5,8,2:3:0:0:
301,238,90938,1,0,1:0:0:0:
323,238,91012,1,0,1:0:0:0:
343,234,91086,1,0,1:0:0:0:
362,224,91161,2,0,P|400:184|414:146,1,88.000002685547,8|0,2:0|2:0,2:0:0:0:
314,143,91458,6,0,L|188:128,2,88.000002685547,4|0|8,1:2|2:0|2:0,0:0:0:0:
150,182,91903,2,0,P|135:130|150:71,1,88.000002685547,0|0,2:0|1:0,0:0:0:0:
140,276,92200,2,0,P|97:259|54:216,1,88.000002685547,2|0,1:0|2:0,2:0:0:0:
205,354,92497,6,0,P|263:338|348:345,1,132.00000402832,8|0,2:0|0:0,2:0:0:0:
328,263,92794,2,0,P|366:257|420:240,1,88.000002685547,0|8,1:0|2:0,0:0:0:0:
344,136,93091,1,0,2:0:0:0:
228,184,93240,2,0,P|216:236|212:292,1,88.000002685547,0|0,1:0|1:0,0:0:0:0:
100,232,93537,2,0,P|94:188|84:145,1,88.000002685547,8|0,2:0|2:0,2:0:0:0:
16,72,93835,5,2,1:0:0:0:
164,32,93982,2,0,B|207:39|243:17|243:17|285:33|285:33|365:16,2,176.000005371094,0|0|2,2:0|2:0|1:0,2:0:0:0:
84,144,94725,1,8,2:0:0:0:
188,292,94873,6,0,B|219:321|269:325|316:279|316:279|254:239|276:181|276:181|241:140|257:84,1,360,4|8,1:0|2:0,0:0:0:0:
256,87,96359,1,0,0:0:0:0:
256,200,96507,2,0,L|256:264,1,60.0000022888184
456,88,101854,5,8,2:0:0:0:
456,88,102151,6,0,P|457:133|454:178,1,80,2|0,1:0|1:0,0:0:0:0:
344,112,102448,2,0,P|341:72|343:32,1,80,8|8,2:0|2:3,0:0:0:0:
343,32,102670,1,8,2:3:0:0:
343,32,102745,1,8,2:3:0:0:
456,88,102893,1,0,1:0:0:0:
391,194,103042,2,0,B|351:207|351:207|295:200,1,80,8|0,2:0|2:0,2:0:0:0:
176,148,103339,6,0,L|183:249,1,80,0|0,1:0|1:0,0:0:0:0:
115,83,103636,2,0,P|150:64|190:60,1,80,8|8,2:0|2:3,0:0:0:0:
190,60,103859,1,8,2:3:0:0:
190,60,103933,1,8,2:3:0:0:
176,148,104081,1,0,1:0:0:0:
88,160,104230,2,0,P|42:157|-13:131,1,80,8|0,2:0|2:0,2:0:0:0:
136,224,104527,6,0,B|145:253|145:253|138:341,1,80,0|0,1:0|1:0,0:0:0:0:
224,352,104824,2,0,P|262:362|326:349,1,80,8|8,2:0|2:3,0:0:0:0:
312,352,105047,1,8,2:3:0:0:
322,345,105121,2,0,L|410:341,1,80,8|0,2:3|1:0,0:0:0:0:
256,188,105418,2,0,L|261:273,1,80,8|0,2:0|2:0,2:0:0:0:
352,212,105715,5,0,1:0:0:0:
186,131,105863,2,0,P|164:185|167:227,1,80,0|10,1:0|2:0,0:0:0:0:
352,212,106161,2,0,P|347:172|329:137,1,80,0|8,2:0|2:0,0:0:0:0:
296,116,106383,1,8,2:0:0:0:
257,103,106458,2,0,L|256:57,2,40,8|8|8,2:0|2:0|2:0,0:0:0:0:
136,276,106903,5,4,2:0:0:0:
32,300,107052,1,0,2:0:0:0:
60,200,107200,1,0,1:0:0:0:
136,276,107349,2,0,P|197:293|268:289,1,128,2|0,2:0|2:0,2:0:0:0:
261,290,107794,1,0,1:0:0:0:
344,180,107943,6,0,P|283:163|212:167,1,128,2|0,2:0|2:0,2:0:0:0:
128,136,108388,2,0,P|120:98|123:52,1,64,0|2,1:0|2:0,0:0:0:0:
131,42,108611,1,0,0:0:0:0:
156,22,108685,2,0,L|198:16,2,32,0|0|0,0:0|0:0|2:0,0:0:0:0:
232,108,108982,2,0,P|270:104|313:93,1,64,0|0,1:0|2:0,2:0:0:0:
344,180,109279,6,0,P|385:178|432:187,1,64,2|0,2:0|2:0,0:0:0:0:
473,276,109576,1,0,1:0:0:0:
292,355,109725,2,0,P|271:300|283:223,1,128,2|0,2:0|2:0,2:0:0:0:
316,92,110170,1,0,1:0:0:0:
198,188,110319,6,0,P|166:193|129:191,1,64,2|0,2:0|2:0,2:0:0:0:
211,347,110616,2,0,P|222:316|244:285,1,64,0|0,2:0|1:0,2:0:0:0:
80,260,110913,2,0,P|98:288|109:324,1,64,2|0,2:0|0:0,2:0:0:0:
25,132,111210,1,0,2:0:0:0:
25,132,111284,1,2,2:0:0:0:
25,132,111359,2,0,L|-24:128,3,32,2|2|2|2,1:0|2:0|2:0|2:0,0:0:0:0:
48,140,111656,6,0,L|127:132,2,64,6|0|0,2:0|2:0|1:0,0:0:0:0:
189,172,112101,2,0,P|204:139|196:36,1,128,2|0,2:0|2:0,2:0:0:0:
112,100,112547,1,0,1:0:0:0:
178,264,112695,2,0,P|234:251|302:209,1,128,2|0,2:0|2:0,2:0:0:0:
204,77,113141,1,0,1:0:0:0:
204,77,113438,6,0,L|202:131,1,32,8|0,2:0|0:0,2:0:0:0:
312,137,113661,2,0,L|318:178,1,32,8|0,2:0|2:0,0:0:0:0:
180,232,113883,5,8,2:0:0:0:
180,232,113958,1,8,0:0:0:0:
180,232,114032,2,0,L|184:340,2,96,8|8|8,2:0|2:0|2:0,2:0:0:0:
312,136,114626,2,0,L|316:60,1,64,8|8,2:0|2:3,0:0:0:0:
327,42,114849,1,8,2:3:0:0:
355,27,114923,2,0,L|399:24,2,32,0|0|10,1:0|0:0|2:0,0:0:0:0:
180,232,115368,6,0,L|96:224,1,64
312,136,115665,2,0,L|380:128,1,64
208,320,115962,1,0,0:0:0:0:
320,240,116111,1,8,2:0:0:0:
200,136,116260,1,0,0:0:0:0:
304,320,116408,6,0,P|362:325|448:256,1,160,4|8,1:0|2:0,0:0:0:0:
441,268,117002,1,0,1:0:0:0:
344,148,117151,2,0,L|350:238,1,80,2|0,1:0|2:0,2:0:0:0:
296,76,117448,6,0,P|338:65|392:69,2,80,8|0|0,2:0|2:0|1:0,2:0:0:0:
252,164,117893,2,0,P|214:175|174:175,1,80,8|0,2:0|2:0,2:0:0:0:
81,140,118190,1,0,1:0:0:0:
161,172,118339,2,0,L|168:270,1,80,0|8,1:0|2:0,0:0:0:0:
128,340,118636,1,0,1:0:0:0:
248,307,118784,6,0,B|293:293|293:293|404:316,1,160,0|8,1:0|2:0,2:0:0:0:
404,316,119230,1,0,2:0:0:0:
496,240,119378,1,0,1:0:0:0:
390,181,119527,2,0,L|294:169,1,80,2|0,1:0|2:0,2:0:0:0:
248,307,119824,6,0,L|336:295,1,80,8|0,2:0|0:0,2:0:0:0:
208,218,120121,2,0,L|112:202,1,80,0|8,1:0|2:0,0:0:0:0:
28,327,120418,2,0,L|108:319,1,80,0|0,2:0|1:0,0:0:0:0:
248,308,120715,1,0,1:0:0:0:
184,380,120863,1,8,2:0:0:0:
112,240,121012,5,2,0:0:0:0:
112,240,121086,1,2,2:0:0:0:
112,240,121161,2,0,P|52:228|3:228,1,80,0|0,1:0|2:0,0:0:0:0:
107,135,121458,2,0,P|162:124|196:115,1,80,8|0,2:0|0:0,2:0:0:0:
276,97,121755,1,0,1:0:0:0:
280,240,121903,2,0,P|241:230|189:223,1,80,2|0,1:0|2:0,2:0:0:0:
368,209,122200,6,0,P|378:161|370:114,2,80,8|0|0,2:0|0:0|1:0,2:0:0:0:
256,320,122646,1,8,2:0:0:0:
144,209,122794,2,0,P|134:161|142:114,2,80,0|0|0,2:0|1:0|1:0,0:0:0:0:
256,320,123240,2,0,L|346:315,1,80,8|0,2:0|1:0,2:0:0:0:
464,296,123537,5,0,1:0:0:0:
353,263,123685,1,0,1:0:0:0:
377,375,123834,1,8,2:0:0:0:
432,208,123982,2,0,P|444:168|436:121,1,80,0|8,2:0|2:3,0:0:0:0:
423,102,124205,1,8,2:3:0:0:
392,92,124279,2,0,L|303:98,1,80,8|8,2:3|2:3,0:0:0:0:
220,208,124576,6,0,B|195:220|195:220|177:201|177:201|128:238|54:217,1,160,4|0,1:2|1:0,2:0:0:0:
0,292,125022,1,8,2:0:0:0:
116,344,125170,1,8,0:0:0:0:
147,336,125245,1,8,2:0:0:0:
179,336,125319,1,8,2:0:0:0:
209,344,125393,1,8,2:0:0:0:
239,354,125467,2,0,L|239:289,2,40,8|8|8,2:0|2:0|2:3,0:0:0:0:
320,323,125690,2,0,L|329:274,2,40,8|8|8,2:3|2:3|2:3,0:0:0:0:
395,368,125913,6,0,P|437:353|487:249,1,160,4|8,1:0|2:0,2:0:0:0:
388,188,126359,2,0,L|394:280,1,80,0|0,2:0|1:0,0:0:0:0:
476,132,126656,2,0,L|482:40,1,80,2|8,1:0|2:0,2:0:0:0:
388,188,126953,6,0,B|288:198|288:198|239:159,1,160,2|0,1:0|1:0,2:0:0:0:
97,119,127398,2,0,P|92:162|105:209,1,80,8|2,2:0|2:0,0:0:0:0:
110,219,127621,1,2,2:0:0:0:
120,240,127695,2,0,B|162:244|162:244|210:238,1,80,0|0,1:0|1:0,2:0:0:0:
256,128,127992,2,0,B|214:124|214:124|166:130,1,80,8|0,2:0|1:0,0:0:0:0:
376,56,128289,6,0,P|390:138|352:220,1,160,2|8,1:0|2:0,2:0:0:0:
149,207,128735,2,0,P|121:133|136:56,1,160,2|2,2:0|1:0,2:0:0:0:
256,128,129180,1,8,2:0:0:0:
209,288,129329,6,0,B|173:304|173:304|104:308,1,80,2|0,1:0|2:0,2:0:0:0:
150,208,129626,1,2,1:0:0:0:
304,248,129774,2,0,B|312:291|312:291|306:356,1,80,8|2,2:0|2:0,0:0:0:0:
247,161,130071,2,0,P|288:149|339:149,1,80,0|10,1:0|2:0,0:0:0:0:
304,248,130368,1,0,1:0:0:0:
150,208,130517,5,10,2:0:0:0:
150,208,130591,1,0,0:0:0:0:
150,208,130665,2,0,P|129:147|144:34,1,160,0|8,1:0|2:0,2:0:0:0:
22,147,131111,2,0,P|13:190|-8:237,1,80,2|0,2:0|1:0,0:0:0:0:
58,321,131408,2,0,P|101:302|151:294,1,80,2|8,1:0|2:0,2:0:0:0:
312,176,131705,6,0,L|306:319,1,120,4|0,2:0|0:0,2:0:0:0:
306,295,132002,1,0,1:0:0:0:
392,228,132151,1,8,2:0:0:0:
200,112,132299,2,0,L|208:217,1,80,0|0,2:0|1:0,2:0:0:0:
288,100,132596,1,0,1:0:0:0:
168,28,132745,1,8,2:0:0:0:
94,139,132893,6,0,B|72:181|72:181|101:235|83:299,1,160,2|8,1:0|2:0,2:0:0:0:
200,328,133339,2,0,L|248:320|300:330,1,80,0|0,1:0|1:0,0:0:0:0:
352,364,133561,1,0,1:0:0:0:
352,364,133636,2,0,L|455:355,1,80,8|8,2:0|2:3,0:0:0:0:
284,240,133933,1,0,1:0:0:0:
200,328,134081,2,0,P|155:329|97:300,1,80,10|0,2:0|0:0,0:0:0:0:
12,200,134378,5,8,2:0:0:0:
50,186,134453,1,8,2:0:0:0:
89,186,134527,1,8,2:0:0:0:
126,200,134601,1,8,2:0:0:0:
164,208,134675,1,8,2:0:0:0:
203,198,134750,1,8,2:0:0:0:
240,184,134824,2,0,L|236:133,3,40,8|8|8|8,2:0|2:0|2:0|2:0,0:0:0:0:
322,207,135121,2,0,L|319:261,3,40,8|8|8|8,2:0|2:0|2:0|2:0,0:0:0:0:
418,169,135418,6,0,B|398:141|398:141|418:123|418:123|388:86|414:-20,1,176.000005371094,4|10,1:0|2:0,2:0:0:0:
512,134,135863,2,0,P|514:190|505:236,1,88.000002685547,0|2,2:0|1:0,0:0:0:0:
324,104,136161,2,0,P|318:60|320:16,1,88.000002685547,0|10,1:0|2:0,2:0:0:0:
324,208,136458,6,0,B|268:212|268:212|174:186,1,132.00000402832,0|0,1:0|0:0,2:0:0:0:
136,136,136755,2,0,B|107:128|107:128|26:137,1,88.000002685547,0|10,1:0|2:0,0:0:0:0:
128,260,137052,1,0,2:0:0:0:
236,112,137200,2,0,P|280:111|324:104,1,88.000002685547,2|0,1:0|1:0,0:0:0:0:
128,260,137497,2,0,P|171:260|215:268,1,88.000002685547,10|0,2:0|1:0,2:0:0:0:
356,336,137794,6,0,P|325:270|344:159,1,176.000005371094,2|10,1:0|2:0,2:0:0:0:
440,248,138240,1,0,2:0:0:0:
271,353,138388,2,0,B|235:360|235:360|177:351,1,88.000002685547,2|0,1:0|1:0,0:0:0:0:
64,320,138685,1,10,2:0:0:0:
194,182,138834,6,0,L|339:169,1,132.00000402832,0|0,1:0|0:0,2:0:0:0:
353,241,139131,2,0,L|440:248,2,88.000002685547,0|10|0,1:0|2:0|2:0,0:0:0:0:
194,182,139576,2,0,P|185:142|186:94,1,88.000002685547,2|0,1:0|1:0,0:0:0:0:
324,24,139873,2,0,P|325:67|315:110,1,88.000002685547,10|0,2:0|1:0,0:0:0:0:
226,284,140170,6,0,B|177:297|143:274|143:274|114:286|114:286|77:268|28:294,1,176.000005371094,6|10,1:2|2:0,2:0:0:0:
308,336,140616,2,0,P|317:306|313:234,1,88.000002685547,0|2,2:0|1:0,0:0:0:0:
194,182,140913,2,0,P|184:152|189:80,1,88.000002685547,0|10,1:0|2:0,0:0:0:0:
402,151,141210,6,0,P|343:153|254:132,1,132.00000402832,0|0,1:0|0:0,2:0:0:0:
194,182,141507,2,0,P|148:183|104:195,1,88.000002685547,0|10,1:0|2:0,0:0:0:0:
162,299,141804,1,0,0:0:0:0:
196,308,141878,1,8,2:0:0:0:
230,315,141953,1,2,1:0:0:0:
21,242,142101,2,0,P|8:191|21:133,1,88.000002685547,0|10,1:0|2:0,0:0:0:0:
202,50,142398,6,2,L|194:182,1,132.00000402832,12|0,1:2|0:0,2:0:0:0:
220,251,142695,2,0,L|215:144,1,88.000002685547,0|10,1:0|2:0,0:0:0:0:
296,74,142992,1,0,2:0:0:0:
375,183,143141,2,0,P|413:184|467:160,1,88.000002685547,2|8,1:0|2:0,0:0:0:0:
400,92,143438,1,2,1:0:0:0:
301,245,143586,6,0,P|346:271|459:264,1,132.00000402832,12|0,1:2|2:0,2:0:0:0:
424,276,143883,1,8,2:0:0:0:
256,340,144032,2,0,P|206:346|145:360,1,88.000002685547,2|0,1:0|1:0,0:0:0:0:
104,312,144255,1,0,1:0:0:0:
104,312,144329,2,0,P|50:305|8:296,1,88.000002685547,8|8,2:0|2:3,0:0:0:0:
76,172,144626,2,0,P|124:165|180:161,1,88.000002685547,8|8,2:3|2:0,0:0:0:0:
301,245,144923,6,0,B|329:258|329:258|357:211|405:278|479:231,1,176.000005371094,4|10,1:0|2:0,2:0:0:0:
341,333,145368,2,0,P|299:342|256:336,1,88.000002685547,0|2,2:0|1:0,0:0:0:0:
256,168,145665,2,0,P|298:158|341:165,1,88.000002685547,0|10,1:0|2:0,2:0:0:0:
182,211,145962,6,0,P|167:154|178:69,1,132.00000402832,0|0,1:0|0:0,2:0:0:0:
136,144,146260,2,0,P|130:196|109:253,1,88.000002685547,0|10,1:0|2:0,0:0:0:0:
32,172,146557,1,0,2:0:0:0:
132,40,146705,2,0,B|166:29|166:29|222:35,1,88.000002685547,2|0,1:0|1:0,0:0:0:0:
356,132,147002,2,0,B|322:142|322:142|269:135,1,88.000002685547,10|0,2:0|1:0,2:0:0:0:
446,66,147299,6,0,P|476:151|458:246,1,176.000005371094,2|10,1:0|2:0,2:0:0:0:
320,284,147745,2,0,P|306:246|312:180,1,88.000002685547,0|2,2:0|1:0,0:0:0:0:
204,148,148042,2,0,P|205:191|190:233,1,88.000002685547,8|2,2:0|1:0,0:0:0:0:
304,36,148339,6,2,P|350:118|426:126,1,176.000005371094,12|8,1:2|2:3,2:0:0:0:
213,63,148784,2,0,B|174:67|174:67|114:52,1,88.000002685547,8|8,2:3|2:3,0:0:0:0:
32,119,149081,2,0,L|38:217,1,88.000002685547,8|2,2:3|2:0,0:0:0:0:
92,264,149304,1,2,2:0:0:0:
92,264,149378,2,0,L|85:371,1,88.000002685547,12|0,2:0|2:0,2:0:0:0:
222,244,149675,5,4,1:0:0:0:
312,312,149824,2,0,P|354:307|409:283,1,88.000002685547,0|8,2:0|2:0,2:0:0:0:
332,136,150121,2,0,L|341:238,1,88.000002685547,0|0,2:0|1:0,0:0:0:0:
432,140,150418,2,0,L|441:38,1,88.000002685547,2|0,1:0|2:0,2:0:0:0:
256,192,150715,6,0,P|230:125|243:14,1,176.000005371094,8|0,2:0|1:0,2:0:0:0:
80,92,151161,2,0,P|56:130|12:168,1,88.000002685547,8|0,2:0|2:0,2:0:0:0:
93,289,151458,2,0,P|135:268|195:263,1,88.000002685547,0|0,1:0|1:0,0:0:0:0:
324,352,151755,2,0,P|277:357|222:342,1,88.000002685547,8|0,2:0|1:0,2:0:0:0:
256,192,152052,5,6,1:2:0:0:
348,136,152200,2,0,P|359:183|359:233,1,88.000002685547,0|8,2:0|2:0,2:0:0:0:
152,222,152497,2,0,P|153:178|164:136,1,88.000002685547,0|0,2:0|1:0,0:0:0:0:
256,192,152794,1,10,2:0:0:0:
236,296,152943,1,0,1:0:0:0:
68,152,153091,1,6,1:2:0:0:
68,152,153388,6,0,P|72:200|72:247,1,88.000002685547,8|8,2:3|2:3,0:0:0:0:
189,178,153685,2,0,P|190:136|195:77,1,88.000002685547,8|8,2:3|2:3,0:0:0:0:
318,90,153982,2,0,P|321:134|323:178,1,88.000002685547,8|8,2:3|2:3,0:0:0:0:
439,239,154279,2,0,P|440:195|444:152,1,88.000002685547,0|8,1:0|2:0,0:0:0:0:
56,312,163784,5,2,1:0:0:0:
232,228,164081,1,2,1:0:0:0:
368,360,164378,1,0,1:0:0:0:
368,360,164527,2,0,P|376:324|363:259,1,71.9999978027344,8|8,2:0|2:3,0:0:0:0:
358,273,164750,1,8,2:3:0:0:
337,267,164824,2,0,L|246:258,1,71.9999978027344,8|8,2:3|2:0,0:0:0:0:
184,368,165121,5,4,1:0:0:0:
56,312,165269,1,8,2:0:0:0:
47,284,165344,1,8,2:0:0:0:
47,255,165418,1,8,2:0:0:0:
53,227,165492,1,8,2:0:0:0:
63,200,165566,6,0,L|117:195,1,35.9999989013672,8|8,2:0|2:0,0:0:0:0:
140,120,165715,2,0,L|104:115,1,35.9999989013672,8|8,2:0|2:0,2:0:0:0:
204,224,165863,2,0,L|239:220,1,35.9999989013672,8|8,2:0|2:0,2:0:0:0:
280,112,166012,2,0,L|239:107,1,35.9999989013672,8|8,2:0|2:0,2:0:0:0:
348,203,166161,2,0,L|394:195,1,35.9999989013672,8|8,2:0|2:0,2:0:0:0:
474,87,166309,6,0,B|457:127|457:127|510:192|457:271,1,176.000005371094,0|10,1:0|2:0,2:0:0:0:
348,204,166755,1,0,2:0:0:0:
372,44,166903,1,2,1:0:0:0:
336,208,167052,2,0,P|291:213|243:191,1,88.000002685547,0|10,1:0|2:0,2:0:0:0:
160,28,167349,6,0,L|296:20,1,132.00000402832,0|0,1:0|0:0,2:0:0:0:
372,44,167646,2,0,L|488:52,1,88.000002685547,0|10,1:0|2:0,0:0:0:0:
316,128,167943,1,0,2:0:0:0:
294,134,168017,1,8,2:0:0:0:
273,141,168091,1,2,1:0:0:0:
372,44,168240,1,0,1:0:0:0:
460,132,168388,1,10,2:0:0:0:
396,216,168537,1,0,1:0:0:0:
248,152,168685,6,0,B|177:149|177:149|142:161|142:161|57:151,1,176.000005371094,2|10,1:0|2:0,2:0:0:0:
168,64,169131,1,0,2:0:0:0:
184,240,169279,2,0,P|136:249|80:237,1,88.000002685547,2|0,1:0|1:0,0:0:0:0:
11,216,169576,1,10,2:0:0:0:
248,152,169725,6,0,P|278:200|283:278,1,132.00000402832,0|0,1:0|0:0,2:0:0:0:
232,336,170022,2,0,L|139:344,1,88.000002685547,0|10,1:0|2:0,0:0:0:0:
184,240,170319,1,0,2:0:0:0:
336,180,170467,2,0,P|351:130|342:59,1,88.000002685547,2|0,1:0|1:0,0:0:0:0:
168,64,170764,2,0,P|152:113|162:185,1,88.000002685547,10|0,2:0|1:0,0:0:0:0:
128,298,171061,6,0,P|188:266|312:279,1,176.000005371094,6|10,1:2|2:0,2:0:0:0:
364,336,171507,1,0,2:0:0:0:
260,175,171656,2,0,P|217:250|232:336,1,176.000005371094,2|10,1:0|2:0,0:0:0:0:
460,204,172101,6,0,P|374:231|315:209,1,132.00000402832,0|0,1:0|0:0,2:0:0:0:
260,175,172398,2,0,L|164:179,1,88.000002685547,0|10,1:0|2:0,0:0:0:0:
212,68,172695,1,0,1:0:0:0:
231,57,172769,1,0,1:0:0:0:
250,47,172844,1,2,1:0:0:0:
352,112,172992,1,2,1:0:0:0:
260,175,173141,1,8,2:0:0:0:
380,48,173289,6,2,B|360:164|360:164|381:256,1,176.000005371094,4|0,1:2|1:0,1:0:0:0:
363,317,173735,2,0,P|417:306|458:275,1,88.000002685547,10|0,2:0|2:0,2:0:0:0:
266,276,174032,2,0,P|185:265|112:327,1,176.000005371094,10|10,2:0|2:0,0:0:0:0:
211,365,174477,1,12,1:0:0:0:
168,252,174626,5,2,1:0:0:0:
260,175,174774,2,0,P|271:130|262:74,1,88.000002685547,8|2,2:0|1:0,2:0:0:0:
100,144,175071,1,0,1:0:0:0:
121,142,175146,1,0,1:0:0:0:
142,141,175220,1,8,2:0:0:0:
168,252,175368,1,8,2:3:0:0:
36,240,175517,1,8,2:3:0:0:
160,140,175665,1,8,2:0:0:0:
288,256,175814,6,0,P|344:253|450:183,1,176.000005371094,4|10,1:0|2:0,2:0:0:0:
386,100,176260,1,0,2:0:0:0:
379,250,176408,2,0,P|421:271|492:266,1,88.000002685547,2|0,1:0|1:0,0:0:0:0:
452,177,176705,1,10,2:0:0:0:
312,168,176854,6,0,L|174:164,1,132.00000402832,0|0,1:0|0:0,2:0:0:0:
123,233,177151,2,0,L|36:240,1,88.000002685547,0|10,1:0|2:0,0:0:0:0:
180,164,177448,1,2,2:0:0:0:
180,164,177522,1,8,2:0:0:0:
180,164,177596,2,0,B|189:117|189:117|181:61,1,88.000002685547,2|0,1:0|1:0,2:0:0:0:
216,252,177893,2,0,B|209:295|209:295|221:351,1,88.000002685547,10|0,2:0|1:0,0:0:0:0:
284,190,178190,6,0,P|379:173|441:219,1,176.000005371094,6|10,1:2|2:0,2:0:0:0:
352,267,178636,1,0,2:0:0:0:
192,160,178784,2,0,L|196:40,1,88.000002685547,2|8,1:0|2:0,0:0:0:0:
96,52,179081,1,2,1:0:0:0:
320,20,179230,6,2,B|324:92|324:92|338:116|338:116|345:202,1,176.000005371094,12|8,2:0|2:3,2:1:0:0:
444,280,179675,2,0,P|463:245|469:187,1,88.000002685547,2|8,2:0|2:3,0:0:0:0:
344,191,179972,2,0,L|228:183,1,88.000002685547,8|0,2:3|1:0,0:0:0:0:
196,240,180195,1,0,1:0:0:0:
196,240,180269,2,0,L|100:244,1,88.000002685547,8|0,2:0|2:0,2:0:0:0:
256,152,180566,5,4,1:0:0:0:
316,272,180715,2,0,B|325:317|325:317|315:377,1,88.000002685547,0|8,2:0|2:0,2:0:0:0:
196,240,181012,2,0,B|187:195|187:195|197:135,1,88.000002685547,0|0,2:0|1:0,0:0:0:0:
164,328,181309,2,0,P|126:302|100:248,1,88.000002685547,2|0,1:0|2:0,2:0:0:0:
316,272,181606,6,0,L|492:264,1,176.000005371094,8|0,2:0|1:0,2:0:0:0:
392,136,182052,2,0,L|292:128,1,88.000002685547,8|0,2:0|2:0,2:0:0:0:
196,240,182349,2,0,L|284:232,1,88.000002685547,0|0,1:0|1:0,0:0:0:0:
168,128,182646,2,0,L|80:124,1,88.000002685547,8|0,2:0|2:0,2:0:0:0:
8,228,182943,5,2,1:0:0:0:
80,124,183091,2,0,L|72:12,1,88.000002685547,0|8,2:0|2:0,2:0:0:0:
176,144,183388,2,0,L|168:240,1,88.000002685547,0|0,2:0|1:0,0:0:0:0:
264,124,183685,6,0,P|330:139|427:111,1,155.999992858887,2|0,1:0|0:0,2:0:0:0:
432,36,183982,6,0,B|426:111|426:111|438:139|438:139|428:237,1,176.000005371094,8|0,2:0|1:0,2:0:0:0:
372,295,184428,2,0,P|407:309|461:308,1,88.000002685547,8|0,2:0|2:0,0:0:0:0:
300,216,184725,2,0,P|255:214|216:234,1,88.000002685547,0|0,1:0|1:0,0:0:0:0:
278,304,185022,1,8,2:0:0:0:
404,200,185170,1,0,2:0:0:0:
264,124,185319,6,0,P|252:85|256:15,1,88.000002685547,2|0,1:0|0:0,0:0:0:0:
352,72,185616,1,8,2:0:0:0:
300,216,185764,6,0,B|272:218|272:218|256:212|256:212|132:208,1,155.999992858887,0|0,2:0|0:0,2:0:0:0:
89,140,186061,6,0,L|-11:145,1,88.000002685547,2|0,1:0|2:0,2:0:0:0:
69,35,186359,6,0,P|154:57|193:130,1,176.000005371094,8|0,2:0|1:0,2:0:0:0:
216,248,186804,2,0,L|128:220,1,88.000002685547,12|0,2:0|2:0,2:0:0:0:
300,216,187101,2,0,L|393:180,1,88.000002685547,12|0,2:0|2:0,2:0:0:0:
288,300,187398,1,8,2:3:0:0:
232,160,187547,1,10,2:0:0:0:
320,188,190071,6,0,L|156:183,1,160,4|10,1:0|2:0,0:0:0:0:
212,88,190517,1,0,0:0:0:0:
280,15,190665,2,0,P|308:83|312:111,1,80,2|0,1:0|1:0,0:0:0:0:
320,188,190962,1,10,2:0:0:0:
175,243,191111,6,0,P|198:166|212:88,1,160,0|0,1:0|1:0,2:0:0:0:
320,188,191557,2,0,P|307:247|299:293,1,80,10|0,2:0|1:0,0:0:0:0:
184,321,191854,2,0,P|178:282|174:242,1,80,2|0,1:0|1:0,0:0:0:0:
72,200,192151,2,0,P|67:239|63:279,1,80,10|0,2:0|1:0,2:0:0:0:
140,112,192448,6,0,P|188:84|316:96,1,160,2|10,1:0|2:0,2:0:0:0:
386,127,192893,1,0,2:0:0:0:
287,199,193042,2,0,L|203:191,1,80,2|0,1:0|1:0,2:0:0:0:
379,136,193339,1,10,2:0:0:0:
348,292,193487,6,0,L|176:300,1,160,0|0,1:0|1:0,2:0:0:0:
340,371,193933,2,0,L|348:287,1,80,10|0,2:0|2:0,0:0:0:0:
236,192,194230,2,0,L|229:271,1,80,2|0,1:0|1:0,2:0:0:0:
112,364,194527,2,0,L|120:280,1,80,10|0,2:0|1:0,2:0:0:0:
246,112,194824,6,0,L|226:292,1,160,6|10,1:2|2:0,2:0:0:0:
320,220,195269,1,0,2:0:0:0:
152,152,195418,2,0,P|147:110|144:59,1,80,2|0,1:0|1:0,0:0:0:0:
228,20,195715,1,10,2:0:0:0:
69,223,195863,6,0,P|140:256|217:241,1,160,0|0,1:0|1:0,2:0:0:0:
325,168,196309,2,0,B|293:137|293:137|235:119,1,80,10|0,2:0|2:0,0:0:0:0:
344,284,196606,2,0,B|381:272|381:272|412:244,1,80,2|0,1:0|1:0,2:0:0:0:
239,226,196903,2,0,B|224:267|224:267|225:320,1,80,10|0,2:0|1:0,2:0:0:0:
325,168,197200,6,0,L|496:160,1,160,2|10,1:0|2:0,2:0:0:0:
428,72,197646,1,0,2:0:0:0:
484,160,197794,2,0,L|476:276,2,80,2|0|10,1:0|1:0|2:0,2:0:0:0:
304,88,198240,6,0,P|311:179|316:260,1,160,0|0,1:0|2:0,2:0:0:0:
320,351,198685,1,10,2:0:0:0:
177,328,198834,2,0,P|188:248|202:152,1,160,0|0,1:0|1:0,0:0:0:0:
280,228,199279,2,0,P|322:224|380:216,1,80,10|0,2:0|1:0,2:0:0:0:
176,244,199576,6,0,P|88:236|40:168,2,160,10|14|8,2:0|2:0|2:0,0:0:0:0:
296,152,200319,1,8,2:3:0:0:
335,171,200393,1,8,2:3:0:0:
358,208,200467,1,8,2:3:0:0:
358,252,200542,1,8,0:3:0:0:
336,290,200616,6,0,P|299:309|258:309,1,80,6|0,1:2|0:0,2:0:0:0:
176,244,200913,1,0,1:0:0:0:
252,160,201061,2,0,L|246:70,1,80,10|0,2:0|0:0,2:0:0:0:
181,41,201284,1,8,2:0:0:0:
181,41,201359,2,0,P|141:48|91:38,2,80,2|0|10,1:0|1:0|2:0,2:0:0:0:
280,8,201804,1,0,1:0:0:0:
356,88,201953,5,6,1:2:0:0:
308,176,202101,2,0,L|316:288,1,80,0|10,0:0|2:0,0:0:0:0:
200,356,202398,2,0,L|205:276,1,80,0|2,2:0|1:0,0:0:0:0:
128,192,202695,1,0,1:0:0:0:
20,208,202844,1,10,2:0:0:0:
205,276,202992,6,0,P|295:284|364:252,1,160,4|0,1:2|1:0,2:0:0:0:
430,199,203438,2,0,P|444:248|449:303,2,80,8|0|0,2:0|2:0|1:0,2:0:0:0:
350,109,203883,1,8,2:0:0:0:
352,76,203958,1,8,2:0:0:0:
354,44,204032,1,0,1:0:0:0:
279,199,204180,1,8,2:0:0:0:
281,232,204255,1,8,2:0:0:0:
284,264,204329,6,0,P|226:296|123:250,1,160,6|10,1:0|2:0,2:0:0:0:
89,172,204774,1,0,2:0:0:0:
171,109,204923,2,0,L|274:114,1,80,2|0,1:0|1:0,2:0:0:0:
89,172,205220,1,10,2:0:0:0:
208,20,205368,6,0,L|376:28,1,160,4|0,1:2|1:0,2:0:0:0:
408,172,205814,1,10,2:0:0:0:
293,104,205962,1,0,2:0:0:0:
214,211,206111,2,0,B|201:251|201:251|210:311,1,80,2|0,1:0|1:0,0:0:0:0:
171,131,206408,2,0,P|134:167|120:205,1,80,10|0,2:0|2:0,2:0:0:0:
296,260,206705,6,0,P|308:222|305:182,2,80,2|0|10,1:0|2:0|2:0,2:0:0:0:
204,344,207151,1,8,2:3:0:0:
172,344,207225,1,8,2:3:0:0:
141,333,207299,1,0,1:0:0:0:
300,368,207448,2,0,L|392:352,2,80,10|0|0,2:0|1:0|1:0,0:0:0:0:
212,264,207893,5,8,2:0:0:0:
308,156,208042,1,0,1:0:0:0:
420,248,208190,1,0,1:0:0:0:
308,156,208339,2,0,B|312:228|312:228|319:246|319:246|328:334,1,160,8|0,2:0|1:0,0:0:0:0:
384,72,208784,1,14,2:0:0:0:
212,264,209081,6,0,P|134:253|84:188,2,160,4|8|0,1:0|2:0|1:0,2:0:0:0:
300,224,209824,2,0,L|396:228,1,80,2|0,1:0|2:0,2:0:0:0:
336,328,210121,1,8,2:0:0:0:
212,264,210269,6,0,P|202:224|209:171,2,80,0|0|10,2:0|1:0|2:0,2:0:0:0:
336,328,210715,1,0,2:0:0:0:
165,346,210863,2,0,P|127:335|84:309,1,80,2|0,1:0|1:0,2:0:0:0:
8,224,211160,2,0,P|42:204|81:193,1,80,10|0,2:0|2:0,2:0:0:0:
244,168,211458,6,0,P|161:147|115:81,2,160,4|8|0,1:0|2:0|1:0,0:0:0:0:
316,112,212200,2,0,L|424:102,1,80,2|0,1:0|2:0,2:0:0:0:
406,267,212497,6,0,P|384:231|370:188,1,80,10|0,2:0|2:0,2:0:0:0:
268,336,212794,2,0,P|269:298|279:255,1,80,0|8,1:0|2:0,0:0:0:0:
160,276,213091,2,0,P|170:237|196:192,1,80,0|2,0:0|1:0,0:0:0:0:
300,116,213388,1,0,1:0:0:0:
189,202,213537,1,8,2:0:0:0:
157,202,213611,1,8,2:0:0:0:
127,191,213685,1,8,2:0:0:0:
100,172,213760,1,8,2:0:0:0:
89,141,213834,6,0,B|101:190|101:190|66:240|86:306,2,160,4|8|0,1:0|2:0|1:0,2:0:0:0:
168,88,214576,2,0,L|172:0,1,80,2|0,1:0|2:0,2:0:0:0:
89,141,214873,1,8,2:0:0:0:
228,156,215022,6,0,L|323:144,2,80,2|0|10,2:0|1:0|2:0,2:0:0:0:
168,88,215467,1,0,2:0:0:0:
104,224,215616,2,0,L|17:213,2,80,2|0|10,1:0|1:0|2:0,2:0:0:0:
196,236,216061,1,0,2:0:0:0:
264,72,216210,6,0,P|306:114|295:217,2,160,4|10|0,1:0|2:0|1:0,2:0:0:0:
168,88,216953,2,0,P|123:97|74:85,1,80,2|8,1:0|2:0,0:0:0:0:
288,32,217250,6,0,L|380:40,1,80,6|0,1:2|2:0,2:0:0:0:
320,152,217547,2,0,L|424:164,1,80,2|8,1:0|2:0,0:0:0:0:
344,272,217844,2,0,L|448:284,1,80,2|8,2:0|2:3,0:0:0:0:
256,340,218141,1,2,1:0:0:0:
219,324,218215,1,0,1:0:0:0:
179,324,218289,1,8,2:0:0:0:
140,334,218363,1,8,2:0:0:0:
102,347,218438,6,0,L|105:388,3,40,8|8|8|8,2:3|2:3|2:3|2:3,0:0:0:0:
18,313,218735,2,2,B|-28:172|80:172|8:28,1,287.999991210938,4|0,2:0|2:0,2:1:0:0:
