osu file format v14

[General]
AudioFilename: audio.mp3
AudioLeadIn: 0
PreviewTime: 76383
Countdown: 0
SampleSet: Soft
StackLeniency: 0.7
Mode: 0
LetterboxInBreaks: 0
WidescreenStoryboard: 1

[Editor]
Bookmarks: 1161,20170,29675,39180,48685,58190,67695,77200,97398,106903,116408,125913,135418,155616,166309,190071,204329,209081
DistanceSpacing: 1
BeatDivisor: 4
GridSize: 32
TimelineZoom: 2.1

[Metadata]
Title:Headphone Actor
TitleUnicode:ヘッドフォンアクター
Artist:JIN feat. LiSA
ArtistUnicode:じん feat. LiSA
Creator:captin1
Version:Amateurre's Hard
Source:メカクシティアクターズ
Tags:vocaloid ia mekakucity actors kagerou project カゲロウプロジェクト amateurre xchippy anime rock japanese
BeatmapID:4507679
BeatmapSetID:217105

[Difficulty]
HPDrainRate:4
CircleSize:3.5
OverallDifficulty:6
ApproachRate:8
SliderMultiplier:1.4
SliderTickRate:1

[Events]
//Background and Video events
0,0,"39277224.jpg",0,0
//Break Periods
2,97398,99024
2,155616,163034
//Storyboard Layer 0 (Background)
//Storyboard Layer 1 (Fail)
//Storyboard Layer 2 (Pass)
//Storyboard Layer 3 (Foreground)
//Storyboard Layer 4 (Overlay)
//Storyboard Sound Samples

[TimingPoints]
1161,297.029702970297,4,2,2,60,1,0
1161,-125,4,2,2,60,0,0
19576,-100,4,2,2,70,0,0
19873,-100,4,2,2,60,0,0
20170,-100,4,2,1,80,0,0
39180,-100,4,2,1,70,0,0
48685,-125,4,2,1,60,0,0
58190,-111.111111111111,4,2,1,70,0,0
73487,-111.111111111111,4,2,1,80,0,0
76458,-111.111111111111,4,2,1,60,0,0
77200,-100,4,2,1,100,0,1
91458,-100,4,2,1,90,0,1
94873,-100,4,2,1,100,0,1
96210,-100,4,2,1,100,0,0
101854,-100,4,2,1,70,0,0
102151,-125,4,2,1,70,0,0
106903,-125,4,2,1,60,0,0
116111,-111.111111111111,4,2,1,60,0,0
116408,-111.111111111111,4,2,1,80,0,0
131705,-111.111111111111,4,2,1,90,0,0
134378,-111.111111111111,4,2,1,60,0,0
134675,-111.111111111111,4,2,1,70,0,0
134972,-111.111111111111,4,2,1,80,0,0
135195,-111.111111111111,4,2,1,90,0,0
135418,-99.9999999999999,4,2,1,100,0,1
149675,-99.9999999999999,4,2,1,80,0,1
153091,-99.9999999999999,4,2,1,100,0,1
154428,-99.9999999999999,4,2,1,100,0,0
163784,-99.9999999999999,4,2,1,90,0,0
164378,-125,4,2,1,70,0,0
165269,-125,4,2,1,50,0,0
165418,-125,4,2,1,60,0,0
165715,-125,4,2,1,70,0,0
166012,-125,4,2,1,80,0,0
166160,-125,4,2,1,90,0,0
166309,-100,4,2,1,100,0,1
180566,-100,4,2,1,90,0,1
187695,-100,4,2,1,90,0,0
189477,-100,4,2,1,70,0,0
189626,-125,4,2,1,70,0,0
189997,-125,4,2,1,5,0,0
190071,-100,4,2,1,90,0,0
209081,-111.111111111111,4,2,1,80,0,0
218735,-111.111111111111,4,2,1,90,0,1
219329,-111.111111111111,4,2,1,5,0,0

[Colours]
Combo1 : 244,123,126
Combo2 : 174,245,139
Combo3 : 84,137,152
Combo4 : 231,221,169
Combo5 : 149,166,164

[HitObjects]
114,26,1161,6,0,P|66:49|-10:44,1,112,2|0,2:0|2:0,2:0:0:0:
34,175,1755,2,0,P|82:152|158:157,1,112,2|0,2:0|2:0,0:0:0:0:
216,111,2200,2,0,L|226:-12,2,112,2|0|2,2:0|2:0|2:0,2:0:0:0:
302,256,3091,1,0,2:0:0:0:
302,256,3240,2,0,P|326:264|356:266,1,56,0|0,2:0|2:0,2:0:0:0:
431,302,3537,6,0,P|443:336|446:375,2,56,2|0|0,2:0|2:0|2:0,0:0:0:0:
494,248,3982,2,0,P|502:181|477:117,1,112,2|0,2:0|2:0,2:0:0:0:
497,44,4428,2,0,P|455:59|427:62,1,56,0|0,2:0|2:0,2:0:0:0:
402,136,4725,1,2,2:0:0:0:
402,136,4873,1,0,2:0:0:0:
286,42,5170,2,0,P|226:30|163:5,1,112,2|0,2:0|2:0,2:0:0:0:
101,51,5616,1,0,2:0:0:0:
196,180,5913,6,0,P|236:170|247:150,2,56,2|0|0,2:0|2:0|2:0,2:0:0:0:
118,144,6359,2,0,P|44:166|27:210,1,112,2|0,2:0|2:0,2:0:0:0:
11,277,6804,2,0,P|62:267|90:258,1,56,0|0,2:0|2:0,2:0:0:0:
125,324,7101,2,0,P|132:361|134:391,2,56,2|0|0,2:0|2:0|2:0,0:0:0:0:
186,268,7547,1,2,2:0:0:0:
112,164,7844,1,0,2:0:0:0:
112,164,7992,1,0,2:0:0:0:
212,66,8289,6,0,L|200:-7,2,56,2|0|0,2:0|2:0|2:0,0:0:0:0:
287,30,8735,2,0,P|332:32|397:70,1,112,2|0,2:0|2:0,2:0:0:0:
487,44,9180,1,0,2:0:0:0:
487,44,9329,2,0,P|482:99|453:147,2,112,2|0|2,2:0|2:0|2:0,2:0:0:0:
371,176,10220,6,0,P|377:201|380:231,2,56,0|0|0,2:0|1:0|2:0,0:0:0:0:
288,150,10665,2,0,P|259:102|254:46,2,112,2|0|2,1:0|2:0|2:0,2:0:0:0:
189,243,11557,2,0,P|138:240|122:233,1,56,0|0,2:0|2:0,2:0:0:0:
69,286,11854,2,0,P|62:309|53:353,2,56,2|0|0,2:0|2:0|2:0,0:0:0:0:
11,227,12299,1,2,2:0:0:0:
11,66,12596,6,0,P|49:70|134:35,1,112,0|0,2:0|2:0,2:0:0:0:
192,79,13042,2,0,P|203:115|207:146,2,56,2|0|0,2:0|2:0|2:0,0:0:0:0:
253,21,13487,1,2,2:0:0:0:
328,162,13784,2,0,P|356:177|388:180,1,56,0|0,2:0|2:0,0:0:0:0:
448,223,14081,2,0,P|476:304|472:349,2,112,0|0|2,2:0|2:0|2:0,0:0:0:0:
498,55,14972,2,0,L|505:-5,2,56,0|0|0,2:0|2:0|2:0,0:0:0:0:
425,101,15418,6,0,P|375:84|317:69,1,112,2|0,2:0|2:0,2:0:0:0:
257,19,15863,1,2,2:0:0:0:
152,119,16161,2,0,P|116:113|95:105,1,56,2|0,2:0|2:0,2:0:0:0:
13,145,16458,2,0,P|7:90|29:39,2,112,2|0|2,2:0|2:0|2:0,2:0:0:0:
60,286,17349,2,0,L|-7:305,2,56,0|0|0,2:0|2:0|2:0,0:0:0:0:
256,192,17794,12,2,19576,2:0:0:0:
256,192,19873,5,0,2:0:0:0:
331,315,20170,2,0,P|263:345|195:326,1,140,6|10,1:2|2:0,2:0:0:0:
114,303,20616,2,0,P|113:348|120:378,2,70,0|2|0,2:0|1:0|1:0,0:0:0:0:
123,212,21061,1,10,2:0:0:0:
33,192,21210,2,0,P|28:96|17:33,1,140,0|0,1:0|1:0,2:0:0:0:
98,2,21656,2,0,P|148:11|177:13,1,70,10|0,2:0|2:0,0:0:0:0:
252,65,21953,1,2,1:2:0:0:
256,70,22101,1,0,1:0:0:0:
344,12,22250,2,0,P|379:8|414:2,1,70,10|0,2:0|1:0,2:0:0:0:
492,63,22547,6,0,P|448:119|453:208,1,140,2|10,1:2|2:0,2:0:0:0:
493,268,22992,2,0,P|487:302|479:336,2,70,0|2|0,2:0|1:0|1:0,2:0:0:0:
444,185,23438,1,10,2:0:0:0:
371,245,23586,2,0,P|304:253|231:258,1,140,0|0,1:0|1:0,2:0:0:0:
166,200,24032,2,0,P|176:149|176:117,1,70,10|0,2:0|2:0,0:0:0:0:
264,116,24329,2,0,P|266:81|274:47,1,70,2|0,1:2|1:0,0:0:0:0:
199,3,24626,2,0,P|165:12|130:15,1,70,10|0,2:0|1:0,2:0:0:0:
50,65,24923,6,0,B|31:117|31:117|48:150|48:150|27:217,1,140,2|10,1:2|2:0,2:0:0:0:
78,272,25368,1,0,2:0:0:0:
14,329,25517,2,0,P|41:353|97:350,1,70,2|0,1:0|1:0,0:0:0:0:
154,318,25814,1,10,2:0:0:0:
229,377,25962,2,0,P|275:349|381:350,1,140,0|0,1:0|1:0,2:0:0:0:
442,375,26408,1,10,2:0:0:0:
442,375,26557,1,0,2:0:0:0:
506,311,26705,2,0,L|493:235,1,70,2|0,1:0|1:0,2:0:0:0:
420,195,27002,1,10,2:0:0:0:
476,115,27151,5,0,1:0:0:0:
476,115,27225,1,0,1:0:0:0:
476,115,27299,2,0,P|417:141|339:131,1,140,2|10,1:0|2:0,2:0:0:0:
294,203,27745,1,0,2:0:0:0:
235,142,27893,2,0,P|243:89|241:47,1,70,2|0,1:0|1:0,0:0:0:0:
194,2,28190,1,10,2:0:0:0:
105,23,28339,6,0,P|84:109|94:163,1,140,0|0,1:0|1:0,2:0:0:0:
117,250,28784,1,10,2:0:0:0:
40,305,28933,2,0,P|24:268|34:224,1,70,0|2,2:0|1:0,2:0:0:0:
92,158,29230,2,0,B|176:149|147:179|244:168,1,140,0|0,1:0|2:0,0:0:0:0:
238,174,29601,1,2,0:0:0:0:
245,180,29675,6,0,P|258:102|272:42,1,140,6|10,1:2|2:0,2:0:0:0:
359,10,30121,1,0,2:0:0:0:
434,61,30269,2,0,P|475:66|523:67,2,70,2|0|10,1:0|1:0|2:0,0:0:0:0:
389,136,30715,2,0,B|363:215|404:194|374:289,1,140,0|0,1:0|1:0,2:0:0:0:
396,377,31161,2,0,P|357:366|318:362,1,70,10|0,2:0|2:0,0:0:0:0:
263,298,31458,1,2,1:0:0:0:
263,298,31606,1,0,1:0:0:0:
186,365,31755,2,0,P|151:369|117:379,1,70,10|0,2:0|1:0,2:0:0:0:
8,384,32052,6,0,P|30:317|33:248,1,140,2|10,1:0|2:0,2:0:0:0:
0,158,32497,1,2,2:0:0:0:
0,158,32571,1,2,0:0:0:0:
0,158,32646,2,0,P|68:151|101:140,1,70,2|0,1:0|1:0,0:0:0:0:
116,235,32943,1,10,2:0:0:0:
205,218,33091,6,0,P|278:206|343:199,1,140,0|0,1:0|1:0,2:0:0:0:
377,116,33537,1,10,2:0:0:0:
291,92,33685,1,0,2:0:0:0:
291,92,33834,2,0,P|264:96|221:97,1,70,2|0,1:0|1:0,2:0:0:0:
146,28,34131,2,0,P|111:28|76:33,1,70,10|0,2:0|1:0,0:0:0:0:
65,41,34354,1,0,1:0:0:0:
59,47,34428,6,0,B|43:102|43:102|52:132|52:132|41:192,1,140,2|10,1:0|2:0,2:0:0:0:
92,259,34873,1,0,2:0:0:0:
68,340,35022,2,0,P|24:358|-10:354,2,70,2|0|10,1:0|1:0|2:0,0:0:0:0:
158,313,35467,2,0,P|215:307|299:365,1,140,0|0,1:0|1:0,2:0:0:0:
362,306,35913,1,10,2:0:0:0:
362,306,36061,1,0,2:0:0:0:
449,330,36210,2,0,P|448:278|439:257,1,70,2|0,1:0|1:0,0:0:0:0:
401,171,36507,1,10,2:0:0:0:
313,211,36656,5,0,1:0:0:0:
313,211,36730,1,0,1:0:0:0:
313,211,36804,2,0,P|234:202|174:192,1,140,2|10,1:0|2:0,2:0:0:0:
92,241,37250,1,0,2:0:0:0:
18,187,37398,2,0,P|8:142|19:113,1,70,2|0,1:0|1:0,2:0:0:0:
19,112,37621,1,0,1:0:0:0:
24,107,37695,1,2,1:0:0:0:
0,19,37844,6,0,P|57:69|142:40,1,140,12|0,2:0|2:0,2:0:0:0:
206,27,38289,1,8,2:3:0:0:
206,27,38438,1,8,2:3:0:0:
271,103,38586,1,8,2:3:0:0:
271,103,38735,1,0,1:0:0:0:
350,53,38883,2,0,P|389:62|419:64,1,70,8|0,2:0|2:0,2:0:0:0:
493,19,39180,6,0,P|511:97|501:158,2,140,4|8|0,1:0|2:0|1:0,2:0:0:0:
414,73,39923,1,2,1:0:0:0:
221,33,40220,2,0,P|181:41|141:46,1,70,8|0,2:0|2:0,0:0:0:0:
66,12,40517,2,0,P|105:40|111:143,1,140,0|0,1:0|2:0,0:0:0:0:
48,186,40962,2,0,P|55:232|59:265,1,70,0|0,1:0|1:0,2:0:0:0:
3,326,41260,2,0,P|65:289|132:313,1,140,8|2,2:0|1:0,2:0:0:0:
309,234,41854,6,0,P|312:191|319:158,1,70,8|0,2:0|0:0,0:0:0:0:
383,112,42151,1,0,1:0:0:0:
432,178,42299,2,0,P|429:221|422:254,1,70,2|0,1:0|2:0,2:0:0:0:
470,320,42596,2,0,P|413:280|331:285,1,140,8|0,2:0|1:0,2:0:0:0:
270,328,43042,2,0,P|235:343|195:337,1,70,8|0,2:0|2:0,0:0:0:0:
116,301,43339,2,0,L|101:374,2,70,0|0|10,1:0|1:0|2:0,0:0:0:0:
137,216,43784,1,0,1:0:0:0:
48,228,43933,5,4,1:0:0:0:
20,92,44230,2,0,P|85:87|178:70,1,140,8|0,2:0|1:0,0:0:0:0:
230,27,44675,1,2,1:0:0:0:
357,105,44972,2,0,P|391:117|445:123,2,70,8|0|0,2:0|2:0|1:0,0:0:0:0:
278,161,45418,1,8,2:0:0:0:
200,205,45566,2,0,P|166:193|112:187,2,70,0|0|0,2:0|1:0|1:0,0:0:0:0:
278,250,46012,2,0,P|287:293|289:321,1,70,8|0,2:0|1:0,2:0:0:0:
231,384,46309,5,2,1:0:0:0:
381,319,46606,2,0,P|423:328|453:346,1,70,8|0,2:0|0:0,0:0:0:0:
452,349,46829,1,0,1:0:0:0:
456,355,46903,1,0,1:0:0:0:
510,285,47052,2,0,P|501:237|497:205,1,70,2|0,1:0|2:0,2:0:0:0:
437,147,47349,6,0,B|453:97|453:97|476:84|476:84|497:11,2,140,8|0|0,2:0|1:0|2:0,2:0:0:0:
356,209,48091,1,8,2:0:0:0:
356,209,48165,1,8,2:0:0:0:
356,209,48240,2,0,L|362:257,2,35,8|8|0,2:0|2:0|1:0,0:0:0:0:
275,162,48537,1,0,0:0:0:0:
210,232,48685,6,0,L|203:301,2,56,4|0|8,1:0|2:0|2:0,2:0:0:0:
132,193,49131,2,0,P|84:195|13:155,1,112,0|0,2:0|1:0,0:0:0:0:
2,88,49576,2,0,P|38:83|70:94,1,56,0|8,0:0|2:0,0:0:0:0:
143,56,49873,2,0,L|150:-12,2,56,0|0|8,0:0|1:0|2:0,0:0:0:0:
203,121,50319,1,0,2:0:0:0:
301,260,50616,2,0,L|294:328,2,56,0|8|0,1:0|2:0|2:0,0:0:0:0:
375,212,51061,6,0,P|412:217|439:209,1,56,2|0,1:0|0:0,2:0:0:0:
496,161,51359,1,8,2:0:0:0:
496,161,51507,2,0,P|488:99|486:49,1,112,0|0,2:0|1:0,0:0:0:0:
419,0,51953,1,0,0:0:0:0:
354,62,52101,2,0,P|362:124|363:173,1,112,8|0,2:0|1:0,2:0:0:0:
300,236,52547,1,8,2:0:0:0:
300,236,52695,1,0,2:0:0:0:
205,108,52992,2,0,P|201:69|198:42,2,56,0|8|0,1:0|2:0|0:0,0:0:0:0:
151,175,53438,6,0,P|106:162|80:164,1,56,2|0,1:0|2:0,2:0:0:0:
16,205,53735,1,8,2:0:0:0:
16,205,53883,2,0,L|25:269,1,56,0|0,2:0|1:0,0:0:0:0:
32,343,54180,1,2,1:0:0:0:
178,308,54477,2,0,B|247:316|210:343|296:346,1,112,8|0,2:0|1:0,2:0:0:0:
363,384,54923,2,0,P|367:348|365:313,1,56,8|0,2:0|2:0,2:0:0:0:
446,285,55220,2,0,P|471:296|498:301,2,56,0|0|8,1:0|1:0|2:0,0:0:0:0:
383,221,55665,5,2,2:0:0:0:
383,221,55740,1,2,0:0:0:0:
383,221,55814,1,2,1:0:0:0:
494,110,56111,2,0,P|491:75|474:39,1,56,8|0,2:0|0:0,2:0:0:0:
418,7,56408,1,0,1:0:0:0:
418,7,56557,1,0,1:0:0:0:
285,83,56854,6,0,P|217:87|174:59,1,112,8|0,2:0|1:0,2:0:0:0:
108,22,57299,1,8,2:0:0:0:
44,75,57448,2,0,P|19:124|26:179,1,112,0|0,2:0|1:0,0:0:0:0:
4,271,57893,2,0,P|47:261|72:256,1,56,8|0,2:0|2:0,2:0:0:0:
128,317,58190,6,0,L|119:393,2,62.9999980773926,4|0|8,1:0|2:0|2:0,0:0:0:0:
163,236,58636,2,0,B|252:248|206:262|298:277,1,126,0|2,2:0|1:0,0:0:0:0:
362,245,59081,1,0,2:0:0:0:
420,302,59230,2,0,P|412:350|412:367,1,63.0000000000001,8|0,2:0|0:0,2:0:0:0:
500,378,59527,2,0,P|508:330|508:313,1,63.0000000000001,0|8,1:0|2:0,0:0:0:0:
479,233,59824,2,0,B|496:165|473:180|493:85,1,126,0|0,2:0|1:0,0:0:0:0:
508,21,60269,2,0,P|467:30|443:31,1,63.0000000000001,8|0,2:0|2:0,2:0:0:0:
385,104,60566,6,0,P|354:96|323:93,1,63.0000000000001,2|0,1:0|2:0,2:0:0:0:
272,22,60863,1,8,2:0:0:0:
193,58,61012,2,0,P|131:66|75:38,1,126,0|2,2:0|1:0,0:0:0:0:
4,95,61458,1,0,2:0:0:0:
37,178,61606,2,0,L|16:312,2,126,8|0|0,2:0|1:0|1:0,2:0:0:0:
179,79,62497,1,0,1:0:0:0:
179,79,62646,2,0,L|266:73,1,63.0000000000001,8|0,2:0|2:0,0:0:0:0:
326,112,62943,6,0,L|337:22,2,63.0000000000001,2|0|8,1:0|2:0|2:0,2:0:0:0:
249,167,63388,2,0,P|229:226|243:290,1,126,0|0,2:0|1:0,0:0:0:0:
238,380,63834,1,0,2:0:0:0:
238,380,63982,2,0,P|266:367|297:366,1,63.0000000000001,8|0,2:0|2:0,2:0:0:0:
328,284,64279,2,0,P|357:294|380:315,1,63.0000000000001,0|8,1:0|2:0,0:0:0:0:
472,336,64576,2,0,P|489:277|481:211,1,126,0|0,2:0|1:0,0:0:0:0:
411,157,65022,2,0,P|378:167|336:168,1,63.0000000000001,8|0,2:0|1:0,0:0:0:0:
280,221,65319,5,2,1:0:0:0:
211,76,65616,1,8,2:0:0:0:
211,76,65764,2,0,P|182:51|88:51,1,126,0|2,2:0|2:0,2:0:0:0:
20,97,66210,1,8,2:0:0:0:
26,185,66359,2,0,P|13:245|6:314,1,126,4|0,1:2|1:0,2:0:0:0:
63,379,66804,2,0,P|98:374|131:360,1,63.0000000000001,8|0,2:0|2:0,0:0:0:0:
131,354,67027,1,2,0:0:0:0:
138,345,67101,1,8,2:3:0:0:
248,354,67250,2,0,L|258:409,4,31.5,0|0|8|8|8,1:0|1:0|2:0|2:0|2:3,0:0:0:0:
307,281,67695,6,0,B|298:198|276:234|273:139,1,126,6|8,1:2|2:0,2:0:0:0:
360,19,68289,2,0,P|391:32|432:34,1,63.0000000000001,0|0,1:0|1:0,2:0:0:0:
497,14,68586,1,8,2:0:0:0:
497,14,68735,2,0,P|512:86|501:139,1,126,2|0,1:0|1:0,2:0:0:0:
455,206,69180,1,8,2:0:0:0:
455,206,69329,1,0,2:0:0:0:
300,114,69626,2,0,P|302:72|306:45,2,63.0000000000001,0|10|0,1:0|2:0|2:0,0:0:0:0:
276,197,70071,6,0,P|208:219|153:212,1,126,2|8,1:0|2:0,2:0:0:0:
82,255,70517,1,0,2:0:0:0:
8,103,70814,1,2,1:0:0:0:
8,103,70962,1,8,2:0:0:0:
75,45,71111,2,0,P|116:30|204:35,1,126,2|0,1:0|2:0,2:0:0:0:
267,82,71557,1,8,2:0:0:0:
332,24,71705,2,0,P|367:10|408:17,1,63.0000000000001,0|0,2:0|1:0,0:0:0:0:
479,60,72002,2,0,L|497:-7,2,63.0000000000001,0|8|0,1:0|2:0|2:0,0:0:0:0:
406,113,72448,5,2,1:0:0:0:
508,230,72745,1,8,2:0:0:0:
508,230,72893,2,0,B|430:238|472:253|380:267,1,126,0|2,2:0|1:0,2:0:0:0:
321,328,73339,1,8,2:0:0:0:
251,265,73487,2,0,P|239:187|212:131,1,126,2|0,1:0|1:0,2:0:0:0:
161,82,73933,1,8,2:0:0:0:
225,22,74081,2,0,P|276:31|315:34,1,63.0000000000001,2|0,2:0|1:0,2:0:0:0:
374,15,74378,2,0,P|369:46|363:77,1,63.0000000000001,2|8,1:0|2:0,2:0:0:0:
340,173,74675,6,0,P|397:180|464:194,1,126,4|0,1:2|1:0,2:0:0:0:
496,287,75121,1,8,2:0:0:0:
410,318,75269,1,0,1:0:0:0:
410,318,75344,1,0,1:0:0:0:
410,318,75418,2,0,P|376:311|347:307,1,63.0000000000001,8|8,2:0|2:3,0:0:0:0:
266,270,75715,1,8,2:3:0:0:
216,339,75863,1,10,2:0:0:0:
290,97,76458,6,0,P|244:100|219:104,2,63.0000000000001,2|2|2,2:0|2:0|2:0,0:0:0:0:
268,188,76903,2,0,P|265:234|261:259,1,63.0000000000001,2|2,2:0|2:0,0:0:0:0:
295,340,77200,6,0,P|362:369|416:358,1,105,6|0,1:0|2:0,2:0:0:0:
411,369,77497,2,0,P|423:328|435:293,1,70,10|0,2:0|2:0,2:0:0:0:
505,237,77794,1,2,1:0:0:0:
441,173,77943,2,0,P|406:179|371:181,1,70,0|10,1:0|2:0,2:0:0:0:
296,253,78240,6,0,P|249:237|207:232,1,70,0|0,1:0|0:0,2:0:0:0:
160,302,78537,2,0,P|116:313|37:249,1,140,0|0,1:0|2:0,0:0:0:0:
69,177,78982,1,2,1:0:0:0:
21,98,79131,1,0,1:0:0:0:
73,29,79279,2,0,P|127:22|157:15,1,70,10|0,2:0|1:0,2:0:0:0:
210,78,79576,6,0,B|313:58|270:96|359:76,1,140,2|10,1:0|2:0,2:0:0:0:
426,30,80022,1,0,2:0:0:0:
485,105,80170,2,0,P|474:149|470:187,1,70,2|0,1:0|1:0,0:0:0:0:
428,247,80467,1,10,2:0:0:0:
360,195,80616,2,0,P|322:203|286:204,1,70,0|0,1:0|0:0,2:0:0:0:
275,291,80913,2,0,P|204:295|111:311,1,140,0|0,1:0|2:0,0:0:0:0:
55,357,81359,2,0,P|45:318|49:279,1,70,2|0,1:0|1:0,0:0:0:0:
103,217,81656,2,0,P|104:182|94:148,1,70,10|0,2:0|1:0,0:0:0:0:
28,98,81953,5,6,1:2:0:0:
162,27,82250,1,10,2:0:0:0:
162,27,82398,1,0,2:0:0:0:
215,89,82547,2,0,P|261:101|313:92,1,70,2|0,1:0|1:0,0:0:0:0:
362,57,82844,1,10,2:0:0:0:
429,123,82992,2,0,P|414:185|411:205,1,70,0|2,1:0|2:0,2:0:0:0:
336,241,83289,2,0,P|399:235|460:284,1,140,0|0,1:0|2:0,0:0:0:0:
512,360,83735,2,0,P|476:364|443:372,1,70,2|0,2:0|1:0,0:0:0:0:
368,321,84032,1,10,2:0:0:0:
295,369,84180,6,2,B|213:355|243:385|146:371,1,140,4|0,1:2|1:0,2:0:0:0:
116,303,84626,1,10,2:0:0:0:
151,220,84774,1,0,2:0:0:0:
103,153,84923,2,0,P|60:163|22:164,1,70,2|8,1:0|2:0,2:0:0:0:
0,243,85220,1,2,1:0:0:0:
47,314,85368,6,0,P|90:304|128:303,1,70,8|0,2:0|0:0,2:0:0:0:
162,227,85665,2,0,P|196:224|230:215,1,70,8|10,2:0|2:0,0:0:0:0:
321,192,85962,1,0,1:0:0:0:
321,192,86037,1,0,1:0:0:0:
321,192,86111,2,0,P|317:223|314:263,1,70,8|8,2:0|2:3,0:0:0:0:
349,346,86408,1,8,2:3:0:0:
434,374,86557,1,8,2:0:0:0:
511,331,86705,6,0,P|516:272|490:211,1,105,4|0,1:0|2:0,2:0:0:0:
489,213,87002,2,0,P|491:175|494:143,1,70,10|0,2:0|2:0,2:0:0:0:
481,57,87299,1,2,1:0:0:0:
396,77,87448,2,0,P|358:75|326:71,1,70,0|10,1:0|2:0,2:0:0:0:
268,149,87745,6,0,P|227:165|181:164,1,70,0|0,1:0|0:0,2:0:0:0:
127,114,88042,2,0,P|129:49|77:-9,1,140,0|0,1:0|2:0,0:0:0:0:
10,40,88487,2,0,P|7:75|-1:114,1,70,2|0,1:0|1:0,0:0:0:0:
55,179,88784,2,0,P|47:213|44:248,1,70,10|0,2:0|1:0,0:0:0:0:
2,336,89081,6,0,B|88:325|61:354|145:341,1,140,6|10,1:0|2:0,2:0:0:0:
224,384,89527,1,0,2:0:0:0:
274,317,89675,2,0,P|265:259|261:232,1,70,2|0,1:0|1:0,0:0:0:0:
212,170,89972,1,10,2:0:0:0:
132,196,90121,2,2,P|119:139|148:54,1,140,4|8,1:2|2:3,2:0:0:0:
216,2,90566,1,8,2:3:0:0:
286,74,90715,1,8,2:3:0:0:
286,74,90789,1,8,0:3:0:0:
286,74,90863,2,0,P|333:93|361:94,1,70,8|0,2:3|1:0,2:0:0:0:
437,56,91161,1,8,2:0:0:0:
437,56,91309,1,0,2:0:0:0:
492,121,91458,5,4,1:2:0:0:
466,204,91606,2,0,P|479:258|458:353,2,140,2|0|2,2:0|2:0|1:0,2:0:0:0:
310,264,92497,2,0,P|245:289|175:287,1,140,8|0,2:0|1:0,2:0:0:0:
148,204,92943,2,0,P|156:170|162:135,1,70,8|0,2:0|2:0,2:0:0:0:
111,58,93240,1,0,1:0:0:0:
111,58,93388,1,0,1:0:0:0:
25,100,93537,2,0,P|16:133|10:168,1,70,8|0,2:0|2:0,2:0:0:0:
67,242,93834,5,2,1:0:0:0:
71,247,93982,1,0,2:0:0:0:
0,384,94279,1,0,2:0:0:0:
147,328,94576,2,0,P|176:346|210:350,1,70,2|8,1:0|2:0,0:0:0:0:
294,384,94873,1,4,1:0:0:0:
256,192,95170,12,8,96210,2:0:0:0:
256,192,99774,12,8,101854,2:0:0:0:
339,81,102151,6,0,P|344:52|345:25,2,56,2|0|8,1:0|1:0|2:0,0:0:0:0:
265,140,102596,2,0,L|259:176,2,28,8|8|8,2:3|2:3|2:3,0:0:0:0:
201,72,102893,1,0,1:0:0:0:
73,191,103190,2,0,P|33:196|2:194,2,56,0|0|0,2:0|1:0|1:0,0:0:0:0:
141,253,103636,2,0,P|181:248|212:250,1,56,8|8,2:0|2:3,0:0:0:0:
215,253,103859,1,8,2:3:0:0:
230,264,103933,2,0,P|235:304|233:335,2,56,8|0|8,2:3|1:0|2:0,0:0:0:0:
315,143,104527,5,0,1:0:0:0:
408,256,104824,2,0,P|451:252|482:244,1,56,8|8,2:0|2:3,0:0:0:0:
472,245,105047,1,8,2:3:0:0:
482,239,105121,1,8,2:3:0:0:
508,162,105269,2,0,P|504:134|501:106,1,56,0|8,1:0|2:0,0:0:0:0:
422,51,105566,2,0,P|475:56|512:16,2,112,0|0|0,2:0|1:0|2:0,0:0:0:0:
344,104,106309,1,8,2:0:0:0:
344,104,106383,1,8,2:0:0:0:
344,104,106458,2,0,L|333:147,2,28,8|8|8,2:0|2:0|2:0,0:0:0:0:
212,27,106903,5,4,2:0:0:0:
213,174,107200,1,0,1:0:0:0:
213,174,107349,2,0,P|228:227|237:282,1,112,2|0,2:0|2:0,2:0:0:0:
67,322,107943,2,0,P|51:268|42:213,2,112,2|0|2,2:0|2:0|2:0,2:0:0:0:
229,372,108834,2,0,P|260:363|283:359,2,56,0|0|0,2:0|1:0|2:0,0:0:0:0:
162,324,109279,6,0,P|148:353|142:383,2,56,2|0|0,2:0|2:0|1:0,0:0:0:0:
145,239,109725,2,0,P|141:167|128:104,1,112,2|0,2:0|2:0,2:0:0:0:
179,57,110170,1,0,1:0:0:0:
179,57,110319,2,0,P|125:73|70:77,2,112,2|0|2,2:0|2:0|2:0,2:0:0:0:
289,151,111210,2,0,P|281:177|275:205,2,56,0|2|2,2:0|1:0|2:0,0:0:0:0:
372,110,111656,6,0,P|379:83|385:55,2,56,6|0|0,2:0|2:0|1:0,0:0:0:0:
428,176,112101,1,2,2:0:0:0:
282,139,112398,2,0,P|253:146|218:149,1,56,0|0,2:0|1:0,0:0:0:0:
183,221,112695,2,0,P|177:156|135:119,1,112,2|0,2:0|2:0,2:0:0:0:
62,124,113141,2,0,P|31:151|24:170,1,56,0|2,1:0|2:0,2:0:0:0:
49,255,113438,6,0,L|28:358,2,84,8|8|8,2:0|2:0|2:0,2:0:0:0:
145,221,114032,2,0,L|166:118,2,84,8|8|8,2:0|2:0|2:0,2:0:0:0:
204,298,114626,2,0,P|236:309|261:314,1,56,8|8,2:0|2:3,0:0:0:0:
267,312,114849,1,8,2:3:0:0:
276,309,114923,1,0,1:0:0:0:
342,373,115071,1,10,2:0:0:0:
504,33,115962,5,0,0:0:0:0:
504,33,116111,2,0,P|472:27|442:21,1,63.0000000000001,8|0,2:0|0:0,0:0:0:0:
372,81,116408,6,0,L|383:150,2,63.0000000000001,4|0|8,1:0|2:0|2:0,0:0:0:0:
293,34,116854,2,0,B|219:20|248:52|153:34,1,126,0|2,2:0|1:0,0:0:0:0:
81,8,117299,2,0,P|80:51|88:80,1,63.0000000000001,0|8,2:0|2:0,0:0:0:0:
60,159,117596,2,0,P|16:172|-13:171,2,63.0000000000001,0|0|8,2:0|1:0|2:0,0:0:0:0:
142,203,118042,2,0,B|225:192|186:221|274:216,1,126,0|0,2:0|1:0,0:0:0:0:
358,187,118487,1,8,2:0:0:0:
358,187,118636,1,0,1:0:0:0:
403,261,118784,6,0,P|395:293|391:323,1,63.0000000000001,0|0,1:0|2:0,2:0:0:0:
324,380,119081,1,8,2:0:0:0:
239,352,119230,2,0,P|176:356|119:331,1,126,0|2,2:0|1:0,2:0:0:0:
34,364,119675,1,0,2:0:0:0:
3,287,119824,2,0,P|15:244|19:216,1,63.0000000000001,8|0,2:0|0:0,2:0:0:0:
93,173,120121,2,0,P|98:142|107:111,1,63.0000000000001,0|8,1:0|2:0,0:0:0:0:
44,52,120418,2,0,P|101:58|183:19,1,126,0|0,2:0|1:0,0:0:0:0:
238,84,120863,2,0,P|240:122|239:166,1,63.0000000000001,8|0,2:0|0:0,2:0:0:0:
180,220,121161,6,0,P|148:218|117:225,2,63.0000000000001,0|0|8,1:0|2:0|2:0,0:0:0:0:
251,287,121606,2,0,B|335:278|298:304|393:295,1,126,0|2,0:0|1:0,0:0:0:0:
511,184,122200,2,0,P|477:181|450:171,1,63.0000000000001,8|0,2:0|0:0,2:0:0:0:
365,209,122497,2,0,P|343:182|331:156,1,63.0000000000001,0|8,1:0|2:0,0:0:0:0:
247,127,122794,2,0,P|251:52|288:2,1,126,0|0,2:0|1:0,0:0:0:0:
362,4,123240,2,0,P|389:11|423:15,1,63.0000000000001,8|0,2:0|1:0,2:0:0:0:
489,96,123537,6,0,L|507:177,2,63.0000000000001,0|0|8,1:0|1:0|2:0,0:0:0:0:
429,33,123982,1,0,2:0:0:0:
391,111,124131,1,8,2:3:0:0:
391,111,124205,1,8,2:3:0:0:
391,111,124279,2,0,L|383:158,2,31.5,8|8|8,2:3|2:3|2:3,0:0:0:0:
296,85,124576,6,0,P|252:113|157:102,1,126,4|0,1:2|1:0,2:0:0:0:
118,51,125022,2,0,P|101:77|91:107,1,63.0000000000001,8|0,2:0|2:0,2:0:0:0:
88,119,125245,1,8,2:0:0:0:
88,131,125319,2,0,L|91:186,4,31.5,8|8|8|8|8,2:0|2:0|2:0|2:0|2:3,0:0:0:0:
17,211,125764,5,8,2:3:0:0:
17,211,125839,1,8,2:3:0:0:
17,211,125913,2,0,P|0:270|20:328,1,126,4|8,1:0|2:0,2:0:0:0:
100,374,126359,1,0,2:0:0:0:
154,303,126507,2,0,L|146:232,2,63.0000000000001,0|2|8,1:0|1:0|2:0,0:0:0:0:
235,343,126953,2,0,B|313:351|267:376|378:377,1,126,2|0,1:0|1:0,2:0:0:0:
438,355,127398,1,8,2:0:0:0:
438,355,127547,1,2,2:0:0:0:
383,227,127844,2,0,L|393:155,2,63.0000000000001,0|8|0,1:0|2:0|1:0,0:0:0:0:
460,268,128289,6,0,B|495:212|495:212|470:140,1,126,2|8,1:0|2:0,2:0:0:0:
486,59,128735,2,0,P|442:75|410:75,1,63.0000000000001,2|0,2:0|0:0,2:0:0:0:
343,70,129032,2,0,P|311:65|283:52,1,63.0000000000001,2|8,1:0|2:0,0:0:0:0:
202,21,129329,2,0,P|150:57|84:60,1,126,2|2,1:0|1:0,2:0:0:0:
12,39,129774,1,8,2:0:0:0:
12,39,129923,1,2,2:0:0:0:
126,146,130220,2,0,P|143:175|145:205,2,63.0000000000001,10|0|10,2:0|1:0|2:0,0:0:0:0:
62,201,130665,6,0,P|54:260|45:325,1,126,0|8,1:0|2:0,2:0:0:0:
111,378,131111,2,0,P|142:373|173:369,1,63.0000000000001,2|0,2:0|1:0,0:0:0:0:
256,384,131408,1,2,1:0:0:0:
191,258,131705,2,0,B|207:179|188:203|209:122,1,126,4|0,2:0|1:0,2:0:0:0:
277,79,132151,1,8,2:0:0:0:
323,154,132299,2,0,B|307:233|326:209|305:290,1,126,0|0,2:0|1:0,2:0:0:0:
242,332,132745,1,8,2:0:0:0:
179,268,132893,6,0,P|120:294|50:289,1,126,2|8,1:0|2:0,2:0:0:0:
12,215,133339,2,0,P|17:175|25:147,1,63.0000000000001,0|0,1:0|1:0,0:0:0:0:
31,147,133561,1,0,1:0:0:0:
41,143,133636,2,0,P|81:133|103:123,1,63.0000000000001,8|8,2:0|2:3,0:0:0:0:
183,150,133933,1,0,1:0:0:0:
140,228,134081,1,10,2:0:0:0:
247,363,134378,5,8,2:0:0:0:
247,363,134453,1,8,2:0:0:0:
247,363,134527,2,0,P|301:358|323:353,1,63.0000000000001,8|8,2:0|2:0,0:0:0:0:
403,372,134824,2,0,L|409:326,3,31.5,8|8|8|8,2:0|2:0|2:0|2:0,0:0:0:0:
396,311,135121,2,0,L|402:265,3,31.5,8|8|8|8,2:0|2:0|2:0|2:0,0:0:0:0:
435,261,135418,6,0,P|462:230|456:144,1,105,4|0,1:0|2:0,2:0:0:0:
459,141,135715,2,0,P|432:117|398:109,1,70.0000000000001,10|0,2:0|2:0,2:0:0:0:
326,155,136012,1,2,1:0:0:0:
266,81,136161,2,0,P|271:46|273:11,1,70.0000000000001,0|10,1:0|2:0,2:0:0:0:
186,2,136458,2,0,P|180:36|178:71,1,70.0000000000001,0|0,1:0|0:0,2:0:0:0:
128,142,136755,2,0,P|84:131|5:195,1,140,0|0,1:0|2:0,0:0:0:0:
49,258,137200,1,2,1:0:0:0:
1,326,137349,1,0,1:0:0:0:
68,379,137497,2,0,P|122:372|152:365,1,70.0000000000001,10|0,2:0|1:0,2:0:0:0:
227,384,137794,6,0,B|207:281|245:324|225:235,1,140,2|10,1:0|2:0,2:0:0:0:
283,174,138240,1,0,2:0:0:0:
222,106,138388,2,0,P|227:71|236:37,1,70.0000000000001,2|0,1:0|1:0,0:0:0:0:
321,0,138685,1,10,2:0:0:0:
379,66,138834,2,0,P|373:100|364:134,1,70.0000000000001,0|0,1:0|0:0,2:0:0:0:
424,203,139131,2,0,P|484:221|513:287,1,140,0|0,1:0|2:0,0:0:0:0:
466,362,139576,2,0,P|431:360|397:370,1,70.0000000000001,2|0,1:0|1:0,0:0:0:0:
325,327,139873,2,0,P|291:336|256:335,1,70.0000000000001,10|0,2:0|1:0,0:0:0:0:
190,384,140170,5,6,1:2:0:0:
37,337,140467,1,10,2:0:0:0:
37,337,140616,1,0,2:0:0:0:
125,322,140764,2,0,P|137:276|128:224,1,70.0000000000001,2|0,1:0|1:0,0:0:0:0:
71,193,141061,1,10,2:0:0:0:
136,132,141210,2,0,P|198:147|218:150,1,70.0000000000001,0|2,1:0|2:0,2:0:0:0:
278,208,141507,2,0,P|341:214|402:165,1,140,0|0,1:0|0:0,0:0:0:0:
489,174,141953,2,0,P|493:138|501:105,1,70.0000000000001,2|0,1:0|1:0,0:0:0:0:
456,23,142250,1,10,2:0:0:0:
368,57,142398,6,2,B|286:43|316:73|219:59,1,140,12|0,1:2|1:0,2:0:0:0:
155,11,142844,2,0,P|146:44|143:79,1,70.0000000000001,10|0,2:0|2:0,2:0:0:0:
88,151,143141,1,2,1:0:0:0:
171,166,143289,1,8,2:0:0:0:
257,177,143438,1,2,1:0:0:0:
345,188,143586,6,0,P|355:231|356:269,1,70.0000000000001,12|0,1:2|0:0,2:0:0:0:
339,350,143883,2,0,P|373:347|407:338,1,70.0000000000001,8|2,2:0|1:0,2:0:0:0:
498,377,144180,1,0,1:0:0:0:
498,377,144255,1,0,1:0:0:0:
498,377,144329,2,0,P|506:343|509:308,1,70.0000000000001,8|8,2:0|2:3,0:0:0:0:
446,246,144626,1,8,2:3:0:0:
407,337,144774,1,8,2:0:0:0:
317,313,144923,6,0,P|258:308|197:334,1,105,4|0,1:0|2:0,2:0:0:0:
207,332,145220,2,0,P|166:336|137:327,1,70.0000000000001,10|0,2:0|2:0,2:0:0:0:
66,371,145517,1,2,1:0:0:0:
2,314,145665,2,0,P|6:279|7:244,1,70.0000000000001,0|10,1:0|2:0,2:0:0:0:
0,148,145962,6,0,P|31:161|66:165,1,70.0000000000001,0|0,1:0|0:0,2:0:0:0:
137,223,146260,2,0,P|188:178|257:178,1,140,0|0,1:0|2:0,0:0:0:0:
266,185,146631,1,8,2:0:0:0:
272,193,146705,2,0,P|275:228|283:267,1,70.0000000000001,2|0,1:0|1:0,0:0:0:0:
229,340,147002,2,0,P|263:348|298:351,1,70.0000000000001,10|0,2:0|1:0,2:0:0:0:
391,313,147299,6,0,P|445:320|479:241,1,140,2|10,1:0|2:0,2:0:0:0:
426,184,147745,1,0,2:0:0:0:
486,124,147893,2,0,P|477:66|473:39,1,70.0000000000001,2|8,1:0|2:0,0:0:0:0:
399,0,148190,1,2,1:0:0:0:
324,62,148339,2,2,P|276:74|172:73,1,140,12|8,1:2|2:3,2:0:0:0:
145,0,148784,1,8,2:3:0:0:
175,83,148933,1,8,2:3:0:0:
88,117,149081,2,0,P|72:148|67:182,1,70.0000000000001,8|2,2:3|2:0,0:0:0:0:
111,261,149378,1,12,2:0:0:0:
111,261,149527,1,0,2:0:0:0:
73,339,149675,5,4,1:0:0:0:
150,379,149824,2,0,P|204:366|299:387,2,140,0|0|2,2:0|2:0|1:0,2:0:0:0:
0,280,150715,2,0,P|69:281|134:256,1,140,8|0,2:0|1:0,2:0:0:0:
218,292,151161,2,0,P|226:258|232:223,1,70.0000000000001,8|0,2:0|2:0,2:0:0:0:
172,158,151458,1,0,1:0:0:0:
172,158,151606,1,0,1:0:0:0:
80,166,151755,2,0,P|85:131|95:97,1,70.0000000000001,8|0,2:0|1:0,2:0:0:0:
45,21,152052,5,6,1:2:0:0:
49,26,152200,1,0,2:0:0:0:
189,72,152497,1,0,2:0:0:0:
323,0,152794,2,0,P|352:18|386:22,1,70.0000000000001,10|0,2:0|1:0,0:0:0:0:
421,100,153091,1,6,1:2:0:0:
256,192,153388,12,8,154428,2:0:0:0:
182,207,163784,5,2,1:0:0:0:
330,177,164081,1,2,1:0:0:0:
182,207,164378,5,0,1:0:0:0:
260,258,164527,2,0,P|256:288|252:313,1,56,8|8,2:0|2:3,0:0:0:0:
251,325,164750,1,8,2:3:0:0:
249,334,164824,1,8,2:3:0:0:
160,295,164972,2,0,P|90:319|38:321,1,112,8|8,2:0|2:0,2:0:0:0:
44,316,165344,1,8,2:0:0:0:
36,310,165418,2,0,P|28:266|22:237,1,56,8|8,2:0|2:0,0:0:0:0:
31,170,165715,2,0,L|81:162,3,28,8|8|8|8,2:0|2:0|2:0|2:0,2:0:0:0:
83,173,166012,2,0,L|133:165,3,28,8|8|8|8,2:0|2:0|2:0|2:0,2:0:0:0:
138,177,166309,6,0,P|169:204|255:198,1,105,0|0,1:0|2:0,2:0:0:0:
258,202,166606,2,0,P|260:167|264:132,1,70,10|0,2:0|2:0,2:0:0:0:
214,59,166903,1,2,1:0:0:0:
287,13,167052,2,0,P|321:19|356:21,1,70,0|10,1:0|2:0,2:0:0:0:
449,0,167349,2,0,P|443:34|441:69,1,70,0|0,1:0|0:0,2:0:0:0:
512,112,167646,2,0,P|468:101|389:165,1,140,0|0,1:0|2:0,0:0:0:0:
395,161,168017,1,8,2:0:0:0:
396,171,168091,1,2,1:0:0:0:
455,240,168240,1,0,1:0:0:0:
399,307,168388,2,0,P|364:313|329:317,1,70,10|0,2:0|1:0,2:0:0:0:
256,269,168685,6,0,B|153:249|201:287|107:267,1,140,2|10,1:0|2:0,2:0:0:0:
34,294,169131,1,0,2:0:0:0:
0,213,169279,2,0,P|5:178|14:144,1,70,2|0,1:0|1:0,0:0:0:0:
83,86,169576,1,10,2:0:0:0:
54,0,169725,2,0,P|97:52|164:53,1,140,0|0,1:0|1:0,2:0:0:0:
234,108,170170,2,0,P|225:141|218:176,1,70,10|0,2:0|2:0,2:0:0:0:
282,243,170467,1,2,1:0:0:0:
361,219,170616,1,0,1:0:0:0:
438,276,170764,2,0,P|446:242|453:207,1,70,10|0,2:0|1:0,0:0:0:0:
402,138,171061,5,6,1:2:0:0:
512,8,171359,1,10,2:0:0:0:
434,46,171507,1,0,2:0:0:0:
353,11,171656,2,0,P|307:-1|255:8,1,70,2|0,1:0|1:0,0:0:0:0:
212,60,171953,1,10,2:0:0:0:
140,8,172101,6,0,P|125:70|122:90,1,70,0|2,1:0|2:0,2:0:0:0:
57,133,172398,2,0,P|14:186|18:254,1,140,0|0,1:0|1:0,0:0:0:0:
1,350,172844,1,2,1:0:0:0:
1,350,172918,1,0,1:0:0:0:
1,350,172992,2,0,P|35:340|70:339,1,70,2|8,1:0|2:0,2:0:0:0:
145,269,173289,6,2,B|227:255|197:285|294:271,1,140,4|0,1:2|1:0,1:0:0:0:
364,217,173735,2,0,P|373:250|376:285,1,70,10|0,2:0|2:0,2:0:0:0:
470,271,174032,2,0,P|461:238|458:203,1,70,10|0,2:0|1:0,0:0:0:0:
399,133,174329,1,10,2:0:0:0:
312,141,174477,6,0,P|269:131|231:130,1,70,12|2,1:0|1:0,2:0:0:0:
182,194,174774,2,0,P|148:203|114:206,1,70,8|2,2:0|1:0,2:0:0:0:
15,232,175071,1,0,1:0:0:0:
15,232,175146,1,0,1:0:0:0:
15,232,175220,2,0,P|23:198|26:163,1,70,8|8,2:0|2:3,0:0:0:0:
3,75,175517,1,8,2:3:0:0:
95,93,175665,1,8,2:0:0:0:
149,19,175814,6,0,P|200:13|250:28,1,105,4|0,1:0|2:0,2:0:0:0:
264,39,176111,1,10,2:0:0:0:
349,17,176260,1,0,2:0:0:0:
384,94,176408,2,0,P|367:149|364:170,1,70,2|0,1:0|1:0,0:0:0:0:
433,219,176705,1,10,2:0:0:0:
386,296,176854,6,0,P|351:299|319:312,1,70,0|0,1:0|0:0,2:0:0:0:
229,278,177151,2,0,P|178:323|109:323,1,140,0|2,1:0|2:0,0:0:0:0:
100,316,177522,1,8,2:0:0:0:
94,308,177596,2,0,P|91:273|83:234,1,70,2|0,1:0|1:0,2:0:0:0:
15,170,177893,1,10,2:0:0:0:
15,170,178042,1,0,1:0:0:0:
76,102,178190,6,0,B|167:95|128:122|225:110,1,140,6|10,1:2|2:0,2:0:0:0:
275,188,178636,1,0,2:0:0:0:
205,241,178784,2,0,P|196:299|192:326,1,70,2|8,1:0|2:0,0:0:0:0:
256,379,179081,1,2,1:0:0:0:
341,337,179230,2,2,P|411:338|480:323,1,140,12|8,2:0|2:3,2:1:0:0:
512,249,179675,1,2,2:0:0:0:
460,183,179824,1,8,2:3:0:0:
512,119,179972,2,0,P|506:84|491:53,1,70,8|0,2:3|1:0,0:0:0:0:
414,8,180269,1,8,2:0:0:0:
414,8,180418,1,0,2:0:0:0:
342,72,180566,5,4,1:0:0:0:
266,27,180715,2,0,P|198:12|129:25,2,140,0|0|2,2:0|2:0|1:0,2:0:0:0:
265,198,181606,2,0,P|196:211|128:196,1,140,8|0,2:0|1:0,2:0:0:0:
42,149,182052,2,0,P|34:183|28:218,1,70,8|0,2:0|2:0,2:0:0:0:
90,283,182349,1,0,1:0:0:0:
90,283,182497,1,0,1:0:0:0:
38,357,182646,2,0,P|72:361|106:371,1,70,8|0,2:0|2:0,2:0:0:0:
187,379,182943,5,2,1:0:0:0:
191,384,183091,1,0,2:0:0:0:
282,258,183388,2,0,P|277:224|271:183,1,70,0|0,2:0|1:0,0:0:0:0:
183,161,183685,2,0,P|177:126|172:91,1,70,2|0,1:0|2:0,2:0:0:0:
236,33,183982,2,0,P|300:31|376:-7,1,140,8|0,2:0|1:0,2:0:0:0:
454,8,184428,2,0,P|444:50|436:95,1,70,8|0,2:0|2:0,0:0:0:0:
489,150,184725,1,0,1:0:0:0:
489,150,184873,1,0,1:0:0:0:
416,204,185022,2,0,P|381:185|342:179,1,70,8|0,2:0|2:0,2:0:0:0:
274,220,185319,5,2,1:0:0:0:
189,93,185616,1,8,2:0:0:0:
189,93,185764,2,0,P|201:49|203:18,1,70,0|0,2:0|1:0,2:0:0:0:
118,8,186061,2,0,P|106:52|104:83,1,70,2|0,1:0|2:0,2:0:0:0:
133,161,186359,2,0,P|58:203|50:252,1,140,8|0,2:0|1:0,2:0:0:0:
21,341,186804,2,0,P|63:333|104:325,1,70,12|0,2:0|2:0,2:0:0:0:
182,344,187101,2,0,P|175:310|169:276,1,70,12|0,2:0|2:0,2:0:0:0:
172,265,187324,1,8,2:3:0:0:
173,255,187398,2,0,P|229:244|249:240,1,70,8|10,2:3|2:0,0:0:0:0:
329,228,187695,1,0,0:0:0:0:
512,96,189477,5,2,2:0:0:0:
512,96,189552,1,2,2:0:0:0:
512,96,189626,2,0,B|424:77|458:113|348:92,1,140,2|0,2:0|2:0,2:0:0:0:
359,101,190071,6,0,P|344:138|343:249,1,140,4|10,1:0|2:0,0:0:0:0:
393,315,190517,1,0,0:0:0:0:
393,315,190591,1,8,2:0:0:0:
393,315,190665,2,0,P|345:324|314:327,1,70,2|0,1:0|1:0,0:0:0:0:
253,377,190962,1,10,2:0:0:0:
186,323,191111,6,0,B|106:308|149:346|37:324,1,140,0|0,1:0|1:0,2:0:0:0:
30,246,191557,2,0,P|36:211|36:176,1,70,10|0,2:0|1:0,0:0:0:0:
32,164,191779,1,8,2:0:0:0:
29,155,191854,2,0,P|76:165|107:164,1,70,2|0,1:0|1:0,0:0:0:0:
167,221,192151,2,0,P|201:222|235:230,1,70,10|0,2:0|1:0,2:0:0:0:
307,174,192448,6,0,B|281:108|281:108|301:41,1,140,2|10,1:0|2:0,2:0:0:0:
379,2,192893,1,0,2:0:0:0:
451,53,193042,2,0,P|488:51|530:45,2,70,2|0|10,1:0|1:0|2:0,2:0:0:0:
389,119,193487,2,0,B|403:169|403:169|430:184|430:184|450:251,1,140,0|0,1:0|1:0,2:0:0:0:
503,315,193933,2,0,P|473:331|421:328,1,70,10|0,2:0|2:0,0:0:0:0:
429,329,194156,1,0,0:0:0:0:
422,326,194230,2,0,P|385:332|352:336,1,70,2|0,1:0|1:0,2:0:0:0:
274,384,194527,2,0,P|269:349|263:314,1,70,10|0,2:0|1:0,2:0:0:0:
314,233,194824,6,0,P|258:266|176:258,1,140,6|10,1:2|2:0,2:0:0:0:
111,205,195269,1,0,2:0:0:0:
111,205,195344,1,8,2:0:0:0:
111,205,195418,2,0,P|94:245|91:282,2,70,2|0|10,1:0|1:0|2:0,0:0:0:0:
196,174,195863,2,0,P|200:110|163:16,1,140,0|0,1:0|1:0,2:0:0:0:
100,8,196309,2,0,P|62:18|23:22,1,70,10|0,2:0|2:0,0:0:0:0:
26,28,196532,1,0,0:0:0:0:
20,34,196606,2,0,P|17:82|14:112,1,70,2|0,1:0|1:0,2:0:0:0:
72,171,196903,2,0,P|68:205|66:240,1,70,10|0,2:0|1:0,2:0:0:0:
9,300,197200,6,0,P|72:272|141:279,1,140,2|10,1:0|2:0,2:0:0:0:
225,243,197646,1,0,2:0:0:0:
276,314,197794,2,0,L|281:395,2,70,2|0|10,1:0|1:0|2:0,2:0:0:0:
363,290,198240,2,0,P|418:299|497:256,1,140,0|0,1:0|2:0,2:0:0:0:
484,176,198685,2,0,L|497:97,1,70,10|0,2:0|1:0,2:0:0:0:
451,33,198982,1,10,2:0:0:0:
451,33,199131,1,0,1:0:0:0:
381,85,199279,2,0,L|368:164,1,70,10|0,2:0|1:0,2:0:0:0:
289,200,199576,6,0,P|248:198|187:171,1,105,10|0,2:0|0:0,0:0:0:0:
180,161,199873,2,0,P|124:151|73:235,1,140,14|8,2:0|2:0,2:0:0:0:
96,301,200319,1,8,2:3:0:0:
96,301,200393,1,8,2:3:0:0:
96,301,200467,1,8,2:3:0:0:
20,348,200616,6,0,B|110:338|84:371|175:358,1,140,6|0,1:2|1:0,2:0:0:0:
242,380,201061,2,0,P|245:342|249:310,1,70,10|0,2:0|0:0,2:0:0:0:
183,243,201359,2,0,P|187:208|190:173,1,70,2|0,1:0|1:0,2:0:0:0:
166,89,201656,2,0,P|200:93|235:96,1,70,10|0,2:0|1:0,0:0:0:0:
281,173,201953,6,0,P|350:179|420:188,1,140,6|10,1:2|2:0,2:0:0:0:
476,107,202398,1,0,2:0:0:0:
443,19,202547,1,2,1:0:0:0:
443,19,202621,1,8,2:0:0:0:
443,19,202695,2,0,P|408:16|373:11,1,70,0|10,1:0|2:0,0:0:0:0:
294,54,202992,6,0,P|235:90|148:82,1,140,4|0,1:2|1:0,2:0:0:0:
87,39,203438,2,0,P|73:82|75:115,1,70,8|0,2:0|2:0,2:0:0:0:
131,178,203735,1,0,1:0:0:0:
56,237,203883,2,0,L|14:233,2,35,8|8|0,2:0|2:0|1:0,0:0:0:0:
131,311,204180,5,8,2:0:0:0:
131,311,204255,1,8,2:0:0:0:
131,311,204329,2,0,B|215:321|171:356|272:369,1,140,6|10,1:0|2:0,2:0:0:0:
381,247,204923,2,0,L|428:244,2,35,2|8|0,1:0|2:0|1:0,2:0:0:0:
319,312,205220,1,10,2:0:0:0:
240,277,205368,2,0,P|207:216|219:137,1,140,4|0,1:2|1:0,2:0:0:0:
200,56,205814,2,0,P|233:64|268:70,1,70,10|0,2:0|2:0,2:0:0:0:
299,152,206111,2,0,L|443:182,1,140,2|10,1:0|2:0,0:0:0:0:
489,259,206557,1,0,2:0:0:0:
412,304,206705,6,0,L|274:275,1,140,2|10,1:0|2:0,2:0:0:0:
182,278,207151,2,0,L|175:225,2,35,8|8|0,2:3|2:3|1:0,0:0:0:0:
102,346,207448,2,0,L|32:383,2,70,10|0|0,2:0|1:0|1:0,0:0:0:0:
91,263,207893,2,0,L|23:220,2,70,8|0|0,2:0|1:0|1:0,0:0:0:0:
167,222,208339,2,0,L|169:142,1,70,8|0,2:0|1:0,0:0:0:0:
122,76,208636,1,0,1:0:0:0:
182,16,208784,2,0,P|216:23|260:23,1,70,14|0,2:0|2:0,2:0:0:0:
329,69,209081,6,0,P|375:97|454:75,2,126,4|8|0,1:0|2:0|1:0,2:0:0:0:
251,23,209824,2,0,P|241:63|239:88,1,63.0000000000001,2|0,1:0|2:0,2:0:0:0:
281,159,210121,2,0,P|205:125|143:140,1,126,8|0,2:0|1:0,0:0:0:0:
86,171,210566,1,10,2:0:0:0:
86,171,210715,1,0,2:0:0:0:
8,317,211012,2,0,L|5:396,2,63.0000000000001,0|10|0,1:0|2:0|2:0,0:0:0:0:
88,272,211458,6,0,B|166:277|125:303|227:306,1,126,4|8,1:0|2:0,0:0:0:0:
287,269,211903,2,0,L|293:234,2,31.5,0|8|0,2:0|2:0|1:0,0:0:0:0:
312,351,212200,1,2,1:0:0:0:
463,294,212497,2,0,L|454:219,1,63.0000000000001,10|0,2:0|2:0,2:0:0:0:
475,145,212794,2,0,L|412:152,1,63.0000000000001,0|8,1:0|2:0,0:0:0:0:
368,237,213091,2,0,L|305:244,1,63.0000000000001,0|2,0:0|1:0,0:0:0:0:
231,188,213388,1,0,1:0:0:0:
177,258,213537,2,0,L|169:301,3,31.5,8|8|8|8,2:0|2:0|2:0|2:0,0:0:0:0:
161,302,213834,6,0,P|105:330|28:323,2,126,4|8|0,1:0|2:0|1:0,2:0:0:0:
234,350,214576,1,2,1:0:0:0:
315,230,214873,2,0,P|304:169|298:105,1,126,8|0,2:0|1:0,0:0:0:0:
250,22,215319,2,0,P|285:19|312:15,1,63.0000000000001,10|0,2:0|2:0,0:0:0:0:
396,0,215616,2,0,P|398:31|402:62,1,63.0000000000001,2|0,1:0|1:0,2:0:0:0:
378,147,215913,2,0,P|409:144|440:140,1,63.0000000000001,10|0,2:0|2:0,0:0:0:0:
485,224,216210,6,0,L|332:239,1,126,4|10,1:0|2:0,2:0:0:0:
290,297,216656,2,0,L|281:343,2,31.5,0|0|0,2:0|0:0|1:0,2:0:0:0:
226,232,216953,2,0,B|219:201|219:201|225:162,1,63.0000000000001,2|8,1:0|2:0,0:0:0:0:
284,97,217250,2,0,P|261:39|202:28,1,126,6|2,1:2|1:0,2:0:0:0:
138,84,217695,2,0,P|104:88|63:90,1,63.0000000000001,8|2,2:0|2:0,2:0:0:0:
23,162,217992,2,0,L|14:201,3,31.5,8|0|2|0,1:3|1:0|1:0|1:0,2:0:0:0:
37,225,218289,2,0,L|29:255,3,31.5,8|8|8|8,2:0|2:0|2:3|2:3,0:0:0:0:
48,289,218586,5,8,2:3:0:0:
48,289,218661,1,8,2:3:0:0:
48,289,218735,2,2,B|195:264|129:352|299:318,1,252,4|0,2:0|2:0,2:1:0:0:
