osu file format v14

[General]
AudioFilename: audio.mp3
AudioLeadIn: 0
PreviewTime: -1
Countdown: 1
SampleSet: Normal
StackLeniency: 0.7
Mode: 0
LetterboxInBreaks: 0
WidescreenStoryboard: 0

[Editor]
Bookmarks: 9677,19042,57530,74067,83433,102164,122067,138311,157189,166408,171237,180603,189969
DistanceSpacing: 1
BeatDivisor: 4
GridSize: 8
TimelineZoom: 1.3

[Metadata]
Title:Konoha No Sekai Jijou
TitleUnicode:コノハの世界事情
Artist:Jin Feat. Nanou
ArtistUnicode:じん Feat. ナノウ
Creator:Bready
Version:kagePRO
Source:Kagerou Project
Tags:
BeatmapID:1556670
BeatmapSetID:737573

[Difficulty]
HPDrainRate:6
CircleSize:4
OverallDifficulty:7
ApproachRate:9.6
SliderMultiplier:1.4
SliderTickRate:1

[Events]
//Background and Video events
//Break Periods
2,171437,179509
//Storyboard Layer 0 (Background)
//Storyboard Layer 1 (Fail)
//Storyboard Layer 2 (Pass)
//Storyboard Layer 3 (Foreground)
//Storyboard Sound Samples

[TimingPoints]
9677,292.682926829268,4,1,0,100,1,0

[HitObjects]
416,48,19335,5,0,0:0:0:0:
451,122,19481,1,0,0:0:0:0:
449,206,19628,1,0,0:0:0:0:
420,279,19774,1,0,0:0:0:0:
346,228,19920,1,0,0:0:0:0:
315,305,20067,1,0,0:0:0:0:
257,232,20213,1,0,0:0:0:0:
211,301,20359,1,0,0:0:0:0:
160,227,20506,1,0,0:0:0:0:
105,304,20652,1,0,0:0:0:0:
60,222,20798,1,0,0:0:0:0:
66,132,20945,1,0,0:0:0:0:
115,63,21091,2,0,L|184:40,1,70
384,56,21676,5,0,0:0:0:0:
454,118,21822,1,0,0:0:0:0:
361,147,21969,1,0,0:0:0:0:
444,208,22115,1,0,0:0:0:0:
351,237,22261,1,0,0:0:0:0:
428,296,22408,2,0,L|368:341,1,70
123,101,22847,5,0,0:0:0:0:
123,101,22994,1,0,0:0:0:0:
123,109,23140,2,0,L|195:149,2,70
259,178,23725,6,0,L|336:216,1,70
392,244,24018,1,0,0:0:0:0:
428,163,24164,1,0,0:0:0:0:
349,128,24311,1,0,0:0:0:0:
266,98,24457,1,0,0:0:0:0:
177,132,24603,1,0,0:0:0:0:
197,232,24750,1,0,0:0:0:0:
280,189,24896,2,0,L|369:231,1,70
411,279,25189,1,0,0:0:0:0:
333,304,25335,1,0,0:0:0:0:
246,306,25481,1,0,0:0:0:0:
157,270,25628,1,0,0:0:0:0:
112,195,25774,1,0,0:0:0:0:
116,101,25920,1,0,0:0:0:0:
185,48,26067,2,0,L|258:42,3,70
328,37,26652,2,0,P|441:101|394:238,1,280
256,77,27530,5,0,0:0:0:0:
360,256,27676,1,0,0:0:0:0:
144,256,27823,1,0,0:0:0:0:
256,77,27969,1,0,0:0:0:0:
360,256,28116,1,0,0:0:0:0:
144,256,28262,1,0,0:0:0:0:
256,77,28408,1,0,0:0:0:0:
400,224,28701,5,0,0:0:0:0:
400,224,28847,1,0,0:0:0:0:
400,224,28994,1,0,0:0:0:0:
312,312,29140,1,0,0:0:0:0:
264,176,29286,1,0,0:0:0:0:
168,264,29433,1,0,0:0:0:0:
128,128,29579,1,0,0:0:0:0:
128,128,29725,1,0,0:0:0:0:
128,128,29872,1,0,0:0:0:0:
128,128,30018,1,0,0:0:0:0:
224,88,30164,1,0,0:0:0:0:
224,88,30311,1,0,0:0:0:0:
320,64,30457,2,0,L|408:96,1,70
144,296,31042,5,0,0:0:0:0:
72,152,31189,1,0,0:0:0:0:
248,224,31335,1,0,0:0:0:0:
184,88,31481,1,0,0:0:0:0:
360,157,31628,1,0,0:0:0:0:
306,35,31774,1,0,0:0:0:0:
448,90,31920,2,0,L|402:14,3,70
306,35,32506,1,0,0:0:0:0:
360,157,32652,1,0,0:0:0:0:
191,68,32798,1,0,0:0:0:0:
242,207,32945,1,0,0:0:0:0:
81,114,33091,1,0,0:0:0:0:
76,284,33384,6,0,L|140:314,1,70
274,300,33676,1,0,0:0:0:0:
139,135,33823,1,0,0:0:0:0:
329,100,33969,1,0,0:0:0:0:
432,208,34116,2,0,P|392:296|328:304,1,140
248,296,34555,5,0,0:0:0:0:
248,296,34701,1,0,0:0:0:0:
128,240,34847,1,0,0:0:0:0:
235,164,34994,1,0,0:0:0:0:
79,119,35140,1,0,0:0:0:0:
197,33,35286,2,0,B|291:32|342:58|373:146,1,210
303,205,35872,5,0,0:0:0:0:
383,289,36018,1,0,0:0:0:0:
284,305,36164,1,0,0:0:0:0:
201,229,36311,1,0,0:0:0:0:
135,321,36457,2,0,P|89:241|100:186,1,140
392,184,36896,5,0,0:0:0:0:
280,248,37042,1,0,0:0:0:0:
249,265,37116,1,0,0:0:0:0:
219,283,37189,1,0,0:0:0:0:
64,208,37335,1,0,0:0:0:0:
117,103,37481,1,0,0:0:0:0:
205,181,37628,1,0,0:0:0:0:
360,56,37774,6,0,L|384:136,1,70
394,237,38067,1,0,0:0:0:0:
375,266,38140,1,0,0:0:0:0:
353,293,38213,1,0,0:0:0:0:
80,80,38506,5,0,0:0:0:0:
112,208,38652,1,0,0:0:0:0:
209,123,38798,1,0,0:0:0:0:
306,30,38945,2,0,L|362:158,1,140
112,208,39530,2,0,L|56:160,2,70
176,56,40116,5,0,0:0:0:0:
272,88,40262,1,0,0:0:0:0:
293,115,40335,1,0,0:0:0:0:
314,142,40408,1,0,0:0:0:0:
176,56,40555,1,0,0:0:0:0:
400,256,40847,5,0,0:0:0:0:
264,272,40994,1,0,0:0:0:0:
128,280,41140,1,0,0:0:0:0:
96,176,41286,2,0,P|136:88|192:72,2,140
168,248,42018,1,0,0:0:0:0:
326,180,42164,1,0,0:0:0:0:
88,88,42457,5,0,0:0:0:0:
232,64,42603,1,0,0:0:0:0:
240,112,42676,1,0,0:0:0:0:
248,160,42750,1,0,0:0:0:0:
88,88,42896,1,0,0:0:0:0:
376,248,43189,5,0,0:0:0:0:
272,280,43335,2,0,L|176:272,1,70
104,200,43628,1,0,0:0:0:0:
104,200,43920,1,0,0:0:0:0:
392,128,44213,5,0,0:0:0:0:
419,277,44359,1,0,0:0:0:0:
257,177,44506,1,0,0:0:0:0:
297,310,44652,1,0,0:0:0:0:
130,262,44798,2,0,L|94:121,1,140
365,262,45384,2,0,L|399:122,1,140
167,59,45969,2,0,L|120:197,1,140
330,61,46555,2,0,L|384:208,1,140
258,333,47140,5,0,0:0:0:0:
104,80,47286,5,0,0:0:0:0:
414,79,47433,5,0,0:0:0:0:
184,104,47872,5,0,0:0:0:0:
329,55,48018,1,0,0:0:0:0:
310,223,48164,1,0,0:0:0:0:
456,185,48311,2,0,L|422:330,1,140
377,317,48750,2,0,L|335:181,1,140
403,93,49189,1,0,0:0:0:0:
403,93,49335,1,0,0:0:0:0:
194,66,49481,2,0,L|50:122,1,140
62,238,50067,2,0,L|206:306,1,140
296,80,50652,1,0,0:0:0:0:
296,80,50945,2,0,L|329:174,1,70
359,254,51237,1,0,0:0:0:0:
325,265,51311,1,0,0:0:0:0:
290,266,51384,1,0,0:0:0:0:
256,256,51457,1,0,0:0:0:0:
225,239,51530,1,0,0:0:0:0:
436,79,51823,5,0,0:0:0:0:
404,304,52116,5,0,0:0:0:0:
298,297,52262,1,0,0:0:0:0:
348,208,52408,1,0,0:0:0:0:
217,229,52555,1,0,0:0:0:0:
269,135,52701,1,0,0:0:0:0:
153,162,52847,1,0,0:0:0:0:
51,36,52994,5,0,0:0:0:0:
80,304,53286,5,0,0:0:0:0:
50,157,53433,1,0,0:0:0:0:
192,264,53579,1,0,0:0:0:0:
162,114,53725,1,0,0:0:0:0:
296,224,53872,1,0,0:0:0:0:
271,76,54018,1,0,0:0:0:0:
467,58,54164,5,0,0:0:0:0:
256,80,54457,5,0,0:0:0:0:
256,312,54603,1,0,0:0:0:0:
192,104,54750,1,0,0:0:0:0:
320,288,54896,1,0,0:0:0:0:
152,152,55042,1,0,0:0:0:0:
368,240,55189,1,0,0:0:0:0:
392,113,55335,5,0,0:0:0:0:
357,113,55408,1,0,0:0:0:0:
323,124,55481,1,0,0:0:0:0:
292,141,55555,1,0,0:0:0:0:
270,168,55628,1,0,0:0:0:0:
243,191,55701,1,0,0:0:0:0:
209,200,55774,1,0,0:0:0:0:
174,200,55847,1,0,0:0:0:0:
139,192,55920,1,0,0:0:0:0:
194,53,56067,1,0,0:0:0:0:
347,306,56213,1,0,0:0:0:0:
120,224,56506,5,0,0:0:0:0:
199,89,56652,1,0,0:0:0:0:
223,64,56725,1,0,0:0:0:0:
257,59,56798,1,0,0:0:0:0:
256,192,56945,12,0,57530,0:0:0:0:
184,304,57823,5,0,0:0:0:0:
256,48,57969,1,0,0:0:0:0:
320,304,58116,1,0,0:0:0:0:
128,144,58262,1,0,0:0:0:0:
368,144,58408,1,0,0:0:0:0:
152,280,58555,1,0,0:0:0:0:
288,64,58701,1,0,0:0:0:0:
280,312,58847,1,0,0:0:0:0:
144,104,58994,1,0,0:0:0:0:
368,184,59140,1,0,0:0:0:0:
128,232,59286,1,0,0:0:0:0:
328,72,59433,1,0,0:0:0:0:
224,328,59579,1,0,0:0:0:0:
184,80,59725,1,0,0:0:0:0:
360,232,59872,1,0,0:0:0:0:
166,59,60164,5,0,0:0:0:0:
342,46,60311,1,0,0:0:0:0:
187,136,60457,1,0,0:0:0:0:
360,124,60603,1,0,0:0:0:0:
211,214,60750,1,0,0:0:0:0:
378,202,60896,1,0,0:0:0:0:
232,289,61042,1,0,0:0:0:0:
392,274,61189,1,0,0:0:0:0:
250,362,61335,1,0,0:0:0:0:
410,344,61481,1,0,0:0:0:0:
176,336,61628,2,0,P|107:275|97:199,1,140
65,199,62213,6,0,P|73:257|106:271,1,70
191,267,62506,1,0,0:0:0:0:
113,124,62652,1,0,0:0:0:0:
276,242,62798,1,0,0:0:0:0:
199,93,62945,1,0,0:0:0:0:
359,200,63091,1,0,0:0:0:0:
278,58,63237,1,0,0:0:0:0:
428,123,63384,6,0,P|417:78|374:52,3,70
316,62,63969,1,0,0:0:0:0:
374,228,64116,1,0,0:0:0:0:
192,121,64262,1,0,0:0:0:0:
218,294,64408,1,0,0:0:0:0:
73,221,64555,1,0,0:0:0:0:
95,50,64994,5,0,0:0:0:0:
390,305,65286,1,0,0:0:0:0:
128,298,65579,1,0,0:0:0:0:
373,73,65872,1,0,0:0:0:0:
304,144,66164,2,0,P|328:176|328:208,2,70
248,176,66896,6,0,L|216:88,2,70
256,304,67335,1,0,0:0:0:0:
256,80,67481,1,0,0:0:0:0:
300,297,67628,1,0,0:0:0:0:
210,86,67774,1,0,0:0:0:0:
339,276,67920,1,0,0:0:0:0:
165,104,68067,1,0,0:0:0:0:
365,245,68213,1,0,0:0:0:0:
131,143,68359,1,0,0:0:0:0:
382,201,68506,1,0,0:0:0:0:
113,189,68652,1,0,0:0:0:0:
392,156,68798,2,0,P|382:108|362:92,2,70
384,232,69237,2,0,P|392:288|376:312,2,70
256,192,69676,1,0,0:0:0:0:
256,72,69823,5,0,0:0:0:0:
256,328,69969,1,0,0:0:0:0:
305,81,70116,1,0,0:0:0:0:
203,314,70262,1,0,0:0:0:0:
344,104,70408,1,0,0:0:0:0:
166,287,70555,1,0,0:0:0:0:
370,136,70701,1,0,0:0:0:0:
139,254,70847,1,0,0:0:0:0:
391,168,70994,2,0,P|405:226|368:293,1,140
288,312,71433,1,0,0:0:0:0:
256,192,71579,1,0,0:0:0:0:
256,192,71652,1,0,0:0:0:0:
256,192,71725,1,0,0:0:0:0:
136,296,72018,5,0,0:0:0:0:
368,80,72164,5,0,0:0:0:0:
368,80,72311,1,0,0:0:0:0:
368,80,72457,1,0,0:0:0:0:
368,80,72603,1,0,0:0:0:0:
368,80,72750,2,0,L|440:208,1,140
120,280,73189,1,0,0:0:0:0:
120,280,73481,1,0,0:0:0:0:
120,280,73628,1,0,0:0:0:0:
120,280,73774,1,0,0:0:0:0:
120,280,73920,2,0,B|88:184|128:136|136:128,1,140
256,192,74359,12,0,83433,0:0:0:0:
96,96,83725,5,0,0:0:0:0:
96,96,83872,1,0,0:0:0:0:
96,96,84018,1,0,0:0:0:0:
96,96,84164,1,0,0:0:0:0:
96,96,84311,1,0,0:0:0:0:
96,96,84457,1,0,0:0:0:0:
96,96,84603,1,0,0:0:0:0:
96,96,84750,1,0,0:0:0:0:
96,96,84896,1,0,0:0:0:0:
96,96,85042,1,0,0:0:0:0:
96,96,85189,1,0,0:0:0:0:
96,96,85335,1,0,0:0:0:0:
96,96,85481,1,0,0:0:0:0:
96,96,85628,2,0,P|96:184|144:248,1,140
144,248,86067,5,0,0:0:0:0:
144,248,86213,1,0,0:0:0:0:
144,248,86359,1,0,0:0:0:0:
144,248,86506,1,0,0:0:0:0:
224,264,86652,2,0,P|312:216|336:168,1,140
360,96,87091,5,0,0:0:0:0:
256,72,87237,1,0,0:0:0:0:
408,104,87384,1,0,0:0:0:0:
200,64,87530,1,0,0:0:0:0:
456,112,87676,1,0,0:0:0:0:
128,48,87823,2,0,P|88:128|104:192,1,140
96,336,88408,5,0,0:0:0:0:
256,240,88555,1,0,0:0:0:0:
176,288,88701,1,0,0:0:0:0:
336,192,88847,1,0,0:0:0:0:
256,240,88994,1,0,0:0:0:0:
408,152,89140,1,0,0:0:0:0:
336,192,89286,1,0,0:0:0:0:
480,104,89433,1,0,0:0:0:0:
312,86,89579,5,0,0:0:0:0:
421,258,89725,1,0,0:0:0:0:
223,137,89872,1,0,0:0:0:0:
339,304,90018,1,0,0:0:0:0:
387,42,90164,1,0,0:0:0:0:
498,212,90311,1,0,0:0:0:0:
138,181,90457,1,0,0:0:0:0:
243,346,90603,1,0,0:0:0:0:
318,75,90750,1,0,0:0:0:0:
437,251,90896,1,0,0:0:0:0:
223,349,91042,1,0,0:0:0:0:
96,186,91189,1,0,0:0:0:0:
289,65,91335,1,0,0:0:0:0:
414,226,91481,1,0,0:0:0:0:
256,192,91628,12,0,92798,0:0:0:0:
135,97,93091,5,0,0:0:0:0:
351,96,93237,1,0,0:0:0:0:
349,286,93384,1,0,0:0:0:0:
155,276,93530,1,0,0:0:0:0:
188,76,93676,1,0,0:0:0:0:
396,140,93823,1,0,0:0:0:0:
302,319,93969,1,0,0:0:0:0:
123,221,94116,1,0,0:0:0:0:
250,74,94262,1,0,0:0:0:0:
401,202,94408,1,0,0:0:0:0:
244,325,94555,1,0,0:0:0:0:
122,166,94701,1,0,0:0:0:0:
330,85,94847,1,0,0:0:0:0:
330,85,94994,1,0,0:0:0:0:
330,85,95140,1,0,0:0:0:0:
382,213,95433,5,0,0:0:0:0:
272,63,95579,1,0,0:0:0:0:
118,160,95725,1,0,0:0:0:0:
237,313,95872,1,0,0:0:0:0:
385,160,96018,1,0,0:0:0:0:
216,78,96164,1,0,0:0:0:0:
123,212,96311,1,0,0:0:0:0:
287,312,96457,2,0,L|359:312,2,70
101,165,96896,1,0,0:0:0:0:
268,47,97042,1,0,0:0:0:0:
395,216,97189,1,0,0:0:0:0:
219,330,97335,1,0,0:0:0:0:
104,200,97774,6,0,P|88:128|120:72,1,140
232,72,98213,1,0,0:0:0:0:
232,72,98359,1,0,0:0:0:0:
216,168,98506,2,0,P|304:160|328:112,1,140
373,42,98945,1,0,0:0:0:0:
373,42,99091,1,0,0:0:0:0:
373,42,99237,1,0,0:0:0:0:
427,123,99384,1,0,0:0:0:0:
393,227,99530,2,0,L|336:286,1,70
256,192,99823,12,0,100408,0:0:0:0:
280,288,100555,5,0,0:0:0:0:
144,256,100701,1,0,0:0:0:0:
80,128,100847,1,0,0:0:0:0:
240,136,100994,1,0,0:0:0:0:
360,248,101140,1,0,0:0:0:0:
360,248,101213,1,0,0:0:0:0:
360,248,101286,1,0,0:0:0:0:
360,96,101433,5,0,0:0:0:0:
360,96,101506,1,0,0:0:0:0:
360,96,101579,1,0,0:0:0:0:
120,216,101725,5,0,0:0:0:0:
120,216,101798,1,0,0:0:0:0:
120,216,101872,1,0,0:0:0:0:
248,56,102018,5,0,0:0:0:0:
248,56,102091,1,0,0:0:0:0:
256,64,102164,1,0,0:0:0:0:
256,64,102311,5,0,0:0:0:0:
256,64,102457,1,0,0:0:0:0:
368,168,102603,1,0,0:0:0:0:
128,264,102896,1,0,0:0:0:0:
128,264,103042,1,0,0:0:0:0:
128,264,103189,1,0,0:0:0:0:
384,336,103335,2,0,P|400:256|384:192,1,140
256,72,103920,1,0,0:0:0:0:
256,72,104067,1,0,0:0:0:0:
256,72,104213,1,0,0:0:0:0:
88,288,104506,5,0,0:0:0:0:
88,288,104652,1,0,0:0:0:0:
88,288,104798,1,0,0:0:0:0:
88,168,104945,1,0,0:0:0:0:
288,264,105237,5,0,0:0:0:0:
288,264,105384,1,0,0:0:0:0:
288,264,105530,1,0,0:0:0:0:
416,144,105676,2,0,P|336:96|272:88,1,140
100,103,106262,1,0,0:0:0:0:
249,328,106408,1,0,0:0:0:0:
399,101,106555,1,0,0:0:0:0:
248,184,106847,5,0,0:0:0:0:
248,184,106994,1,0,0:0:0:0:
248,184,107140,1,0,0:0:0:0:
368,208,107286,1,0,0:0:0:0:
96,256,107579,5,0,0:0:0:0:
96,256,107725,1,0,0:0:0:0:
96,256,107872,1,0,0:0:0:0:
64,96,108018,2,0,P|160:64|200:72,1,140
368,56,108603,5,0,0:0:0:0:
256,320,108750,1,0,0:0:0:0:
88,92,108896,2,0,P|180:106|221:63,2,140
283,264,109774,6,0,P|262:177|298:137,2,140
173,280,110652,6,0,P|133:225|60:220,2,140
134,109,111530,5,0,0:0:0:0:
256,240,111676,1,0,0:0:0:0:
377,112,111823,1,0,0:0:0:0:
256,272,112262,5,0,0:0:0:0:
256,336,112408,1,0,0:0:0:0:
199,248,112555,1,0,0:0:0:0:
154,293,112701,1,0,0:0:0:0:
176,192,112847,1,0,0:0:0:0:
112,191,112993,1,0,0:0:0:0:
199,135,113140,1,0,0:0:0:0:
154,90,113286,1,0,0:0:0:0:
256,112,113433,1,0,0:0:0:0:
256,48,113579,1,0,0:0:0:0:
312,135,113725,1,0,0:0:0:0:
357,90,113871,1,0,0:0:0:0:
336,191,114018,1,0,0:0:0:0:
400,192,114164,1,0,0:0:0:0:
312,248,114311,1,0,0:0:0:0:
357,293,114457,1,0,0:0:0:0:
256,272,114603,1,0,0:0:0:0:
255,336,114749,1,0,0:0:0:0:
256,272,114896,1,0,0:0:0:0:
256,192,115042,1,0,0:0:0:0:
256,160,115116,1,0,0:0:0:0:
256,128,115189,1,0,0:0:0:0:
152,56,115335,1,0,0:0:0:0:
360,56,115481,2,0,P|424:96|440:160,1,140
256,320,116213,5,0,0:0:0:0:
238,288,116286,1,0,0:0:0:0:
267,256,116359,1,0,0:0:0:0:
243,223,116433,1,0,0:0:0:0:
266,187,116506,1,0,0:0:0:0:
64,272,116652,5,0,0:0:0:0:
152,328,116798,1,0,0:0:0:0:
256,336,116945,1,0,0:0:0:0:
352,336,117091,1,0,0:0:0:0:
424,280,117237,1,0,0:0:0:0:
456,199,117384,1,0,0:0:0:0:
438,167,117457,1,0,0:0:0:0:
467,135,117530,1,0,0:0:0:0:
443,102,117604,1,0,0:0:0:0:
466,66,117677,1,0,0:0:0:0:
406,126,117823,5,0,0:0:0:0:
373,197,117969,1,0,0:0:0:0:
304,244,118116,1,0,0:0:0:0:
220,246,118262,1,0,0:0:0:0:
142,226,118408,1,0,0:0:0:0:
76,166,118555,1,0,0:0:0:0:
58,134,118628,1,0,0:0:0:0:
87,102,118701,1,0,0:0:0:0:
63,69,118775,1,0,0:0:0:0:
86,33,118848,1,0,0:0:0:0:
137,78,118994,5,0,0:0:0:0:
165,148,119140,1,0,0:0:0:0:
228,200,119286,1,0,0:0:0:0:
300,210,119433,1,0,0:0:0:0:
364,178,119579,1,0,0:0:0:0:
407,111,119725,2,0,P|360:48|288:48,1,140
152,136,120311,5,0,0:0:0:0:
256,296,120457,1,0,0:0:0:0:
360,136,120603,1,0,0:0:0:0:
256,192,121042,12,0,121920,0:0:0:0:
80,152,122067,5,0,0:0:0:0:
168,96,122213,1,0,0:0:0:0:
272,96,122359,1,0,0:0:0:0:
368,128,122506,1,0,0:0:0:0:
112,288,122652,1,0,0:0:0:0:
216,304,122798,1,0,0:0:0:0:
312,280,122945,1,0,0:0:0:0:
400,224,123091,1,0,0:0:0:0:
352,80,123237,5,0,0:0:0:0:
272,128,123384,1,0,0:0:0:0:
176,144,123530,1,0,0:0:0:0:
80,120,123676,1,0,0:0:0:0:
112,312,123823,1,0,0:0:0:0:
192,256,123969,1,0,0:0:0:0:
288,232,124116,1,0,0:0:0:0:
400,248,124262,1,0,0:0:0:0:
384,136,124408,5,0,0:0:0:0:
288,80,124555,1,0,0:0:0:0:
184,80,124701,1,0,0:0:0:0:
128,160,124847,1,0,0:0:0:0:
128,264,124994,1,0,0:0:0:0:
224,320,125140,1,0,0:0:0:0:
328,304,125286,1,0,0:0:0:0:
384,224,125433,1,0,0:0:0:0:
376,144,125579,1,0,0:0:0:0:
296,88,125725,1,0,0:0:0:0:
192,80,125872,2,0,P|152:112|144:136,2,70
256,192,126311,1,0,0:0:0:0:
256,192,126457,1,0,0:0:0:0:
336,280,126603,5,0,0:0:0:0:
152,88,126750,1,0,0:0:0:0:
168,280,126896,1,0,0:0:0:0:
320,96,127042,1,0,0:0:0:0:
248,296,127189,1,0,0:0:0:0:
248,96,127335,1,0,0:0:0:0:
136,184,127481,1,0,0:0:0:0:
352,184,127628,1,0,0:0:0:0:
256,192,127774,1,0,0:0:0:0:
344,88,127920,5,0,0:0:0:0:
344,88,128067,1,0,0:0:0:0:
160,88,128213,5,0,0:0:0:0:
160,88,128359,1,0,0:0:0:0:
256,304,128506,5,0,0:0:0:0:
256,304,128652,1,0,0:0:0:0:
256,192,128798,5,0,0:0:0:0:
256,192,128945,2,0,P|328:192|376:144,1,140
320,56,129384,5,0,0:0:0:0:
320,56,129530,2,0,P|232:56|192:96,1,140
112,192,129969,5,0,0:0:0:0:
112,192,130116,2,0,P|144:264|200:288,1,140
288,272,130555,5,0,0:0:0:0:
288,272,130701,1,0,0:0:0:0:
368,176,130847,5,0,0:0:0:0:
368,176,130994,1,0,0:0:0:0:
368,176,131140,1,0,0:0:0:0:
112,208,131286,6,0,P|104:128|160:96,1,140
224,72,131725,1,0,0:0:0:0:
312,96,131872,1,0,0:0:0:0:
376,168,132018,1,0,0:0:0:0:
376,264,132164,1,0,0:0:0:0:
296,312,132311,1,0,0:0:0:0:
192,312,132457,1,0,0:0:0:0:
128,240,132603,1,0,0:0:0:0:
128,152,132750,1,0,0:0:0:0:
192,88,132896,1,0,0:0:0:0:
280,72,133042,1,0,0:0:0:0:
352,112,133189,2,0,P|384:152|392:200,1,70
104,224,133628,6,0,P|128:280|208:304,1,140
296,296,134067,1,0,0:0:0:0:
384,248,134213,1,0,0:0:0:0:
296,296,134359,1,0,0:0:0:0:
200,296,134506,1,0,0:0:0:0:
112,240,134652,1,0,0:0:0:0:
200,296,134798,1,0,0:0:0:0:
288,296,134945,1,0,0:0:0:0:
368,240,135091,1,0,0:0:0:0:
288,296,135237,1,0,0:0:0:0:
200,296,135384,2,0,P|128:288|104:224,1,140
112,152,135969,1,0,0:0:0:0:
112,152,136115,1,0,0:0:0:0:
208,72,136408,5,0,0:0:0:0:
384,88,136555,1,0,0:0:0:0:
368,120,136628,1,0,0:0:0:0:
350,150,136701,1,0,0:0:0:0:
250,234,136847,1,0,0:0:0:0:
76,156,136994,5,0,0:0:0:0:
159,86,137140,1,0,0:0:0:0:
191,99,137213,1,0,0:0:0:0:
223,110,137286,1,0,0:0:0:0:
384,251,137433,1,0,0:0:0:0:
201,305,137579,5,0,0:0:0:0:
127,241,137725,1,0,0:0:0:0:
148,213,137798,1,0,0:0:0:0:
171,186,137872,1,0,0:0:0:0:
203,173,137945,1,0,0:0:0:0:
237,167,138018,1,0,0:0:0:0:
271,169,138091,1,0,0:0:0:0:
303,180,138164,1,0,0:0:0:0:
333,196,138237,1,0,0:0:0:0:
361,216,138311,1,0,0:0:0:0:
168,328,138456,5,0,0:0:0:0:
254,57,138603,1,0,0:0:0:0:
342,327,138749,1,0,0:0:0:0:
113,160,138895,1,0,0:0:0:0:
396,160,139042,1,0,0:0:0:0:
168,56,139189,1,0,0:0:0:0:
254,327,139336,1,0,0:0:0:0:
342,57,139482,1,0,0:0:0:0:
113,224,139628,1,0,0:0:0:0:
396,224,139775,1,0,0:0:0:0:
168,328,139920,1,0,0:0:0:0:
256,56,140067,1,0,0:0:0:0:
342,327,140213,1,0,0:0:0:0:
113,160,140359,1,0,0:0:0:0:
396,160,140506,1,0,0:0:0:0:
154,344,140652,5,0,0:0:0:0:
256,45,140798,1,0,0:0:0:0:
351,338,140945,1,0,0:0:0:0:
96,141,141091,1,0,0:0:0:0:
415,141,141237,1,0,0:0:0:0:
154,39,141384,1,0,0:0:0:0:
256,338,141530,1,0,0:0:0:0:
351,45,141677,1,0,0:0:0:0:
96,242,141823,1,0,0:0:0:0:
415,242,141969,1,0,0:0:0:0:
154,344,142116,1,0,0:0:0:0:
256,45,142262,1,0,0:0:0:0:
351,338,142409,1,0,0:0:0:0:
96,141,142555,1,0,0:0:0:0:
415,141,142701,1,0,0:0:0:0:
256,56,142994,5,0,0:0:0:0:
256,328,143140,1,0,0:0:0:0:
302,64,143286,1,0,0:0:0:0:
209,319,143432,1,0,0:0:0:0:
343,87,143579,1,0,0:0:0:0:
168,296,143725,1,0,0:0:0:0:
373,123,143872,1,0,0:0:0:0:
138,260,144018,1,0,0:0:0:0:
389,168,144164,1,0,0:0:0:0:
122,215,144310,1,0,0:0:0:0:
389,215,144457,1,0,0:0:0:0:
120,168,144603,2,0,P|135:108|206:76,1,140
335,75,145189,5,0,0:0:0:0:
335,75,145335,1,0,0:0:0:0:
403,211,145774,2,0,P|386:283|329:298,1,140
127,268,146359,2,0,P|76:199|109:138,1,140
250,65,146945,2,0,P|347:101|361:156,1,140
256,377,147676,5,0,0:0:0:0:
256,6,147822,1,0,0:0:0:0:
319,365,147968,1,0,0:0:0:0:
192,18,148114,1,0,0:0:0:0:
374,333,148261,1,0,0:0:0:0:
137,50,148407,1,0,0:0:0:0:
416,284,148554,1,0,0:0:0:0:
95,99,148700,1,0,0:0:0:0:
438,224,148846,1,0,0:0:0:0:
73,159,148992,1,0,0:0:0:0:
438,163,149140,1,0,0:0:0:0:
73,220,149286,1,0,0:0:0:0:
417,102,149432,1,0,0:0:0:0:
94,281,149578,1,0,0:0:0:0:
377,52,149725,1,0,0:0:0:0:
134,331,149871,1,0,0:0:0:0:
322,19,150018,1,0,0:0:0:0:
189,364,150164,1,0,0:0:0:0:
259,6,150310,1,0,0:0:0:0:
252,377,150456,1,0,0:0:0:0:
376,315,150603,5,0,0:0:0:0:
103,320,150750,1,0,0:0:0:0:
26,119,150896,1,0,0:0:0:0:
208,22,151042,1,0,0:0:0:0:
448,54,151189,1,0,0:0:0:0:
464,279,151335,1,0,0:0:0:0:
260,379,151481,1,0,0:0:0:0:
36,309,151628,1,0,0:0:0:0:
29,144,151774,2,0,P|75:66|133:50,1,140
198,85,152359,2,0,P|213:120|193:164,1,70
114,219,152798,1,0,0:0:0:0:
114,219,152945,1,0,0:0:0:0:
114,219,153091,1,0,0:0:0:0:
114,219,153237,1,0,0:0:0:0:
114,219,153384,1,0,0:0:0:0:
114,219,153530,1,0,0:0:0:0:
350,86,153969,1,0,0:0:0:0:
350,86,154116,1,0,0:0:0:0:
350,86,154262,1,0,0:0:0:0:
350,86,154408,1,0,0:0:0:0:
350,86,154555,1,0,0:0:0:0:
350,86,154701,1,0,0:0:0:0:
256,192,154847,12,0,156896,0:0:0:0:
89,87,157042,5,0,0:0:0:0:
181,61,157335,1,0,0:0:0:0:
392,166,157628,5,0,0:0:0:0:
383,262,157920,1,0,0:0:0:0:
126,267,158213,6,0,P|78:199|83:139,1,140
99,106,158579,1,0,0:0:0:0:
119,77,158652,1,0,0:0:0:0:
147,56,158725,1,0,0:0:0:0:
179,41,158799,1,0,0:0:0:0:
212,32,158872,1,0,0:0:0:0:
246,30,158945,1,0,0:0:0:0:
251,249,159091,1,0,0:0:0:0:
432,69,159237,1,0,0:0:0:0:
442,254,159384,6,0,P|419:162|358:141,1,140
298,189,159823,2,0,P|309:247|336:263,3,70
384,154,160408,2,0,P|385:103|352:88,3,70
265,73,160994,1,0,0:0:0:0:
261,249,161140,1,0,0:0:0:0:
86,50,161286,1,0,0:0:0:0:
49,202,161433,1,0,0:0:0:0:
59,235,161506,1,0,0:0:0:0:
81,261,161579,1,0,0:0:0:0:
109,281,161652,1,0,0:0:0:0:
139,298,161725,1,0,0:0:0:0:
344,296,162018,5,0,0:0:0:0:
376,280,162091,1,0,0:0:0:0:
400,256,162164,1,0,0:0:0:0:
424,232,162237,1,0,0:0:0:0:
440,200,162311,1,0,0:0:0:0:
296,64,162603,5,0,0:0:0:0:
264,56,162676,1,0,0:0:0:0:
232,56,162749,1,0,0:0:0:0:
200,64,162823,1,0,0:0:0:0:
168,80,162896,1,0,0:0:0:0:
72,200,163189,5,0,0:0:0:0:
88,232,163262,1,0,0:0:0:0:
112,256,163335,1,0,0:0:0:0:
136,280,163408,1,0,0:0:0:0:
168,296,163481,1,0,0:0:0:0:
200,304,163555,1,0,0:0:0:0:
232,312,163628,1,0,0:0:0:0:
264,312,163701,1,0,0:0:0:0:
296,304,163774,1,0,0:0:0:0:
328,288,163847,1,0,0:0:0:0:
360,272,163920,1,0,0:0:0:0:
384,248,163994,1,0,0:0:0:0:
399,216,164067,1,0,0:0:0:0:
372,73,164360,5,0,0:0:0:0:
337,72,164433,1,0,0:0:0:0:
302,74,164506,1,0,0:0:0:0:
146,157,164652,1,0,0:0:0:0:
146,157,164798,1,0,0:0:0:0:
264,224,164945,1,0,0:0:0:0:
298,222,165018,1,0,0:0:0:0:
332,220,165091,1,0,0:0:0:0:
428,152,165237,1,0,0:0:0:0:
353,61,165384,1,0,0:0:0:0:
293,165,165530,1,0,0:0:0:0:
211,68,165676,1,0,0:0:0:0:
162,171,165823,1,0,0:0:0:0:
79,83,165969,5,0,0:0:0:0:
59,112,166042,1,0,0:0:0:0:
42,143,166116,1,0,0:0:0:0:
33,176,166189,1,0,0:0:0:0:
33,210,166262,1,0,0:0:0:0:
39,244,166335,1,0,0:0:0:0:
55,274,166408,1,0,0:0:0:0:
243,335,166701,5,0,0:0:0:0:
312,51,166847,1,0,0:0:0:0:
376,333,166994,1,0,0:0:0:0:
161,52,167140,1,0,0:0:0:0:
136,336,167286,1,0,0:0:0:0:
399,54,167433,1,0,0:0:0:0:
484,332,167579,1,0,0:0:0:0:
86,46,167725,1,0,0:0:0:0:
35,339,167872,1,0,0:0:0:0:
254,192,168018,1,0,0:0:0:0:
254,192,168164,1,0,0:0:0:0:
118,168,168457,2,0,P|163:107|241:113,1,140
278,129,168896,2,0,P|337:182|335:254,1,140
68,291,169481,5,0,0:0:0:0:
98,194,169628,1,0,0:0:0:0:
266,209,169774,1,0,0:0:0:0:
332,7,169920,2,0,P|420:121|407:332,1,350
256,192,171237,5,0,0:0:0:0:
72,128,180018,5,0,0:0:0:0:
94,154,180091,1,0,0:0:0:0:
117,180,180164,1,0,0:0:0:0:
139,206,180237,1,0,0:0:0:0:
164,231,180311,1,0,0:0:0:0:
190,253,180384,1,0,0:0:0:0:
213,278,180457,1,0,0:0:0:0:
239,300,180530,1,0,0:0:0:0:
266,321,180603,1,0,0:0:0:0:
385,223,180750,6,0,L|394:177,2,35
270,83,181042,1,0,0:0:0:0:
91,163,181189,1,0,0:0:0:0:
141,283,181335,2,0,L|183:307,2,35
339,281,181628,6,0,L|393:198,1,70
315,65,181920,2,0,L|276:79,2,35
126,162,182213,5,0,0:0:0:0:
126,162,182359,1,0,0:0:0:0:
276,269,182506,2,0,L|310:250,2,35
349,151,182798,5,0,0:0:0:0:
338,73,182945,1,0,0:0:0:0:
231,94,183091,2,0,L|186:83,2,35
101,179,183384,5,0,0:0:0:0:
183,314,183530,2,0,L|236:327,6,35
305,269,184116,5,0,0:0:0:0:
400,175,184262,1,0,0:0:0:0:
411,148,184335,2,0,L|422:109,1,35
281,62,184555,5,0,0:0:0:0:
121,143,184701,1,0,0:0:0:0:
125,266,184847,2,0,L|165:292,2,35
268,309,185140,5,0,0:0:0:0:
388,204,185286,1,0,0:0:0:0:
283,85,185433,1,0,0:0:0:0:
238,81,185506,2,0,L|192:81,1,35
76,147,185725,5,0,0:0:0:0:
76,147,185872,1,0,0:0:0:0:
313,277,186018,5,0,0:0:0:0:
326,244,186091,1,0,0:0:0:0:
342,213,186164,1,0,0:0:0:0:
355,180,186237,1,0,0:0:0:0:
365,146,186311,1,0,0:0:0:0:
373,112,186384,1,0,0:0:0:0:
382,78,186457,1,0,0:0:0:0:
121,123,186603,5,0,0:0:0:0:
44,217,186750,1,0,0:0:0:0:
134,218,186897,1,0,0:0:0:0:
153,246,186969,1,0,0:0:0:0:
174,273,187042,1,0,0:0:0:0:
292,297,187189,5,0,0:0:0:0:
409,266,187335,1,0,0:0:0:0:
410,153,187481,1,0,0:0:0:0:
377,122,187555,1,0,0:0:0:0:
347,92,187628,1,0,0:0:0:0:
208,78,187774,5,0,0:0:0:0:
93,107,187920,1,0,0:0:0:0:
88,235,188067,1,0,0:0:0:0:
133,283,188140,1,0,0:0:0:0:
181,325,188213,1,0,0:0:0:0:
321,326,188359,5,0,0:0:0:0:
160,118,188506,1,0,0:0:0:0:
335,68,188652,1,0,0:0:0:0:
369,136,188725,1,0,0:0:0:0:
401,208,188798,1,0,0:0:0:0:
247,343,188945,5,0,0:0:0:0:
79,253,189091,1,0,0:0:0:0:
96,129,189237,1,0,0:0:0:0:
170,96,189311,1,0,0:0:0:0:
244,70,189384,1,0,0:0:0:0:
383,61,189530,5,0,0:0:0:0:
376,312,189677,5,0,0:0:0:0:
80,120,189823,5,0,0:0:0:0:
