osu file format v14

[General]
AudioFilename: audio.mp3
AudioLeadIn: 0
PreviewTime: 73895
Countdown: 0
SampleSet: Soft
StackLeniency: 0.7
Mode: 0
LetterboxInBreaks: 0
WidescreenStoryboard: 1

[Editor]
Bookmarks: 6294,22678,44832,59601,85318,116828,144525,174063
DistanceSpacing: 1.4
BeatDivisor: 4
GridSize: 8
TimelineZoom: 2.7

[Metadata]
Title:Yobanashi Deceive
TitleUnicode:夜咄ディセイブ
Artist:Jin
ArtistUnicode:じん
Creator:[ Abhor ]
Version:Normal
Source:
Tags:
BeatmapID:1235025
BeatmapSetID:582419

[Difficulty]
HPDrainRate:4
CircleSize:3
OverallDifficulty:4
ApproachRate:5
SliderMultiplier:1.2
SliderTickRate:1

[Events]
//Background and Video events
0,0,"device.jpg",0,0
Video,-120,"deceive .flv"
//Break Periods
2,37633,43618
2,87480,100849
2,144710,155317
//Storyboard Layer 0 (Background)
//Storyboard Layer 1 (Fail)
//Storyboard Layer 2 (Pass)
//Storyboard Layer 3 (Foreground)
//Storyboard Sound Samples

[TimingPoints]
511,461.538461538462,4,2,0,70,1,0
22664,-100,4,2,0,55,0,0
59587,-100,4,2,0,55,0,0
72511,-100,4,2,0,80,0,0
73895,-100,4,2,0,45,0,0
74357,-100,4,2,0,75,0,1
87280,-100,4,2,0,60,0,0
102049,-100,4,2,0,55,0,0
116818,-100,4,2,0,40,0,0
129741,-100,4,2,0,80,0,0
131126,-100,4,2,0,45,0,0
131587,-100,4,2,0,75,0,1
144511,475.499869237536,4,2,0,75,1,0
156517,461.538461538462,4,2,0,45,1,0
156517,-100,4,2,0,45,0,0
159286,-100,4,2,0,75,0,1
173132,-100,4,2,0,60,0,0
174055,-100,4,2,0,55,0,0
174978,-100,4,2,0,75,0,0
187901,-100,4,2,0,80,0,0

[Colours]
Combo1 : 139,162,182
Combo2 : 234,219,198
Combo3 : 255,166,166
Combo4 : 164,191,147

[HitObjects]
83,38,6280,6,0,P|86:80|136:127,1,90
217,189,6972,2,0,L|212:296,2,90
237,107,7895,6,0,P|294:85|360:87,1,120
450,164,8703,2,0,L|440:326,1,150
370,360,9511,1,0,0:0:0:0:
301,312,9741,6,0,L|219:316,2,60
294,185,10549,2,0,L|136:194,1,150
59,197,11357,1,0,0:0:0:0:
44,115,11587,6,0,P|38:58|89:8,1,120
199,43,12395,2,0,L|367:37,1,150
419,84,13203,1,0,0:0:0:0:
440,165,13434,6,0,L|440:237,2,60
315,147,14241,2,0,L|315:296,1,150
239,332,15049,1,0,0:0:0:0:
168,286,15280,6,0,P|126:305|40:289,1,120
12,178,16087,2,0,B|66:172|102:205|102:205|124:181|167:183,1,150
226,216,16895,1,0,0:0:0:0:
294,264,17126,6,0,L|367:264,2,60
266,140,17934,2,0,L|436:137,1,150
427,221,18741,1,0,0:0:0:0:
354,264,18972,6,0,P|400:302|469:295,1,120
499,180,19780,2,0,L|500:26,1,150
415,29,20587,1,0,0:0:0:0:
340,67,20818,6,0,L|269:62,2,60
327,192,21626,2,0,L|160:183,1,150
121,247,22434,1,0,0:0:0:0:
58,302,22664,6,0,P|37:249|61:188,1,120
113,128,23357,1,0,0:0:0:0:
179,76,23587,2,0,L|174:10,2,60
244,128,24280,1,0,0:0:0:0:
308,74,24511,6,0,P|348:57|388:67,2,60
291,198,25318,2,0,L|298:308,1,90
379,301,25895,2,0,L|375:234,1,60
421,170,26357,6,0,B|457:193|463:234|463:234|467:295,1,120
443,355,27049,1,0,0:0:0:0:
379,301,27280,2,0,L|238:301,1,120
174,303,27972,1,0,0:0:0:0:
97,338,28203,6,0,P|66:340|27:323,2,60
146,221,29011,2,0,L|145:117,1,90
62,145,29587,2,0,L|62:78,1,60
137,47,30049,6,0,B|168:43|196:62|196:62|261:37,1,120
316,92,30741,1,0,0:0:0:0:
387,47,30972,2,0,P|399:105|366:162,1,120
289,172,31664,1,0,0:0:0:0:
206,156,31895,6,0,L|196:285,1,120
302,345,32703,2,0,L|298:236,1,90
289,172,33280,2,0,L|287:97,1,60
226,54,33741,6,0,P|171:76|109:61,1,120
36,28,34434,1,0,0:0:0:0:
45,111,34664,2,0,L|48:242,1,120
104,293,35357,1,0,0:0:0:0:
181,262,35587,6,0,L|179:196,2,60
293,319,36395,2,0,P|343:313|396:326,1,90
459,351,36972,2,0,P|461:293|413:242,1,120
442,120,44818,6,0,B|405:109|405:109|306:120,1,120
240,126,45511,1,0,0:0:0:0:
170,172,45741,2,0,P|156:139|156:109,2,60
247,206,46434,1,0,0:0:0:0:
330,201,46664,6,0,L|317:327,1,120
192,303,47472,2,0,B|151:292|151:292|125:303|92:296,1,90
42,240,48049,2,0,L|35:163,1,60
110,138,48511,6,0,P|109:79|161:32,1,120
186,111,49203,1,0,0:0:0:0:
248,167,49434,2,0,L|246:239,2,60
318,120,50126,1,0,0:0:0:0:
395,152,50357,6,0,L|389:283,1,120
491,345,51164,2,0,L|500:246,1,90
481,173,51741,2,0,L|485:102,1,60
446,37,52203,6,0,P|388:20|324:34,1,120
263,82,52895,1,0,0:0:0:0:
198,135,53126,2,0,L|136:130,2,60
244,204,53818,1,0,0:0:0:0:
324,228,54049,6,0,B|329:290|329:290|302:356,1,120
199,277,54857,2,0,L|96:268,1,90
29,294,55434,2,0,P|24:255|31:230,1,60
99,190,55895,6,0,L|89:63,1,120
168,40,56587,1,0,0:0:0:0:
244,74,56818,2,0,B|285:88|285:88|378:68,1,120
443,58,57511,1,0,0:0:0:0:
414,136,57741,6,0,L|420:212,1,60
351,246,58203,2,0,L|346:314,1,60
268,336,58664,2,0,B|238:347|210:330|210:330|173:344|132:318,1,120
182,249,59357,1,0,0:0:0:0:
213,171,59587,6,0,L|209:68,2,90
97,220,60626,2,0,L|91:113,1,90
89,46,61203,1,0,0:0:0:0:
165,10,61434,6,0,P|218:38|282:34,1,120
360,30,62126,1,0,0:0:0:0:
456,167,62587,5,0,0:0:0:0:
386,214,62818,2,0,L|388:283,1,60
452,328,63280,6,0,P|386:316|323:341,1,120
254,346,63972,2,0,P|197:325|133:343,1,120
60,362,64664,2,0,L|50:282,1,60
120,251,65126,6,0,P|125:183|100:136,1,120
18,128,65818,2,0,P|43:75|106:53,1,120
172,91,66511,2,0,L|251:102,1,60
295,153,66972,6,0,L|400:145,2,90
239,266,68011,2,0,P|319:264|363:329,1,150
280,340,68818,6,0,P|231:303|166:323,1,120
97,342,69511,2,0,L|88:202,1,120
153,168,70203,2,0,L|155:97,1,60
238,108,70664,6,0,L|309:113,2,60
144,23,71472,2,0,P|105:35|73:97,1,90
45,151,72049,2,0,L|43:223,1,60
99,273,72511,5,0,0:0:0:0:
441,329,73895,6,0,L|444:256,1,60
370,226,74357,6,0,L|365:151,2,60
299,272,75049,2,0,L|260:277,1,30
150,232,75511,2,0,P|112:242|81:241,1,60
7,242,75972,1,0,0:0:0:0:
11,158,76203,6,0,L|17:94,1,60
80,43,76664,1,0,0:0:0:0:
150,89,76895,2,0,L|201:88,1,30
187,214,77357,1,0,0:0:0:0:
265,184,77587,2,0,L|337:184,1,60
370,254,78049,6,0,L|440:246,1,60
454,327,78511,2,0,L|411:335,1,30
340,342,78857,2,0,P|294:322|235:329,1,90
174,347,79434,2,0,L|99:344,1,60
54,285,79895,6,0,L|43:215,1,60
123,192,80357,2,0,L|122:122,1,60
205,122,80818,2,0,L|216:57,1,60
298,52,81280,2,0,P|335:78|419:61,1,120
457,137,81972,6,0,L|454:217,1,60
377,230,82434,2,0,L|379:279,1,30
261,308,82895,2,0,P|226:298|184:306,1,60
138,355,83357,1,0,0:0:0:0:
76,299,83587,6,0,L|14:307,2,60
139,243,84280,2,0,L|131:200,1,30
48,120,84741,2,0,P|45:73|52:46,1,60
124,25,85203,1,0,0:0:0:0:
197,65,85434,6,0,L|192:139,1,60
247,188,85895,2,0,L|245:235,1,30
323,250,86241,2,0,P|363:261|419:251,1,90
430,172,86818,2,0,L|435:99,1,60
443,28,87280,5,0,0:0:0:0:
67,335,102049,6,0,P|54:273|69:208,1,120
120,155,102741,1,0,0:0:0:0:
200,131,102972,2,0,L|263:135,2,60
132,23,103780,6,0,L|242:30,1,90
299,60,104357,1,0,0:0:0:0:
422,32,104703,2,0,L|433:147,1,90
373,183,105280,2,0,L|369:260,1,60
422,308,105741,6,0,P|376:292|304:312,1,120
234,349,106434,1,0,0:0:0:0:
163,303,106664,2,0,L|166:239,2,60
40,332,107472,6,0,L|45:218,1,90
106,186,108049,1,0,0:0:0:0:
120,60,108395,2,0,L|192:64,1,60
251,108,108857,2,0,P|290:122|351:109,1,90
394,54,109434,6,0,P|420:110|399:173,1,120
330,200,110126,1,0,0:0:0:0:
248,220,110357,2,0,L|252:296,2,60
123,204,111164,6,0,L|130:300,1,90
66,349,111741,1,0,0:0:0:0:
23,230,112087,2,0,L|16:131,1,90
72,77,112664,2,0,L|153:94,1,60
207,54,113126,6,0,P|261:44|337:62,1,120
377,120,113818,1,0,0:0:0:0:
347,198,114049,2,0,P|339:250|364:314,1,120
454,225,114857,6,0,L|445:331,1,90
362,311,115434,2,0,L|316:318,1,30
254,282,115780,2,0,B|218:264|179:279|179:279|138:298|88:273,1,150
142,204,116587,1,0,0:0:0:0:
165,123,116818,6,0,P|126:121|68:159,2,90
246,142,117741,2,0,P|273:153|304:153,1,60
365,95,118203,2,0,P|400:94|429:103,1,60
449,180,118664,6,0,L|457:254,1,60
378,273,119126,2,0,L|374:345,1,60
290,338,119587,2,0,P|244:345|171:324,1,120
111,269,120280,1,0,0:0:0:0:
59,202,120511,6,0,P|50:172|51:122,1,60
123,106,120972,2,0,P|122:66|131:33,1,60
209,35,121434,2,0,P|258:54|285:53,1,60
347,37,121895,2,0,P|381:34|411:40,1,60
440,115,122357,6,0,L|435:248,1,120
441,318,123049,2,0,P|384:303|351:254,1,120
316,177,123741,2,0,L|318:114,1,60
269,47,124203,6,0,P|231:65|147:54,1,120
72,72,124895,1,0,0:0:0:0:
13,132,125126,2,0,P|14:169|22:197,1,60
103,189,125587,2,0,P|109:223|106:252,1,60
42,302,126049,6,0,L|187:310,1,120
236,346,126741,1,0,0:0:0:0:
318,327,126972,2,0,L|327:255,2,60
428,266,127780,6,0,P|422:223|430:152,1,90
456,99,128357,1,0,0:0:0:0:
395,42,128587,2,0,L|352:43,1,30
299,96,128934,2,0,P|253:116|196:105,1,90
136,80,129511,1,0,0:0:0:0:
77,20,129741,5,0,0:0:0:0:
54,318,131126,6,0,L|128:320,1,60
175,261,131587,6,0,P|206:274|245:274,2,60
118,198,132280,2,0,L|71:203,1,30
79,75,132741,2,0,P|106:89|153:94,1,60
210,57,133203,1,0,0:0:0:0:
294,49,133434,6,0,P|334:42|363:45,2,60
264,127,134126,2,0,L|264:179,1,30
387,183,134587,2,0,L|388:263,1,60
323,298,135049,1,0,0:0:0:0:
246,263,135280,6,0,P|207:255|179:263,1,60
115,302,135741,2,0,L|72:308,1,30
29,242,136087,2,0,P|24:193|28:145,1,90
77,85,136664,2,0,L|145:90,1,60
213,54,137126,6,0,L|288:62,1,60
356,70,137587,1,0,0:0:0:0:
438,83,137818,2,0,P|446:141|413:189,1,120
329,182,138511,2,0,L|321:249,1,60
250,285,138972,6,0,L|258:349,2,60
166,272,139664,2,0,L|171:223,1,30
48,204,140126,2,0,P|41:162|42:122,1,60
79,70,140587,1,0,0:0:0:0:
161,85,140818,6,0,P|200:93|237:90,1,60
283,36,141280,2,0,L|330:39,1,30
356,109,141626,2,0,P|406:101|453:128,1,90
392,185,142203,2,0,L|397:249,1,60
331,297,142664,6,0,P|290:311|254:312,1,60
203,266,143126,2,0,L|161:265,1,30
103,312,143472,2,0,P|90:275|106:218,1,90
172,182,144049,2,0,L|166:52,1,120
346,67,156517,6,0,P|449:93|445:223,1,240
119,200,158363,2,0,B|178:192|178:192|236:210|236:210|309:200,1,180
377,182,159286,6,0,P|376:224|362:252,2,60
317,122,159978,2,0,L|313:82,1,30
197,43,160440,2,0,P|163:57|126:56,1,60
56,45,160901,1,0,0:0:0:0:
84,123,161132,6,0,L|82:203,1,60
159,215,161593,2,0,L|160:267,1,30
114,316,161940,2,0,P|154:328|206:315,1,90
247,248,162517,2,0,L|325:250,1,60
356,317,162978,6,0,P|396:297|428:301,1,60
494,303,163440,1,0,0:0:0:0:
455,228,163670,2,0,L|457:171,1,30
385,93,164132,2,0,P|347:87|314:92,1,60
254,133,164593,1,0,0:0:0:0:
177,168,164824,6,0,P|142:177|110:177,1,60
50,127,165286,2,0,P|36:156|36:192,1,60
78,255,165747,2,0,P|136:263|201:248,1,120
277,228,166440,1,0,0:0:0:0:
357,203,166670,6,0,P|360:238|347:275,2,60
295,145,167363,2,0,L|298:98,1,30
192,44,167824,2,0,L|185:120,1,60
172,187,168286,1,0,0:0:0:0:
159,270,168517,6,0,P|190:270|223:253,1,60
264,189,168978,2,0,L|301:195,1,30
323,272,169324,2,0,P|369:286|424:270,1,90
442,201,169901,2,0,L|450:154,1,30
386,113,170247,6,0,P|389:70|366:25,1,90
306,85,170824,2,0,L|252:91,1,30
199,53,171170,2,0,B|163:46|163:46|97:58,1,90
57,121,171747,1,0,0:0:0:0:
165,184,172093,6,0,P|166:240|195:279,1,90
244,210,172670,2,0,B|275:216|275:216|303:209|303:209|370:224,1,120
72,49,174055,6,0,B|69:90|69:90|78:118|78:118|76:149|76:149|83:181|83:181|77:213|77:213|87:249|87:249|82:287,1,240
34,353,175209,6,0,P|59:364|106:362,1,60
172,268,175786,2,0,L|272:270,1,90
327,322,176363,2,0,P|356:329|394:323,1,60
439,261,176824,6,0,L|450:196,2,60
376,151,177632,2,0,P|385:109|364:58,1,90
288,44,178209,2,0,L|220:50,1,60
169,109,178670,6,0,P|137:117|102:113,1,60
39,69,179132,2,0,P|27:102|28:133,1,60
80,191,179593,2,0,P|76:230|88:270,1,60
164,256,180055,2,0,P|171:292|189:313,1,60
249,255,180517,6,0,L|318:259,1,60
349,332,180978,2,0,L|421:328,1,60
464,264,181440,2,0,L|469:195,1,60
397,158,181901,2,0,L|394:85,1,60
311,82,182363,6,0,L|321:15,2,60
189,114,183170,2,0,P|144:101|80:117,1,90
138,182,183747,2,0,P|173:221|176:242,1,60
114,286,184209,6,0,L|249:283,1,120
318,282,184901,1,0,0:0:0:0:
385,332,185132,2,0,B|410:294|395:252|395:252|401:205,1,120
424,135,185824,1,0,0:0:0:0:
445,53,186055,6,0,P|387:58|341:115,1,120
308,175,186747,2,0,L|263:177,1,30
202,75,187209,2,0,B|159:64|122:99|122:99|68:77,1,120
45,156,187901,6,0,L|47:205,1,30
127,207,188247,2,0,L|131:248,1,30
213,249,188593,2,0,L|215:295,1,30
296,296,188940,2,0,L|298:335,1,30
477,149,189747,6,0,L|481:101,1,30
395,110,190093,2,0,L|399:64,1,30
313,86,190440,2,0,L|316:40,1,30
230,58,190786,2,0,L|234:16,1,30
148,31,191132,6,0,P|103:46|51:43,1,90
256,192,191593,12,0,192517,0:0:0:0:
