osu file format v14

[General]
AudioFilename: audio.mp3
AudioLeadIn: 0
PreviewTime: 73895
Countdown: 0
SampleSet: Soft
StackLeniency: 0.7
Mode: 0
LetterboxInBreaks: 0
WidescreenStoryboard: 1

[Editor]
Bookmarks: 6294,22678,44832,59601,85318,116828,144525,174063
DistanceSpacing: 1.2
BeatDivisor: 16
GridSize: 8
TimelineZoom: 2.7

[Metadata]
Title:Yobanashi Deceive
TitleUnicode:夜咄ディセイブ
Artist:Jin
ArtistUnicode:じん
Creator:[ Abhor ]
Version:Hard
Source:
Tags:
BeatmapID:1234382
BeatmapSetID:582419

[Difficulty]
HPDrainRate:5
CircleSize:4
OverallDifficulty:6
ApproachRate:8
SliderMultiplier:1.8
SliderTickRate:1

[Events]
//Background and Video events
0,0,"device.jpg",0,0
Video,-120,"deceive .flv"
//Break Periods
2,37634,44068
2,87480,101299
//Storyboard Layer 0 (Background)
//Storyboard Layer 1 (Fail)
//Storyboard Layer 2 (Pass)
//Storyboard Layer 3 (Foreground)
//Storyboard Sound Samples

[TimingPoints]
511,461.538461538462,4,2,0,70,1,0
22664,-100,4,2,0,55,0,0
59587,-100,4,2,0,55,0,0
72511,-100,4,2,0,80,0,0
73895,-100,4,2,0,45,0,0
74357,-100,4,2,0,75,0,1
87280,-100,4,2,0,60,0,0
102049,-100,4,2,0,55,0,0
116818,-100,4,2,0,40,0,0
129741,-100,4,2,0,80,0,0
131126,-100,4,2,0,45,0,0
131587,-100,4,2,0,75,0,1
144511,475.499869237536,4,2,0,75,1,0
156517,461.538461538462,4,2,0,45,1,0
156517,-200,4,2,0,45,0,0
159286,-100,4,2,0,75,0,1
173132,-100,4,2,0,60,0,0
174055,-100,4,2,0,55,0,0
174978,-100,4,2,0,75,0,0
187901,-100,4,2,0,80,0,0

[Colours]
Combo1 : 139,162,182
Combo2 : 234,219,198
Combo3 : 255,166,166
Combo4 : 164,191,147

[HitObjects]
112,52,6280,5,0,0:0:0:0:
269,89,6626,2,0,P|312:100|363:86,1,90
389,47,6972,1,0,0:0:0:0:
417,206,7318,1,0,0:0:0:0:
417,206,7434,2,0,L|410:268,1,45
364,276,7664,2,0,L|361:327,1,45
318,354,7895,6,0,P|275:341|221:353,1,90
123,357,8357,2,0,L|115:257,1,90
150,225,8703,2,0,P|154:175|101:111,1,135
51,128,9164,1,0,0:0:0:0:
51,128,9280,2,0,L|36:223,1,90
69,29,9741,5,0,0:0:0:0:
69,29,9972,1,0,0:0:0:0:
69,29,10203,2,0,L|169:34,1,90
196,72,10549,2,0,P|261:99|326:79,1,135
417,34,11126,2,0,L|423:139,1,90
456,258,11587,6,0,B|425:247|425:247|352:257,1,90
283,322,12049,2,0,B|226:329|226:329|195:318,1,90
183,265,12395,2,0,P|129:233|58:253,1,135
21,285,12857,1,0,0:0:0:0:
21,285,12972,2,0,L|14:380,1,90
31,168,13434,5,0,0:0:0:0:
31,168,13664,1,0,0:0:0:0:
31,168,13895,2,0,L|37:71,1,90
81,47,14241,2,0,P|146:73|222:51,1,135
312,34,14818,2,0,L|362:48,1,45
373,97,15049,2,0,L|422:109,1,45
445,153,15280,6,0,L|437:250,1,90
332,267,15741,2,0,P|284:254|233:272,1,90
213,306,16087,2,0,P|148:324|82:308,1,135
61,259,16549,1,0,0:0:0:0:
61,259,16664,2,0,L|54:157,1,90
141,34,17126,5,0,0:0:0:0:
141,34,17357,1,0,0:0:0:0:
141,34,17587,2,0,L|230:50,1,90
252,99,17934,2,0,P|318:76|383:102,1,135
450,176,18511,2,0,L|446:280,1,90
406,303,18857,1,0,0:0:0:0:
354,289,18972,6,0,P|307:281|257:290,1,90
169,337,19434,2,0,L|161:241,1,90
109,231,19780,2,0,P|95:176|114:86,1,135
150,67,20241,1,0,0:0:0:0:
150,67,20357,2,0,L|252:81,1,90
370,117,20818,6,0,P|329:120|278:206,1,135
359,196,21280,2,0,L|366:348,1,135
314,349,21741,2,0,L|252:342,1,45
228,308,21972,2,0,L|171:301,1,45
147,261,22203,2,0,P|90:270|46:268,1,90
36,85,22664,6,0,B|69:90|69:90|101:75|141:93,1,90
223,131,23126,2,0,L|316:124,1,90
361,147,23472,1,0,0:0:0:0:
361,147,23587,2,0,L|411:145,2,45
295,233,24049,1,0,0:0:0:0:
386,291,24280,1,0,0:0:0:0:
386,291,24395,1,0,0:0:0:0:
386,291,24511,6,0,P|354:324|306:338,1,90
207,339,24972,2,0,L|202:229,1,90
231,203,25318,2,0,B|232:151|232:151|219:122|219:122|221:69,1,135
322,33,25895,1,0,0:0:0:0:
322,33,26011,1,0,0:0:0:0:
322,33,26126,1,0,0:0:0:0:
437,95,26357,6,0,L|434:185,1,90
326,198,26818,2,0,L|335:291,1,90
345,340,27164,1,0,0:0:0:0:
345,340,27280,2,0,L|399:347,2,45
237,326,27741,1,0,0:0:0:0:
177,235,27972,1,0,0:0:0:0:
177,235,28087,1,0,0:0:0:0:
177,235,28203,6,0,P|128:250|82:248,1,90
54,146,28664,1,0,0:0:0:0:
54,146,28780,2,0,L|47:81,1,45
67,50,29011,2,0,P|134:75|204:52,1,135
296,27,29587,1,0,0:0:0:0:
296,27,29703,1,0,0:0:0:0:
296,27,29818,1,0,0:0:0:0:
393,98,30049,6,0,L|385:202,1,90
284,223,30511,2,0,L|295:315,1,90
305,365,30857,1,0,0:0:0:0:
305,365,30972,2,0,L|359:363,2,45
202,329,31434,1,0,0:0:0:0:
124,254,31664,1,0,0:0:0:0:
124,254,31780,1,0,0:0:0:0:
124,254,31895,6,0,L|116:152,1,90
221,69,32357,2,0,L|216:164,1,90
237,208,32703,2,0,P|301:224|377:209,1,135
398,109,33280,1,0,0:0:0:0:
398,109,33395,1,0,0:0:0:0:
398,109,33511,1,0,0:0:0:0:
479,224,33741,6,0,L|479:328,1,90
373,322,34203,2,0,P|331:335|279:325,1,90
243,294,34549,1,0,0:0:0:0:
243,294,34664,2,0,L|246:239,2,45
144,339,35126,1,0,0:0:0:0:
64,265,35357,1,0,0:0:0:0:
64,265,35472,1,0,0:0:0:0:
64,265,35587,5,0,0:0:0:0:
47,158,35818,1,0,0:0:0:0:
158,252,36049,1,0,0:0:0:0:
158,252,36164,2,0,L|158:195,1,45
159,152,36395,2,0,P|225:133|296:157,1,135
328,185,36857,1,0,0:0:0:0:
328,185,36972,2,0,L|398:183,1,45
401,229,37203,2,0,L|459:225,1,45
490,256,37434,5,0,0:0:0:0:
444,68,44818,6,0,L|340:62,1,90
263,123,45280,2,0,P|220:112|163:125,1,90
142,162,45626,1,0,0:0:0:0:
142,162,45741,2,0,L|146:222,2,45
72,78,46203,1,0,0:0:0:0:
54,184,46434,1,0,0:0:0:0:
54,184,46549,1,0,0:0:0:0:
54,184,46664,6,0,P|61:247|95:281,1,90
180,297,47126,2,0,L|280:293,1,90
313,325,47472,2,0,P|380:342|451:320,1,135
489,227,48049,1,0,0:0:0:0:
489,227,48164,1,0,0:0:0:0:
489,227,48280,1,0,0:0:0:0:
361,222,48511,6,0,L|350:122,1,90
402,37,48972,2,0,P|356:25|310:34,1,90
276,70,49318,1,0,0:0:0:0:
276,70,49434,2,0,L|271:127,2,45
174,32,49895,1,0,0:0:0:0:
83,90,50126,1,0,0:0:0:0:
83,90,50241,1,0,0:0:0:0:
83,90,50357,5,0,0:0:0:0:
80,197,50587,1,0,0:0:0:0:
174,32,50818,1,0,0:0:0:0:
174,32,50934,2,0,L|178:93,1,45
183,130,51164,2,0,P|219:189|289:202,1,135
356,128,51741,1,0,0:0:0:0:
356,128,51857,1,0,0:0:0:0:
356,128,51972,1,0,0:0:0:0:
386,249,52203,6,0,L|382:351,1,90
277,313,52664,2,0,B|253:302|253:302|171:317,1,90
137,328,53011,1,0,0:0:0:0:
137,328,53126,2,0,L|74:339,2,45
178,228,53587,1,0,0:0:0:0:
96,156,53818,1,0,0:0:0:0:
96,156,53934,1,0,0:0:0:0:
96,156,54049,6,0,L|86:55,1,90
190,32,54511,1,0,0:0:0:0:
190,32,54626,2,0,L|252:41,1,45
270,78,54857,2,0,P|334:62|406:80,1,135
464,226,55434,1,0,0:0:0:0:
464,226,55549,1,0,0:0:0:0:
464,226,55664,1,0,0:0:0:0:
368,175,55895,6,0,L|359:274,1,90
258,336,56357,2,0,L|251:239,1,90
246,192,56703,1,0,0:0:0:0:
246,192,56818,2,0,L|244:132,2,45
165,265,57280,1,0,0:0:0:0:
77,202,57511,1,0,0:0:0:0:
77,202,57626,1,0,0:0:0:0:
77,202,57741,5,0,0:0:0:0:
77,310,57972,1,0,0:0:0:0:
151,150,58203,1,0,0:0:0:0:
151,150,58318,2,0,L|148:84,1,45
142,51,58549,2,0,L|295:64,1,135
320,93,59011,1,0,0:0:0:0:
320,93,59126,2,0,L|373:88,1,45
387,138,59357,2,0,L|447:133,1,45
479,160,59587,6,0,P|491:221|477:297,2,135
328,220,60626,2,0,P|278:229|231:223,1,90
200,187,60972,2,0,P|152:181|103:189,1,90
16,266,61434,6,0,L|6:108,2,135
224,322,62587,1,0,0:0:0:0:
311,259,62818,2,0,L|375:253,2,45
263,231,63164,6,0,P|250:161|266:89,1,135
355,44,63741,1,0,0:0:0:0:
447,99,63972,1,0,0:0:0:0:
447,99,64087,2,0,L|441:196,1,90
435,243,64434,1,0,0:0:0:0:
365,325,64664,1,0,0:0:0:0:
260,297,64895,1,0,0:0:0:0:
156,326,65126,6,0,P|110:319|66:326,2,90
260,297,65818,2,0,B|254:254|254:254|263:214|263:214|252:172|252:172|261:113,1,180
353,67,66511,1,0,0:0:0:0:
353,67,66741,1,0,0:0:0:0:
471,163,66972,6,0,P|414:151|332:169,2,135
447,323,68011,2,0,P|437:276|399:250,1,90
351,261,68357,2,0,P|311:275|260:267,1,90
165,184,68818,6,0,L|152:331,1,135
45,318,69395,1,0,0:0:0:0:
45,318,69511,2,0,L|30:180,1,135
25,130,69972,1,0,0:0:0:0:
95,47,70203,2,0,L|149:56,1,45
184,84,70434,2,0,L|235:93,1,45
266,129,70664,6,0,P|318:140|367:136,1,90
397,104,71011,1,0,0:0:0:0:
397,104,71126,1,0,0:0:0:0:
452,197,71357,1,0,0:0:0:0:
452,197,71472,2,0,P|458:253|447:297,1,90
418,329,71818,1,0,0:0:0:0:
325,273,72049,2,0,L|261:276,1,45
236,307,72280,2,0,L|183:309,1,45
146,339,72511,5,0,0:0:0:0:
56,203,72857,1,0,0:0:0:0:
155,74,73203,1,0,0:0:0:0:
302,141,73549,1,0,0:0:0:0:
302,141,73895,6,0,P|337:136|378:145,1,67.5000025749208
454,207,74357,5,0,0:0:0:0:
352,241,74587,1,0,0:0:0:0:
433,312,74818,1,0,0:0:0:0:
332,351,75049,1,0,0:0:0:0:
332,351,75164,2,0,P|281:325|238:326,1,90
195,334,75511,1,0,0:0:0:0:
89,353,75741,2,0,L|86:253,1,90
157,181,76203,5,0,0:0:0:0:
51,156,76434,1,0,0:0:0:0:
66,49,76664,1,0,0:0:0:0:
171,72,76895,1,0,0:0:0:0:
171,72,77011,2,0,P|218:87|269:83,1,90
310,70,77357,1,0,0:0:0:0:
409,29,77587,2,0,L|405:126,1,90
322,188,78049,5,0,0:0:0:0:
422,227,78280,1,0,0:0:0:0:
341,299,78511,2,0,L|350:345,2,45
293,273,78857,2,0,P|237:296|155:273,1,135
75,225,79434,1,0,0:0:0:0:
61,118,79664,1,0,0:0:0:0:
205,49,79895,5,0,0:0:0:0:
165,149,80126,1,0,0:0:0:0:
61,118,80357,1,0,0:0:0:0:
205,49,80587,2,0,P|254:62|309:52,1,90
400,43,81049,1,0,0:0:0:0:
366,145,81280,2,0,L|371:197,1,45
415,219,81511,2,0,L|424:276,1,45
459,301,81741,5,0,0:0:0:0:
352,317,81972,1,0,0:0:0:0:
263,254,82203,1,0,0:0:0:0:
175,316,82434,1,0,0:0:0:0:
175,316,82549,2,0,L|161:211,1,90
156,172,82895,1,0,0:0:0:0:
63,115,83126,1,0,0:0:0:0:
57,222,83357,1,0,0:0:0:0:
63,115,83587,6,0,P|56:69|74:22,1,90
163,82,84049,2,0,L|164:129,2,45
200,42,84395,2,0,P|252:36|298:51,1,90
332,77,84741,1,0,0:0:0:0:
424,133,84972,1,0,0:0:0:0:
424,133,85087,2,0,L|423:198,1,45
375,275,85434,6,0,P|325:267|264:285,1,90
189,321,85895,1,0,0:0:0:0:
189,321,86011,2,0,L|137:320,1,45
93,339,86241,2,0,L|84:236,1,90
46,210,86587,2,0,L|45:156,1,45
85,128,86818,2,0,L|89:73,1,45
137,60,87049,2,0,L|149:12,1,45
202,12,87280,5,0,0:0:0:0:
55,328,102049,6,0,L|160:320,1,90
230,254,102511,2,0,P|268:266|328:261,1,90
348,219,102857,1,0,0:0:0:0:
348,219,102972,2,0,L|346:161,2,45
424,295,103434,1,0,0:0:0:0:
454,191,103664,1,0,0:0:0:0:
454,191,103780,1,0,0:0:0:0:
454,191,103895,6,0,L|460:92,1,90
361,53,104357,2,0,P|311:67|257:60,1,90
222,46,104703,2,0,P|151:27|79:52,1,135
148,207,105280,2,0,L|155:102,1,90
67,263,105741,6,0,L|76:352,1,90
177,314,106203,2,0,P|223:307|274:318,1,90
310,344,106549,1,0,0:0:0:0:
310,344,106664,2,0,L|371:350,2,45
292,236,107126,1,0,0:0:0:0:
377,169,107357,1,0,0:0:0:0:
377,169,107472,6,0,P|372:93|428:58,1,135
472,213,108049,2,0,L|474:314,1,90
434,340,108395,2,0,P|386:323|330:328,1,90
239,333,108857,2,0,P|189:342|147:333,1,90
115,293,109203,1,0,0:0:0:0:
166,198,109434,6,0,L|171:107,1,90
263,28,109895,2,0,L|271:117,1,90
310,155,110241,2,0,P|372:137|440:157,1,135
444,263,110818,1,0,0:0:0:0:
341,296,111049,1,0,0:0:0:0:
341,296,111164,6,0,P|272:274|201:303,1,135
112,326,111741,2,0,L|105:226,1,90
146,200,112087,2,0,B|144:151|144:151|129:112|129:112|128:57,1,135
228,28,112664,1,0,0:0:0:0:
228,28,112780,1,0,0:0:0:0:
228,28,112895,1,0,0:0:0:0:
343,98,113126,6,0,P|389:88|437:99,1,90
406,201,113587,2,0,L|400:300,1,90
396,345,113934,1,0,0:0:0:0:
396,345,114049,2,0,L|451:353,2,45
309,279,114511,1,0,0:0:0:0:
213,329,114741,1,0,0:0:0:0:
213,329,114857,6,0,P|165:313|76:339,1,135
63,226,115434,1,0,0:0:0:0:
63,226,115549,2,0,L|58:158,1,45
101,146,115780,2,0,P|100:87|164:39,1,135
200,67,116241,2,0,P|263:88|331:66,1,135
432,46,116818,6,0,L|424:192,2,135
326,68,117741,2,0,L|320:169,1,90
354,260,118203,2,0,P|394:282|443:282,1,90
250,229,118664,6,0,P|202:219|157:234,1,90
69,283,119126,1,0,0:0:0:0:
69,283,119241,1,0,0:0:0:0:
69,283,119357,2,0,L|64:181,1,90
145,120,119818,1,0,0:0:0:0:
231,55,120049,2,0,L|291:66,2,45
145,120,120511,6,0,L|248:144,1,90
339,126,120972,2,0,P|384:116|437:126,1,90
480,216,121434,1,0,0:0:0:0:
480,216,121664,1,0,0:0:0:0:
386,270,121895,1,0,0:0:0:0:
386,270,122126,1,0,0:0:0:0:
290,219,122357,6,0,P|224:215|187:226,1,90
137,307,122818,1,0,0:0:0:0:
66,225,123049,2,0,L|58:118,1,90
59,135,123741,1,0,0:0:0:0:
130,53,123972,1,0,0:0:0:0:
236,72,124203,6,0,P|300:85|385:68,2,135
457,40,125241,2,0,L|459:138,1,90
418,165,125587,2,0,L|424:264,1,90
338,322,126049,6,0,B|303:306|303:306|271:317|225:309,1,90
208,279,126395,2,0,P|161:271|112:285,1,90
84,321,126741,2,0,L|67:216,1,90
135,145,127203,1,0,0:0:0:0:
135,145,127318,1,0,0:0:0:0:
135,145,127434,2,0,L|125:92,2,45
186,162,127780,6,0,B|228:180|228:180|268:147|321:158,1,135
295,263,128357,1,0,0:0:0:0:
393,220,128587,1,0,0:0:0:0:
393,220,128703,2,0,P|437:226|472:258,1,90
464,309,129049,1,0,0:0:0:0:
366,356,129280,2,0,L|302:351,1,45
268,338,129511,2,0,L|209:331,1,45
179,301,129741,5,0,0:0:0:0:
70,180,130087,1,0,0:0:0:0:
148,37,130434,1,0,0:0:0:0:
297,99,130780,1,0,0:0:0:0:
297,99,131126,6,0,L|380:96,1,67.5000025749208
457,151,131587,5,0,0:0:0:0:
459,42,131818,1,0,0:0:0:0:
364,96,132049,1,0,0:0:0:0:
361,204,132280,1,0,0:0:0:0:
361,204,132395,2,0,P|394:234|461:241,1,90
491,243,132741,1,0,0:0:0:0:
425,329,132972,2,0,L|333:328,1,90
267,242,133434,5,0,0:0:0:0:
196,323,133664,1,0,0:0:0:0:
126,240,133895,1,0,0:0:0:0:
47,314,134126,1,0,0:0:0:0:
47,314,134241,2,0,L|36:209,1,90
28,171,134587,1,0,0:0:0:0:
111,102,134818,2,0,L|107:38,2,45
202,160,135280,5,0,0:0:0:0:
290,97,135511,1,0,0:0:0:0:
372,166,135741,2,0,L|420:165,2,45
324,192,136087,2,0,P|300:256|329:324,1,135
487,266,136664,2,0,L|382:253,1,90
212,311,137126,5,0,0:0:0:0:
130,240,137357,1,0,0:0:0:0:
48,310,137587,1,0,0:0:0:0:
127,139,137818,2,0,L|120:37,1,90
225,20,138280,1,0,0:0:0:0:
289,106,138511,2,0,L|340:103,1,45
348,155,138741,2,0,L|400:152,1,45
440,178,138972,5,0,0:0:0:0:
384,270,139203,1,0,0:0:0:0:
276,284,139434,1,0,0:0:0:0:
188,221,139664,1,0,0:0:0:0:
188,221,139780,2,0,P|141:210|92:225,1,90
64,259,140126,1,0,0:0:0:0:
39,153,140357,2,0,L|31:98,2,45
64,259,140818,6,0,P|60:308|83:355,1,90
177,307,141280,1,0,0:0:0:0:
177,307,141395,2,0,L|235:317,1,45
270,291,141626,2,0,P|313:299|369:286,1,90
403,260,141972,1,0,0:0:0:0:
508,234,142203,2,0,L|510:297,2,45
466,198,142549,6,0,P|441:140|459:63,1,135
349,42,143126,1,0,0:0:0:0:
349,42,143241,2,0,L|294:44,1,45
265,82,143472,2,0,P|222:94|171:80,1,90
132,55,143818,2,0,L|121:121,1,45
81,132,144049,2,0,L|76:187,1,45
49,223,144280,2,0,L|53:276,1,45
84,311,144511,6,0,P|144:297|181:315,1,90
327,336,145105,2,0,P|395:343|453:309,1,135
351,182,145818,2,0,L|363:44,1,135
330,31,146254,6,0,B|301:47|262:41|262:41|221:34|182:57,1,135
226,157,146829,2,0,L|222:213,2,45
178,131,147185,2,0,P|127:121|77:139,1,90
61,176,147542,1,0,0:0:0:0:
89,280,147780,6,0,P|122:315|164:323,1,90
214,314,148136,2,0,L|318:287,1,90
354,279,148493,1,0,0:0:0:0:
418,105,148790,6,0,P|377:89|319:100,1,90
251,101,149206,2,0,P|201:117|155:107,1,90
92,73,149622,2,0,L|86:177,1,90
81,243,150038,6,0,P|77:300|98:341,1,90
142,315,150395,2,0,P|200:300|281:323,1,135
376,343,150989,2,0,L|383:240,1,90
317,166,151465,6,0,P|297:128|295:76,1,90
298,27,151821,2,0,P|256:16|193:51,1,112.5
155,116,152297,2,0,L|74:121,1,67.5
33,214,152713,1,0,0:0:0:0:
98,300,152951,2,0,L|155:307,1,45
220,283,153248,1,0,0:0:0:0:
163,190,153486,2,0,L|104:182,2,45
220,283,153961,5,0,0:0:0:0:
314,230,154199,2,0,L|317:182,2,45
376,301,154645,1,0,0:0:0:0:
456,211,154912,2,0,L|459:167,1,45
444,127,155120,6,0,P|409:112|386:58,1,90
344,31,155477,2,0,P|298:48|235:40,1,112.5
114,43,156041,2,0,L|110:140,1,90
182,254,156517,6,0,B|176:197|176:197|198:177|203:143|203:143|231:156|276:141,1,180
207,188,158363,2,0,P|264:222|335:212,1,135
284,116,159286,5,0,0:0:0:0:
180,83,159517,1,0,0:0:0:0:
267,19,159747,1,0,0:0:0:0:
368,56,159978,1,0,0:0:0:0:
368,56,160093,2,0,P|400:103|438:120,1,90
482,125,160440,1,0,0:0:0:0:
432,220,160670,2,0,L|437:313,1,90
332,339,161132,5,0,0:0:0:0:
247,271,161363,1,0,0:0:0:0:
163,338,161593,1,0,0:0:0:0:
163,338,161709,2,0,L|110:331,1,45
66,316,161940,2,0,L|59:215,1,90
58,171,162286,1,0,0:0:0:0:
155,125,162517,2,0,L|155:185,2,45
96,34,162978,6,0,P|141:17|202:28,1,90
267,86,163440,1,0,0:0:0:0:
352,151,163670,1,0,0:0:0:0:
352,151,163786,2,0,L|358:54,1,90
362,7,164132,1,0,0:0:0:0:
447,73,164363,2,0,L|439:171,1,90
388,257,164824,5,0,0:0:0:0:
496,254,165055,1,0,0:0:0:0:
439,162,165286,1,0,0:0:0:0:
447,347,165517,1,0,0:0:0:0:
447,347,165632,1,0,0:0:0:0:
447,347,165747,2,0,L|404:351,5,30
388,257,166209,2,0,L|342:256,5,30
439,162,166670,6,0,P|437:111|447:72,1,90
345,33,167132,1,0,0:0:0:0:
257,97,167363,1,0,0:0:0:0:
257,97,167478,2,0,L|149:91,1,90
113,84,167824,1,0,0:0:0:0:
99,191,168055,2,0,L|164:203,2,45
15,121,168517,5,0,0:0:0:0:
2,227,168747,1,0,0:0:0:0:
79,302,168978,1,0,0:0:0:0:
79,302,169093,2,0,L|136:312,1,45
176,298,169324,2,0,P|236:286|273:295,1,90
312,314,169670,1,0,0:0:0:0:
409,360,169901,1,0,0:0:0:0:
409,360,170017,2,0,L|413:295,1,45
487,238,170363,6,0,L|480:135,1,90
414,62,170824,1,0,0:0:0:0:
414,62,170940,2,0,L|355:64,1,45
325,94,171170,2,0,P|271:108|223:99,1,90
213,55,171517,2,0,L|155:51,1,45
126,86,171747,2,0,P|69:91|29:129,1,90
52,162,172093,6,0,P|45:215|64:263,1,90
109,241,172440,2,0,L|117:303,1,45
168,285,172670,2,0,L|184:336,1,45
234,316,172901,2,0,L|265:355,1,45
316,345,173132,5,0,0:0:0:0:
426,66,174055,6,0,L|422:115,5,30
345,127,174517,2,0,L|351:174,5,30
276,207,174978,6,0,P|289:248|280:298,1,90
179,257,175440,2,0,P|132:269|91:258,1,90
60,214,175786,2,0,L|56:118,1,90
53,69,176132,1,0,0:0:0:0:
160,74,176363,2,0,L|163:177,1,90
258,213,176824,6,0,P|256:264|280:306,1,90
380,312,177286,2,0,P|375:262|402:224,1,90
449,226,177632,2,0,L|458:126,1,90
461,82,177978,1,0,0:0:0:0:
361,39,178209,2,0,L|411:29,2,45
271,99,178670,5,0,0:0:0:0:
174,50,178901,1,0,0:0:0:0:
83,109,179132,1,0,0:0:0:0:
180,156,179363,1,0,0:0:0:0:
180,156,179478,2,0,P|196:206|188:249,1,90
156,284,179824,1,0,0:0:0:0:
63,228,180055,2,0,L|60:184,2,45
64,336,180517,5,0,0:0:0:0:
156,284,180747,1,0,0:0:0:0:
248,340,180978,2,0,L|193:351,2,45
372,332,181440,6,0,L|369:274,1,45
420,270,181670,2,0,L|422:216,1,45
457,184,181901,2,0,L|454:130,1,45
483,93,182132,2,0,L|484:35,1,45
434,25,182363,6,0,P|378:41|335:32,1,90
249,82,182824,2,0,P|189:74|150:85,1,90
140,130,183170,2,0,L|147:244,1,90
149,274,183517,1,0,0:0:0:0:
253,250,183747,2,0,L|248:193,2,45
225,355,184209,6,0,P|284:345|324:353,1,90
421,352,184670,2,0,L|424:254,1,90
378,164,185132,2,0,L|369:112,2,45
485,173,185593,2,0,L|495:123,2,45
423,262,186055,6,0,L|319:255,1,90
233,298,186517,2,0,L|229:354,2,45
189,265,186863,2,0,P|167:215|173:166,1,90
187,129,187209,1,0,0:0:0:0:
268,56,187440,2,0,L|326:59,1,45
349,97,187670,2,0,L|405:100,1,45
436,133,187901,5,0,0:0:0:0:
398,290,188247,1,0,0:0:0:0:
273,185,188593,1,0,0:0:0:0:
398,290,188940,1,0,0:0:0:0:
241,330,189286,6,0,L|194:330,1,45
160,289,189517,2,0,L|104:289,1,45
72,255,189747,5,0,0:0:0:0:
43,95,190093,1,0,0:0:0:0:
194,154,190440,1,0,0:0:0:0:
72,255,190786,1,0,0:0:0:0:
43,95,191132,2,0,L|99:82,1,45
125,47,191363,2,0,L|179:56,1,45
256,192,191593,12,0,192517,0:0:0:0:
