osu file format v14

[General]
AudioFilename: audio.mp3
AudioLeadIn: 0
PreviewTime: 73895
Countdown: 0
SampleSet: Soft
StackLeniency: 0.7
Mode: 0
LetterboxInBreaks: 0
WidescreenStoryboard: 0

[Editor]
Bookmarks: 6294,22678,44832,85318,144525,174063
DistanceSpacing: 0.7
BeatDivisor: 4
GridSize: 8
TimelineZoom: 2.7

[Metadata]
Title:Yobanashi Deceive
TitleUnicode:夜咄ディセイブ
Artist:Jin
ArtistUnicode:じん
Creator:[ Abhor ]
Version:Deceive
Source:
Tags:
BeatmapID:1232522
BeatmapSetID:582419

[Difficulty]
HPDrainRate:5.5
CircleSize:4.3
OverallDifficulty:8.3
ApproachRate:9.2
SliderMultiplier:2.8
SliderTickRate:1

[Events]
//Background and Video events
0,0,"device.jpg",0,0
Video,-120,"deceive .flv"
//Break Periods
2,37634,44248
2,87480,101479
//Storyboard Layer 0 (Background)
//Storyboard Layer 1 (Fail)
//Storyboard Layer 2 (Pass)
//Storyboard Layer 3 (Foreground)
//Storyboard Sound Samples

[TimingPoints]
511,461.538461538462,4,2,0,70,1,0
22664,-100,4,2,0,55,0,0
59587,-133.333333333333,4,2,0,55,0,0
72511,-83.3333333333333,4,2,0,80,0,0
73895,-133.333333333333,4,2,0,45,0,0
74357,-100,4,2,0,75,0,1
87280,-100,4,2,0,60,0,0
102049,-100,4,2,0,55,0,0
116818,-133.333333333333,4,2,0,40,0,0
129741,-83.3333333333333,4,2,0,80,0,0
131126,-133.333333333333,4,2,0,45,0,0
131587,-100,4,2,0,75,0,1
144511,475.499869237536,4,2,0,75,1,0
156517,461.538461538462,4,2,0,45,1,0
156517,-200,4,2,0,45,0,0
159286,-100,4,2,0,75,0,1
173132,-100,4,2,0,60,0,0
174055,-100,4,2,0,55,0,0
174978,-100,4,2,0,75,0,0
187901,-100,4,2,0,80,0,0

[Colours]
Combo1 : 139,162,182
Combo2 : 234,219,198
Combo3 : 255,166,166
Combo4 : 164,191,147

[HitObjects]
68,53,6280,5,0,0:0:0:0:
68,53,6626,2,0,P|53:123|94:177,1,140
210,105,6972,2,0,L|139:102,2,70
275,168,7318,1,0,0:0:0:0:
319,189,7434,1,0,0:0:0:0:
367,195,7549,1,0,0:0:0:0:
415,186,7664,1,0,0:0:0:0:
452,154,7780,1,0,0:0:0:0:
456,105,7895,6,0,L|465:251,1,140
464,244,8357,2,0,L|470:317,2,70
366,282,8703,2,0,P|289:292|236:259,1,140
319,189,9049,2,0,P|311:140|311:120,1,70
193,64,9280,1,0,0:0:0:0:
193,64,9395,1,0,0:0:0:0:
193,64,9511,2,0,P|200:115|196:145,1,70
120,20,9741,5,0,0:0:0:0:
319,189,9972,1,0,0:0:0:0:
127,257,10203,2,0,P|91:253|44:265,2,70
122,138,10549,2,0,P|161:151|265:134,1,140
317,9,10895,1,0,0:0:0:0:
317,9,11011,1,0,0:0:0:0:
317,9,11126,2,0,L|319:92,1,70
371,210,11357,2,0,L|375:125,1,70
441,264,11587,6,0,P|366:246|299:278,1,140
309,268,12049,2,0,L|319:340,2,70
238,206,12395,2,0,P|170:229|105:209,1,140
48,73,12741,1,0,0:0:0:0:
48,73,12857,1,0,0:0:0:0:
48,73,12972,2,0,L|42:152,1,70
110,279,13203,2,0,L|105:196,1,70
48,345,13434,5,0,0:0:0:0:
300,354,13664,1,0,0:0:0:0:
48,345,13895,2,0,P|113:321|188:340,1,140
300,354,14241,2,0,L|310:200,1,140
409,97,14587,1,0,0:0:0:0:
409,97,14703,1,0,0:0:0:0:
409,97,14818,2,0,P|416:145|399:180,1,70
232,151,15049,1,0,0:0:0:0:
232,151,15164,1,0,0:0:0:0:
232,151,15280,6,0,L|74:164,1,140
92,162,15741,2,0,P|82:203|90:239,2,70
179,63,16087,2,0,L|25:77,1,140
7,207,16434,1,0,0:0:0:0:
7,207,16549,1,0,0:0:0:0:
7,207,16664,2,0,P|8:247|26:284,1,70
161,308,16895,2,0,P|124:299|88:308,1,70
232,358,17126,5,0,0:0:0:0:
472,335,17357,1,0,0:0:0:0:
232,358,17587,2,0,P|277:303|353:301,1,140
472,335,17934,2,0,L|475:190,1,140
388,80,18280,1,0,0:0:0:0:
388,80,18395,1,0,0:0:0:0:
388,80,18511,2,0,L|387:165,1,70
251,204,18741,1,0,0:0:0:0:
251,204,18857,1,0,0:0:0:0:
251,204,18972,6,0,L|253:55,1,140
252,64,19434,2,0,P|202:69|177:64,2,70
366,39,19780,2,0,L|364:188,1,140
435,304,20126,1,0,0:0:0:0:
435,304,20241,1,0,0:0:0:0:
435,304,20357,2,0,P|393:293|352:305,1,70
213,333,20587,2,0,P|254:339|284:333,1,70
149,257,20818,6,0,L|69:266,2,70
206,194,21164,1,0,0:0:0:0:
151,129,21280,2,0,P|81:130|36:65,1,140
118,52,21626,1,0,0:0:0:0:
200,68,21741,6,0,L|287:72,1,70
460,97,21972,2,0,L|379:102,1,70
206,194,22203,2,0,L|290:197,1,70
457,265,22434,2,0,L|376:270,1,70
206,332,22664,6,0,B|179:315|179:315|152:323|152:323|116:305|67:325,1,140
74,322,23126,2,0,L|66:250,1,70
206,194,23357,1,0,0:0:0:0:
206,194,23472,1,0,0:0:0:0:
109,174,23587,2,0,P|89:141|88:105,2,70
335,177,24049,1,0,0:0:0:0:
335,177,24280,1,0,0:0:0:0:
335,177,24395,1,0,0:0:0:0:
335,177,24511,6,0,B|382:171|382:171|421:183|421:183|474:176,1,140
472,176,24972,2,0,L|478:107,1,70
293,38,25203,1,0,0:0:0:0:
214,83,25318,2,0,P|150:62|73:98,1,140
152,155,25664,1,0,0:0:0:0:
152,155,25895,1,0,0:0:0:0:
152,155,26011,1,0,0:0:0:0:
152,155,26126,2,0,L|146:231,1,70
179,324,26357,6,0,B|144:336|108:323|108:323|71:308|34:327,1,140
42,323,26818,2,0,L|36:251,1,70
152,155,27049,1,0,0:0:0:0:
152,155,27164,1,0,0:0:0:0:
53,163,27280,2,0,P|46:127|49:88,2,70
289,127,27741,1,0,0:0:0:0:
289,127,27972,1,0,0:0:0:0:
289,127,28087,1,0,0:0:0:0:
289,127,28203,6,0,B|341:115|341:115|437:131,1,140
444,211,28549,1,0,0:0:0:0:
382,267,28664,2,0,P|375:305|383:340,2,70
444,211,29011,2,0,L|461:56,1,140
304,34,29357,1,0,0:0:0:0:
304,34,29587,1,0,0:0:0:0:
304,34,29703,1,0,0:0:0:0:
304,34,29818,2,0,L|228:38,1,70
63,63,30049,6,0,P|41:136|85:203,1,140
68,189,30511,2,0,L|154:197,1,70
231,293,30741,1,0,0:0:0:0:
231,293,30857,1,0,0:0:0:0:
143,281,30972,2,0,L|59:292,2,70
358,248,31434,1,0,0:0:0:0:
358,248,31664,1,0,0:0:0:0:
358,248,31780,1,0,0:0:0:0:
358,248,31895,6,0,P|421:225|498:254,1,140
488,245,32357,2,0,L|506:168,2,70
427,319,32703,2,0,P|359:344|286:317,1,140
280,174,33049,2,0,L|275:258,1,70
139,328,33280,1,0,0:0:0:0:
139,328,33395,1,0,0:0:0:0:
139,328,33511,2,0,L|133:248,1,70
98,148,33741,6,0,B|80:99|88:35|88:35|130:46,1,140
112,41,34203,2,0,P|146:52|185:50,1,70
333,30,34434,1,0,0:0:0:0:
333,30,34549,1,0,0:0:0:0:
267,104,34664,2,0,P|257:147|259:177,2,70
461,69,35126,1,0,0:0:0:0:
461,69,35357,1,0,0:0:0:0:
461,69,35472,1,0,0:0:0:0:
461,69,35587,5,0,0:0:0:0:
392,309,35818,1,0,0:0:0:0:
392,309,35934,1,0,0:0:0:0:
392,309,36049,2,0,P|348:298|299:309,1,70
130,339,36280,1,0,0:0:0:0:
130,339,36395,1,0,0:0:0:0:
130,339,36511,2,0,L|118:251,1,70
223,205,36741,1,0,0:0:0:0:
223,205,36857,1,0,0:0:0:0:
223,205,36972,2,0,L|222:283,2,70
158,150,37318,1,0,0:0:0:0:
80,184,37434,5,0,0:0:0:0:
47,66,44818,6,0,B|80:59|108:69|108:69|126:62|126:62|154:76|190:61,1,140
183,63,45280,2,0,L|255:82,1,70
342,171,45511,1,0,0:0:0:0:
342,171,45626,1,0,0:0:0:0:
250,170,45741,2,0,L|174:179,2,70
482,160,46203,1,0,0:0:0:0:
482,160,46434,1,0,0:0:0:0:
482,160,46549,1,0,0:0:0:0:
482,160,46664,6,0,L|472:236,1,70
376,343,46895,2,0,L|366:272,1,70
250,170,47126,2,0,L|239:260,2,70
333,52,47472,2,0,P|262:62|188:53,1,140
38,40,47818,2,0,P|82:36|107:40,1,70
129,201,48049,1,0,0:0:0:0:
129,201,48164,1,0,0:0:0:0:
129,201,48280,2,0,L|120:279,1,70
215,381,48511,6,0,B|205:310|205:310|239:325|278:312,1,140
271,313,48972,2,0,P|309:307|349:315,1,70
480,363,49203,1,0,0:0:0:0:
480,363,49318,1,0,0:0:0:0:
427,275,49434,2,0,L|424:201,2,70
483,119,49895,2,0,L|327:130,1,140
183,125,50241,1,0,0:0:0:0:
183,125,50357,6,0,P|197:166|194:213,1,70
70,286,50588,2,0,P|99:269|142:264,1,70
260,333,50819,2,0,P|238:309|223:270,2,70
424,330,51164,2,0,L|438:178,1,140
417,68,51511,1,0,0:0:0:0:
417,68,51626,2,0,P|364:81|267:67,1,140
159,23,51972,1,0,0:0:0:0:
94,293,52203,6,0,B|105:254|90:221|90:221|73:182|91:141,1,140
85,155,52664,2,0,L|155:150,1,70
266,268,52895,1,0,0:0:0:0:
266,268,53011,1,0,0:0:0:0:
241,184,53126,2,0,L|238:107,2,70
367,347,53587,1,0,0:0:0:0:
367,347,53818,1,0,0:0:0:0:
367,347,53934,1,0,0:0:0:0:
367,347,54049,6,0,B|438:359|438:359|512:334,1,140
494,235,54395,1,0,0:0:0:0:
424,186,54511,2,0,L|424:107,2,70
494,235,54857,2,0,P|429:217|359:257,1,140
272,357,55203,1,0,0:0:0:0:
272,357,55434,2,0,P|255:323|259:274,2,70
260,207,55895,6,0,B|204:222|204:222|107:206,1,140
123,208,56357,2,0,L|114:135,1,70
221,54,56587,1,0,0:0:0:0:
221,54,56703,1,0,0:0:0:0:
133,47,56818,2,0,P|98:47|61:63,2,70
346,92,57280,1,0,0:0:0:0:
346,92,57511,1,0,0:0:0:0:
346,92,57626,1,0,0:0:0:0:
346,92,57741,6,0,L|429:86,1,70
501,183,57972,2,0,L|412:178,1,70
338,277,58203,1,0,0:0:0:0:
338,277,58318,2,0,L|329:202,1,70
210,144,58549,1,0,0:0:0:0:
210,144,58664,6,0,L|202:213,1,70
262,356,58895,2,0,P|261:313|248:279,1,70
101,346,59126,1,0,0:0:0:0:
120,301,59241,1,0,0:0:0:0:
118,251,59357,1,0,0:0:0:0:
97,206,59472,1,0,0:0:0:0:
62,175,59587,6,0,P|38:103|93:32,2,157.500006008148
275,105,60626,1,0,0:0:0:0:
301,129,60741,1,0,0:0:0:0:
334,144,60857,1,0,0:0:0:0:
370,148,60972,2,0,L|384:88,1,52.5000020027161
448,188,61203,2,0,L|455:249,1,52.5000020027161
370,328,61434,6,0,B|317:311|317:311|268:339|201:322,2,157.500006008148
92,276,62472,1,0,0:0:0:0:
92,276,62587,2,0,L|85:211,1,52.5000020027161
184,82,62818,1,0,0:0:0:0:
155,104,62934,1,0,0:0:0:0:
120,116,63049,1,0,0:0:0:0:
83,120,63164,1,0,0:0:0:0:
47,111,63280,6,0,P|121:114|187:174,2,157.500006008148
49,213,64087,2,0,L|57:325,1,105.000004005432
149,344,64434,2,0,L|213:343,1,52.5000020027161
289,243,64664,1,0,0:0:0:0:
312,271,64780,1,0,0:0:0:0:
343,289,64895,1,0,0:0:0:0:
378,298,65011,1,0,0:0:0:0:
414,298,65126,6,0,L|431:133,2,157.500006008148
256,334,66049,2,0,L|195:344,1,52.5000020027161
141,268,66280,2,0,L|94:267,2,35.0000013351441
204,214,66511,1,0,0:0:0:0:
184,182,66626,1,0,0:0:0:0:
180,145,66741,1,0,0:0:0:0:
183,108,66857,1,0,0:0:0:0:
202,76,66972,6,0,P|285:95|361:68,2,157.500006008148
461,40,68011,1,0,0:0:0:0:
442,71,68126,1,0,0:0:0:0:
437,107,68241,1,0,0:0:0:0:
443,143,68357,2,0,L|454:209,1,52.5000020027161
371,261,68587,2,0,L|364:320,1,52.5000020027161
211,316,68818,6,0,B|177:302|177:302|92:312,1,105.000004005432
31,360,69164,2,0,P|17:299|37:252,1,105.000004005432
125,201,69511,2,0,B|192:193|192:193|226:207,1,105.000004005432
319,276,69857,1,0,0:0:0:0:
320,239,69972,1,0,0:0:0:0:
321,202,70087,1,0,0:0:0:0:
324,165,70203,2,0,L|326:96,1,52.5000020027161
444,51,70434,2,0,L|440:124,1,52.5000020027161
257,57,70664,6,0,P|201:44|143:63,1,105.000004005432
112,130,71011,1,0,0:0:0:0:
112,130,71126,2,0,P|125:175|103:242,1,105.000004005432
31,277,71472,2,0,P|66:311|128:321,1,105.000004005432
248,263,71818,2,0,L|183:270,1,52.5000020027161
316,320,72049,1,0,0:0:0:0:
347,300,72164,1,0,0:0:0:0:
383,295,72280,1,0,0:0:0:0:
419,299,72395,1,0,0:0:0:0:
454,310,72511,6,0,L|471:222,1,83.9999974365235
343,38,72857,2,0,L|350:130,1,83.9999974365235
484,336,73203,2,0,L|498:239,1,83.9999974365235
303,34,73549,2,0,L|311:123,1,83.9999974365235
101,133,73895,6,0,B|101:173|101:173|94:187|94:187|102:200|102:200|102:247,1,105.000004005432
36,73,74357,6,0,P|71:50|114:49,1,70
166,292,74587,2,0,P|131:315|88:316,1,70
94,187,74818,2,0,B|133:175|166:186|166:186|203:198|240:182,1,140
204,27,75164,2,0,B|202:108|202:108|232:95|267:110,1,140
320,245,75511,2,0,L|312:169,1,70
347,48,75741,1,0,0:0:0:0:
423,117,75857,1,0,0:0:0:0:
342,233,75972,2,0,L|337:164,1,70
423,117,76203,5,0,0:0:0:0:
348,327,76434,1,0,0:0:0:0:
511,330,76664,1,0,0:0:0:0:
289,282,76895,1,0,0:0:0:0:
226,346,77011,2,0,P|200:288|232:214,1,140
289,282,77357,2,0,L|359:289,1,70
453,268,77587,1,0,0:0:0:0:
428,354,77703,1,0,0:0:0:0:
362,255,77818,2,0,L|293:250,1,70
261,148,78049,6,0,P|191:128|117:160,1,140
129,149,78511,1,0,0:0:0:0:
55,39,78626,2,0,L|43:116,1,70
151,287,78857,2,0,L|128:142,1,140
36,34,79203,2,0,L|24:111,1,70
41,234,79434,1,0,0:0:0:0:
41,234,79549,1,0,0:0:0:0:
219,289,79664,2,0,P|181:281|137:293,1,70
276,354,79895,5,0,0:0:0:0:
461,352,80126,1,0,0:0:0:0:
219,289,80357,1,0,0:0:0:0:
504,281,80587,2,0,L|497:128,1,140
497,141,81049,1,0,0:0:0:0:
432,88,81164,1,0,0:0:0:0:
354,121,81280,2,0,P|319:126|283:124,1,70
133,36,81511,1,0,0:0:0:0:
191,95,81626,1,0,0:0:0:0:
217,174,81741,6,0,P|219:213|206:256,1,70
29,343,81972,2,0,P|67:334|110:335,1,70
237,360,82203,2,0,P|171:316|141:260,1,140
281,287,82549,2,0,B|315:298|345:283|345:283|367:290|367:290|400:278|426:292,1,140
306,210,82895,2,0,L|300:132,1,70
416,288,83126,1,0,0:0:0:0:
417,204,83241,1,0,0:0:0:0:
325,113,83357,2,0,L|329:182,1,70
497,289,83587,6,0,L|499:143,1,140
498,149,84049,1,0,0:0:0:0:
430,41,84164,2,0,P|426:75|404:107,1,70
208,47,84395,2,0,B|255:33|293:60|293:60|351:42,1,140
238,124,84741,2,0,L|230:198,1,70
161,287,84972,1,0,0:0:0:0:
134,162,85087,2,0,L|122:84,1,70
104,17,85318,6,0,P|52:54|56:129,1,140
161,287,85664,2,0,L|85:286,1,70
249,337,85895,1,0,0:0:0:0:
360,270,86011,2,0,P|396:274|441:268,1,70
307,206,86241,2,0,P|317:280|266:337,1,140
92,308,86587,2,0,L|177:310,1,70
429,270,86818,1,0,0:0:0:0:
381,200,86934,1,0,0:0:0:0:
370,116,87049,1,0,0:0:0:0:
396,36,87164,1,0,0:0:0:0:
472,0,87280,5,0,0:0:0:0:
82,336,102049,6,0,B|76:308|76:308|82:281|82:281|55:244|74:188,1,140
70,201,102511,2,0,P|111:208|143:205,1,70
277,151,102741,1,0,0:0:0:0:
277,151,102857,1,0,0:0:0:0:
185,127,102972,2,0,P|160:114|132:80,2,70
444,140,103434,1,0,0:0:0:0:
444,140,103664,1,0,0:0:0:0:
444,140,103780,1,0,0:0:0:0:
444,140,103895,6,0,L|439:215,1,70
359,296,104126,2,0,L|347:217,1,70
451,296,104357,2,0,L|443:373,2,70
305,153,104703,2,0,L|291:68,1,70
293,83,105049,1,0,0:0:0:0:
293,83,105280,2,0,L|210:82,2,70
68,326,105741,6,0,B|88:313|88:313|111:325|111:325|135:313|135:313|164:338|221:322,1,140
194,327,106203,2,0,P|229:314|272:316,1,70
411,337,106434,1,0,0:0:0:0:
411,337,106549,1,0,0:0:0:0:
340,280,106664,2,0,P|332:241|334:207,2,70
404,131,107126,2,0,L|249:129,1,140
142,48,107472,1,0,0:0:0:0:
142,48,107587,6,0,P|156:89|153:136,1,70
29,209,107818,2,0,P|58:192|101:187,1,70
219,256,108049,2,0,P|197:232|182:193,2,70
369,272,108395,5,0,0:0:0:0:
365,300,108626,5,0,0:0:0:0:
360,327,108857,5,0,0:0:0:0:
355,352,109087,5,0,0:0:0:0:
369,272,109203,2,0,L|383:193,1,70
461,57,109434,6,0,B|436:45|401:55|401:55|387:49|387:49|359:64|315:53,1,140
246,25,109780,1,0,0:0:0:0:
186,83,109895,2,0,L|181:159,1,70
102,201,110126,1,0,0:0:0:0:
102,201,110241,1,0,0:0:0:0:
64,110,110357,2,0,L|53:32,2,70
57,323,110818,1,0,0:0:0:0:
57,323,111049,1,0,0:0:0:0:
57,323,111164,1,0,0:0:0:0:
57,323,111280,6,0,L|140:335,1,70
249,266,111511,2,0,L|169:265,1,70
316,321,111741,2,0,B|343:330|343:330|372:324|372:324|411:348|457:329,1,140
417,147,112087,2,0,P|384:205|420:263,1,140
417,147,112434,2,0,L|334:149,1,70
223,87,112664,2,0,L|306:87,2,70
123,157,113011,1,0,0:0:0:0:
123,157,113126,6,0,P|121:105|54:35,1,140
66,40,113587,2,0,P|46:76|44:115,1,70
111,250,113818,1,0,0:0:0:0:
111,250,113934,1,0,0:0:0:0:
123,157,114049,2,0,P|161:153|205:172,2,70
30,342,114511,1,0,0:0:0:0:
30,342,114741,1,0,0:0:0:0:
30,342,114857,1,0,0:0:0:0:
30,342,114972,6,0,L|106:339,1,70
280,278,115203,2,0,L|207:274,1,70
416,346,115434,1,0,0:0:0:0:
416,346,115549,2,0,L|426:268,1,70
347,179,115780,1,0,0:0:0:0:
347,179,115895,6,0,P|338:142|342:104,1,70
478,32,116126,2,0,P|487:69|483:107,1,70
269,61,116357,1,0,0:0:0:0:
228,33,116472,1,0,0:0:0:0:
179,28,116587,1,0,0:0:0:0:
132,44,116703,1,0,0:0:0:0:
99,80,116818,6,0,P|86:156|125:223,2,157.500006008148
274,139,117741,2,0,P|226:125|164:143,1,105.000004005432
201,214,118087,2,0,P|233:259|231:310,1,105.000004005432
151,325,118434,2,0,L|83:318,1,52.5000020027161
231,306,118664,6,0,P|284:289|341:314,1,105.000004005432
395,356,119011,1,0,0:0:0:0:
395,356,119126,2,0,L|462:354,1,52.5000020027161
461,270,119357,2,0,L|403:273,1,52.5000020027161
283,364,119587,2,0,L|277:245,1,105.000004005432
362,101,120049,1,0,0:0:0:0:
328,116,120164,1,0,0:0:0:0:
291,123,120280,1,0,0:0:0:0:
254,124,120395,1,0,0:0:0:0:
219,111,120511,6,0,P|166:100|100:116,1,105.000004005432
103,189,120857,2,0,P|161:217|186:259,1,105.000004005432
120,304,121203,2,0,L|57:301,1,52.5000020027161
182,249,121434,2,0,L|242:249,1,52.5000020027161
293,309,121664,1,0,0:0:0:0:
293,309,121780,1,0,0:0:0:0:
293,309,121895,2,0,P|346:321|402:306,1,105.000004005432
437,235,122241,1,0,0:0:0:0:
381,167,122357,6,0,L|377:55,1,105.000004005432
377,62,122818,1,0,0:0:0:0:
216,49,123049,1,0,0:0:0:0:
216,49,123164,1,0,0:0:0:0:
216,49,123280,2,0,L|219:167,1,105.000004005432
163,271,123741,2,0,L|158:230,2,35.0000013351441
244,283,123972,2,0,L|254:236,2,35.0000013351441
190,343,124203,6,0,P|140:346|96:313,1,105.000004005432
273,351,124664,2,0,P|321:336|383:352,1,105.000004005432
450,247,125126,1,0,0:0:0:0:
450,247,125241,1,0,0:0:0:0:
450,247,125357,2,0,L|445:180,1,52.5000020027161
386,120,125587,2,0,P|345:138|273:121,1,105.000004005432
230,54,125934,1,0,0:0:0:0:
230,54,126049,6,0,L|120:68,1,105.000004005432
74,156,126395,1,0,0:0:0:0:
74,156,126511,2,0,L|136:163,1,52.5000020027161
161,250,126741,2,0,P|199:264|230:262,1,52.5000020027161
292,218,126972,2,0,P|328:213|359:219,1,52.5000020027161
417,281,127203,2,0,L|423:346,1,52.5000020027161
480,232,127434,2,0,L|487:167,1,52.5000020027161
421,113,127664,2,0,P|419:78|421:47,1,52.5000020027161
419,60,127895,6,0,L|291:69,1,105.000004005432
62,112,128357,2,0,L|180:119,1,105.000004005432
55,194,128703,2,0,L|162:201,1,105.000004005432
264,262,129049,1,0,0:0:0:0:
264,262,129164,1,0,0:0:0:0:
164,319,129280,1,0,0:0:0:0:
164,319,129395,1,0,0:0:0:0:
159,200,129511,5,0,0:0:0:0:
264,262,129626,1,0,0:0:0:0:
164,319,129741,6,0,L|78:315,1,83.9999974365235
376,208,130087,2,0,L|471:202,1,83.9999974365235
136,53,130434,2,0,L|49:46,1,83.9999974365235
387,324,130780,2,0,L|477:327,1,83.9999974365235
206,128,131126,6,0,P|239:84|298:81,1,105.000004005432
165,204,131587,6,0,P|128:169|120:139,1,70
346,23,131818,2,0,P|365:54|366:98,1,70
277,148,132049,2,0,B|307:183|307:183|351:195|351:195|384:233,1,140
292,365,132395,2,0,B|304:273|304:273|349:322,1,140
213,302,132741,2,0,P|172:311|134:308,1,70
67,191,132972,1,0,0:0:0:0:
60,274,133087,1,0,0:0:0:0:
213,330,133203,2,0,P|172:339|134:336,1,70
67,191,133434,5,0,0:0:0:0:
341,93,133664,1,0,0:0:0:0:
75,97,133895,1,0,0:0:0:0:
341,93,134126,1,0,0:0:0:0:
401,20,134241,2,0,B|345:10|345:10|263:24,1,140
346,162,134587,2,0,P|337:125|344:86,1,70
433,212,134818,1,0,0:0:0:0:
356,248,134934,1,0,0:0:0:0:
317,95,135049,2,0,P|312:129|321:163,1,70
428,299,135280,6,0,P|361:286|277:310,1,140
292,301,135741,1,0,0:0:0:0:
149,349,135857,2,0,L|138:267,1,70
224,356,136087,2,0,L|203:199,1,140
82,155,136434,1,0,0:0:0:0:
63,236,136549,1,0,0:0:0:0:
149,349,136664,2,0,L|138:267,1,70
82,155,136895,2,0,L|71:78,1,70
194,33,137126,5,0,0:0:0:0:
437,55,137357,1,0,0:0:0:0:
176,121,137587,1,0,0:0:0:0:
440,144,137818,1,0,0:0:0:0:
357,106,137934,2,0,P|356:181|410:231,1,140
357,106,138280,2,0,L|277:111,1,70
139,208,138511,1,0,0:0:0:0:
219,231,138626,1,0,0:0:0:0:
223,314,138741,1,0,0:0:0:0:
144,343,138857,1,0,0:0:0:0:
88,279,138972,6,0,L|80:121,1,140
80,139,139434,1,0,0:0:0:0:
275,32,139664,1,0,0:0:0:0:
136,46,139780,2,0,P|71:32|-12:71,1,140
173,125,140126,2,0,L|249:119,1,70
379,197,140357,1,0,0:0:0:0:
300,225,140472,1,0,0:0:0:0:
174,156,140587,2,0,L|254:148,1,70
379,197,140818,21,0,0:0:0:0:
305,358,141049,1,0,0:0:0:0:
151,248,141280,1,0,0:0:0:0:
226,354,141395,2,0,L|223:281,1,70
151,248,141626,2,0,P|98:298|31:291,1,140
51,150,141972,2,0,L|72:217,1,70
223,284,142203,1,0,0:0:0:0:
151,248,142318,1,0,0:0:0:0:
93,110,142434,2,0,L|95:198,1,70
29,51,142664,6,0,P|96:23|160:54,1,140
154,48,143126,1,0,0:0:0:0:
94,179,143241,2,0,L|93:110,1,70
234,79,143472,2,0,P|295:105|366:75,1,140
471,22,143818,1,0,0:0:0:0:
471,22,143934,1,0,0:0:0:0:
471,22,144049,5,0,0:0:0:0:
442,100,144164,1,0,0:0:0:0:
430,183,144280,1,0,0:0:0:0:
435,266,144395,1,0,0:0:0:0:
466,344,144511,6,0,L|321:335,1,140
269,274,144867,2,0,P|216:288|133:276,1,140
87,206,145224,1,0,0:0:0:0:
87,206,145343,1,0,0:0:0:0:
87,206,145461,2,0,L|75:49,1,140
152,28,145818,1,0,0:0:0:0:
152,28,145937,2,0,L|193:35,2,35
76,66,146115,2,0,P|40:63|-4:72,1,70
236,108,146353,6,0,P|285:113|324:97,1,87.5
463,37,146591,2,0,P|421:24|371:39,1,87.5
408,150,146829,2,0,L|413:103,2,35
411,244,147066,2,0,P|408:291|388:319,2,70
202,229,147423,2,0,P|277:225|338:272,1,140
124,254,147780,6,0,B|109:216|131:179|131:179|120:152|120:152|121:122,1,122.5
187,309,148077,2,0,P|119:337|44:277,1,175
38,179,148493,1,0,0:0:0:0:
206,42,148731,6,0,L|161:47,2,35
225,57,148909,2,0,P|252:73|302:71,1,70
443,37,149147,1,0,0:0:0:0:
425,54,149206,1,0,0:0:0:0:
413,75,149265,1,0,0:0:0:0:
407,98,149325,1,0,0:0:0:0:
404,122,149384,2,0,P|403:169|417:206,1,70
470,331,149622,1,0,0:0:0:0:
448,319,149682,1,0,0:0:0:0:
424,313,149741,1,0,0:0:0:0:
399,309,149800,1,0,0:0:0:0:
374,307,149860,2,0,P|331:311|288:328,1,70
237,347,150038,6,0,L|223:175,1,140
71,120,150395,1,0,0:0:0:0:
71,120,150514,2,0,L|64:61,2,52.5
78,197,150751,2,0,P|83:249|109:276,1,70
226,208,150989,2,0,L|146:215,1,70
294,258,151227,2,0,P|308:227|305:182,1,70
307,191,151435,6,0,L|463:200,1,140
437,342,151792,2,0,L|295:333,1,140
178,328,152118,2,0,P|118:338|63:295,1,122.5
60,228,152386,1,0,0:0:0:0:
60,228,152445,2,0,L|48:96,1,122.5
73,28,152713,2,0,P|123:71|123:142,1,140
39,106,153010,1,0,0:0:0:0:
39,106,153069,1,0,0:0:0:0:
211,76,153278,2,0,B|256:82|256:82|302:74|302:74|358:79,1,140
382,149,153575,1,0,0:0:0:0:
382,149,153634,1,0,0:0:0:0:
308,294,153753,6,0,P|286:221|313:154,1,140
453,247,154169,2,0,L|444:306,1,52.5
374,282,154318,2,0,P|320:286|297:303,1,70
73,342,154615,2,0,L|63:192,1,140
63,202,154971,1,0,0:0:0:0:
59,46,155090,2,0,P|166:84|157:198,1,245
424,322,155804,6,0,L|431:251,1,70
362,110,156041,2,0,L|356:62,2,35
351,211,156279,2,0,P|305:206|269:216,1,70
175,358,156517,6,0,B|152:320|166:282|166:282|206:276|206:276|155:194|224:131,1,280
256,192,158363,12,0,159170,0:0:0:0:
456,290,159286,6,0,P|412:283|384:288,1,70
143,318,159517,2,0,P|178:321|217:315,1,70
289,132,159747,2,0,B|282:182|282:182|300:218|300:218|289:280,1,140
371,165,160093,2,0,P|368:93|309:50,1,140
219,122,160440,2,0,L|289:132,1,70
142,196,160670,1,0,0:0:0:0:
128,112,160786,1,0,0:0:0:0:
285,164,160901,2,0,L|204:155,1,70
85,262,161132,5,0,0:0:0:0:
63,54,161363,1,0,0:0:0:0:
163,307,161593,1,0,0:0:0:0:
304,377,161709,2,0,L|297:298,1,70
262,222,161940,2,0,B|313:204|359:231|359:231|399:223,1,140
489,288,162286,2,0,L|484:218,1,70
374,139,162517,1,0,0:0:0:0:
374,139,162632,1,0,0:0:0:0:
262,222,162747,2,0,L|268:142,1,70
431,61,162978,6,0,B|387:47|387:47|287:61,1,140
294,60,163440,1,0,0:0:0:0:
173,266,163670,1,0,0:0:0:0:
131,182,163786,2,0,P|92:208|88:306,1,140
242,261,164132,2,0,L|155:267,1,70
303,328,164363,1,0,0:0:0:0:
337,251,164478,1,0,0:0:0:0:
172,286,164593,2,0,L|241:281,1,70
416,323,164824,5,0,0:0:0:0:
473,104,165055,1,0,0:0:0:0:
494,355,165286,1,0,0:0:0:0:
406,55,165517,2,0,P|360:65|260:60,1,140
217,37,165824,1,0,0:0:0:0:
162,24,165901,1,0,0:0:0:0:
106,29,165978,1,0,0:0:0:0:
55,53,166055,1,0,0:0:0:0:
27,101,166132,1,0,0:0:0:0:
14,155,166209,2,0,L|19:205,2,46.6666666666667
113,216,166440,2,0,L|106:274,2,46.6666666666667
246,180,166670,6,0,L|246:320,1,140
246,320,167132,1,0,0:0:0:0:
405,193,167363,1,0,0:0:0:0:
296,89,167478,2,0,P|234:81|163:117,1,140
313,192,167824,2,0,P|279:178|243:180,1,70
376,272,168055,1,0,0:0:0:0:
405,193,168170,1,0,0:0:0:0:
243,199,168286,2,0,P|277:198|309:211,1,70
391,354,168517,5,0,0:0:0:0:
128,326,168747,1,0,0:0:0:0:
475,306,168978,1,0,0:0:0:0:
297,319,169093,2,0,L|218:326,1,70
52,359,169324,2,0,P|46:308|108:244,1,140
197,321,169670,2,0,L|110:326,1,70
77,166,169901,1,0,0:0:0:0:
113,23,170017,2,0,L|117:94,1,70
77,166,170247,6,0,P|136:139|221:165,1,140
341,210,170593,2,0,P|301:217|266:212,1,70
270,31,170824,1,0,0:0:0:0:
270,31,170940,2,0,L|278:113,1,70
381,283,171170,2,0,L|397:120,1,140
481,68,171517,1,0,0:0:0:0:
481,68,171632,1,0,0:0:0:0:
481,68,171747,5,0,0:0:0:0:
397,59,171863,1,0,0:0:0:0:
394,143,171978,1,0,0:0:0:0:
471,279,172093,6,0,P|454:336|371:363,1,140
285,297,172440,1,0,0:0:0:0:
285,297,172555,1,0,0:0:0:0:
285,297,172670,5,0,0:0:0:0:
257,217,172786,1,0,0:0:0:0:
192,163,172901,1,0,0:0:0:0:
109,144,173017,1,0,0:0:0:0:
28,165,173132,1,0,0:0:0:0:
28,165,174055,5,0,0:0:0:0:
67,150,174132,1,0,0:0:0:0:
109,144,174209,1,0,0:0:0:0:
147,161,174286,1,0,0:0:0:0:
175,191,174363,1,0,0:0:0:0:
184,232,174440,1,0,0:0:0:0:
180,273,174517,2,0,L|114:270,2,46.6666666666667
262,200,174747,2,0,L|315:198,2,46.6666666666667
349,273,174978,6,0,L|361:112,1,140
421,75,175324,1,0,0:0:0:0:
484,131,175440,2,0,P|421:159|359:133,1,140
254,56,175786,2,0,P|191:28|128:54,1,140
196,182,176132,2,0,L|189:113,1,70
49,79,176363,1,0,0:0:0:0:
49,79,176478,1,0,0:0:0:0:
49,79,176593,2,0,L|40:156,1,70
133,246,176824,6,0,P|212:231|273:253,1,140
468,348,177286,2,0,L|475:266,1,70
413,219,177517,1,0,0:0:0:0:
349,271,177632,2,0,P|410:301|473:278,1,140
409,149,177978,2,0,L|413:226,1,70
350,80,178209,1,0,0:0:0:0:
272,47,178324,1,0,0:0:0:0:
193,76,178440,2,0,P|165:82|121:79,1,70
23,16,178670,5,0,0:0:0:0:
102,269,178901,1,0,0:0:0:0:
102,269,179017,1,0,0:0:0:0:
102,269,179132,2,0,L|91:344,2,70
174,199,179478,2,0,P|112:169|33:195,1,140
193,284,179824,2,0,L|270:281,1,70
451,312,180055,1,0,0:0:0:0:
451,312,180170,1,0,0:0:0:0:
451,312,180286,2,0,L|371:320,1,70
296,355,180517,6,0,L|307:202,1,140
439,44,180978,1,0,0:0:0:0:
439,44,181093,1,0,0:0:0:0:
439,44,181209,2,0,L|448:119,1,70
463,241,181440,5,0,0:0:0:0:
392,196,181555,1,0,0:0:0:0:
421,46,181670,2,0,L|430:121,1,70
457,263,181901,1,0,0:0:0:0:
386,221,182017,1,0,0:0:0:0:
398,48,182132,2,0,L|407:123,1,70
294,175,182363,5,0,0:0:0:0:
112,278,182593,1,0,0:0:0:0:
112,278,182709,1,0,0:0:0:0:
112,278,182824,2,0,L|108:358,2,70
179,198,183170,2,0,P|115:174|50:197,1,140
206,280,183517,2,0,L|283:277,1,70
475,222,183747,1,0,0:0:0:0:
475,222,183863,1,0,0:0:0:0:
475,222,183978,2,0,L|396:222,1,70
313,343,184209,6,0,L|321:191,1,140
405,82,184555,1,0,0:0:0:0:
405,82,184670,2,0,P|399:123|373:160,2,70
264,42,185017,6,0,P|188:56|124:42,1,140
46,121,185363,1,0,0:0:0:0:
46,121,185478,1,0,0:0:0:0:
46,121,185593,2,0,P|80:130|116:167,1,70
140,257,185824,1,0,0:0:0:0:
140,257,185940,1,0,0:0:0:0:
247,258,186055,2,0,P|281:253|316:260,1,70
451,327,186286,2,0,P|416:328|383:320,1,70
399,173,186517,2,0,L|387:252,2,70
484,183,186863,6,0,L|472:36,1,140
390,63,187209,1,0,0:0:0:0:
308,81,187324,1,0,0:0:0:0:
223,78,187440,1,0,0:0:0:0:
146,43,187555,1,0,0:0:0:0:
63,28,187670,2,0,P|25:40|-3:75,1,70
78,212,187901,5,0,0:0:0:0:
67,102,188017,1,0,0:0:0:0:
186,275,188247,5,0,0:0:0:0:
197,154,188363,1,0,0:0:0:0:
296,320,188593,5,0,0:0:0:0:
329,208,188709,1,0,0:0:0:0:
402,366,188940,5,0,0:0:0:0:
458,258,189055,1,0,0:0:0:0:
458,258,189286,6,0,L|469:172,1,70
402,366,189517,2,0,L|385:287,1,70
329,208,189747,5,0,0:0:0:0:
381,91,189863,1,0,0:0:0:0:
235,192,190093,5,0,0:0:0:0:
259,65,190209,1,0,0:0:0:0:
135,207,190440,5,0,0:0:0:0:
135,71,190555,1,0,0:0:0:0:
45,245,190786,5,0,0:0:0:0:
16,101,190901,1,0,0:0:0:0:
16,101,191132,5,0,0:0:0:0:
88,143,191247,1,0,0:0:0:0:
172,144,191363,1,0,0:0:0:0:
242,98,191478,1,0,0:0:0:0:
256,192,191593,12,0,192517,0:0:0:0:
