osu file format v14

[General]
AudioFilename: 13 .mp3
AudioLeadIn: 0
PreviewTime: 103987
Countdown: 0
SampleSet: Soft
StackLeniency: 0.7
Mode: 0
LetterboxInBreaks: 0
WidescreenStoryboard: 1

[Editor]
Bookmarks: 10743,31500,52257,62635,83392,104149,124906,145662,166419,187176,197554,207933,228689,249446
DistanceSpacing: 1
BeatDivisor: 2
GridSize: 4
TimelineZoom: 1.5

[Metadata]
Title:Summertime Record
TitleUnicode:サマータイムレコード
Artist:Jin
ArtistUnicode:じん
Creator:Paloch VeGa
Version:Normal
Source:Kagerou Project
Tags:IA Shizen no Teki-P Peco Shidu Mekakucity Records Mashiro Shirakami Yumao Zukio The Story of the Spinning Eyes
BeatmapID:783010
BeatmapSetID:355669

[Difficulty]
HPDrainRate:3
CircleSize:3
OverallDifficulty:3
ApproachRate:4
SliderMultiplier:0.9
SliderTickRate:1

[Events]
//Background and Video events
0,0,"mekaku-city-actors-wallpaper.jpg",0,0
Video,-1053,"summertime.avi"
//Break Periods
2,125106,133964
2,187376,196234
//Storyboard Layer 0 (Background)
//Storyboard Layer 1 (Fail)
//Storyboard Layer 2 (Pass)
//Storyboard Layer 3 (Foreground)
//Storyboard Sound Samples

[TimingPoints]
5554.65760800439,324.324324324324,4,2,0,100,1,0
31500,-111.111111111111,4,2,0,100,0,0
52257,-100,4,2,0,100,0,0
57122,-100,4,2,0,70,0,0
57446,-100,4,2,0,100,0,0
62635,-111.111111111111,4,2,0,100,0,0
104149,-100,4,2,0,100,0,1
113230,-100,4,2,0,100,0,0
114527,-100,4,2,0,100,0,1
124906,-111.111111111111,4,2,0,100,0,0
166419,-100,4,2,0,100,0,0
197554,-111.111111111111,4,2,0,100,0,0
207933,-100,4,2,0,100,0,1
217014,-100,4,2,0,100,0,0
218311,-100,4,2,0,100,0,1
228689,-100,4,2,0,100,0,0

[Colours]
Combo1 : 234,234,234
Combo2 : 0,121,255
Combo3 : 196,6,6
Combo4 : 133,37,197
Combo5 : 219,138,30
Combo6 : 58,186,27

[HitObjects]
128,144,5554,6,0,P|168:192|200:204,1,90,2|0,0:0|3:0,0:0:0:0:
348,112,6527,1,0,0:0:0:0:
428,152,6851,2,0,P|432:212|424:240,1,90,0|0,0:0|3:0,0:0:0:0:
252,288,7824,5,0,0:0:0:0:
180,232,8149,1,2,0:0:0:0:
268,200,8473,1,0,3:0:0:0:
128,88,9122,2,0,L|104:184,2,90,0|0|0,3:0|3:0|3:0,0:0:0:0:
208,48,10095,1,0,3:0:0:0:
284,92,10419,1,0,1:0:0:0:
288,180,10743,6,0,P|296:264|372:324,1,180,4|0,0:0|0:0,0:0:0:0:
432,260,11716,2,0,L|448:168,1,90,0|0,3:0|0:0,0:0:0:0:
308,60,12689,1,2,0:0:0:0:
236,116,13014,1,0,3:0:0:0:
172,176,13338,6,0,P|116:196|96:240,1,90,0|0,0:0|3:0,0:0:0:0:
180,264,13987,2,0,P|236:276|272:260,1,90
352,288,14635,2,0,B|356:196|276:180|276:180|276:140,1,180,0|2,0:0|0:0,0:0:0:0:
228,68,15608,1,0,3:0:0:0:
188,152,15933,6,0,P|160:200|120:216,2,90,4|0|0,0:0|3:0|0:0,0:0:0:0:
100,132,16906,1,0,3:0:0:0:
44,200,17230,2,0,P|32:256|120:340,1,180
192,304,18203,1,0,3:0:0:0:
280,316,18527,6,0,B|388:316|388:316|448:248,1,180,2|0,0:0|0:0,0:0:0:0:
424,172,19500,1,0,3:0:0:0:
360,108,19824,2,0,L|264:56,1,90,0|0,0:0|3:0,0:0:0:0:
252,152,20473,2,0,L|348:204,2,90,0|0|4,0:0|3:0|0:0,0:0:0:0:
164,136,21446,5,0,3:0:0:0:
156,316,22095,1,0,3:0:0:0:
244,320,22419,2,0,P|300:308|332:284,1,90
360,112,23392,1,0,3:0:0:0:
272,88,23716,6,0,B|244:176|244:176|184:172|156:216,1,180,2|0,0:0|0:0,0:0:0:0:
232,268,24689,1,0,0:0:0:0:
320,284,25014,2,0,P|380:216|384:112,1,180,0|2,0:0|0:0,0:0:0:0:
328,64,25987,1,0,3:0:0:0:
256,116,26311,6,0,L|164:148,1,90,4|0,0:0|0:0,0:0:0:0:
4,216,27284,1,0,3:0:0:0:
88,180,27608,2,0,L|28:96,2,90,0|0|0,0:0|3:0|0:0,0:0:0:0:
148,248,28581,1,0,3:0:0:0:
232,280,28906,6,0,B|308:256|384:276|384:276|432:232,1,180
440,176,29878,1,0,0:0:0:0:
396,96,30203,2,0,L|340:172,1,90,0|0,3:0|3:0,3:0:0:0:
296,92,30851,2,0,L|240:168,1,90,0|0,3:0|3:0,3:0:0:0:
164,188,31500,6,0,P|196:232|244:248,1,80.9999975280763,4|0,0:0|3:0,0:0:0:0:
380,232,32473,2,0,P|372:284|344:316,2,80.9999975280763,0|0|2,3:0|0:0|0:0,0:0:0:0:
312,80,33770,1,0,3:0:0:0:
232,88,34095,1,0,0:0:0:0:
192,160,34419,1,0,3:0:0:0:
104,296,35068,2,0,P|48:264|36:236,1,80.9999975280763
116,216,35716,2,0,P|172:248|184:276,1,80.9999975280763
248,304,36365,1,0,3:0:0:0:
328,284,36689,6,0,P|368:248|416:240,1,80.9999975280763,4|0,0:0|3:0,0:0:0:0:
412,80,37662,2,0,P|372:60|324:64,1,80.9999975280763,0|0,3:0|0:0,0:0:0:0:
352,144,38311,1,2,0:0:0:0:
232,36,38960,2,0,L|192:116,1,80.9999975280763,0|0,3:0|0:0,0:0:0:0:
240,176,39608,1,0,3:0:0:0:
204,332,40257,1,0,3:0:0:0:
144,276,40581,2,0,P|64:240|40:164,1,161.999995056153,0|2,0:0|0:0,0:0:0:0:
88,108,41554,1,0,3:0:0:0:
144,48,41878,5,2,0:0:0:0:
212,92,42203,2,0,P|212:144|236:176,1,80.9999975280763,0|0,3:0|0:0,0:0:0:0:
288,116,42851,1,0,3:0:0:0:
364,92,43176,2,0,L|440:120,1,80.9999975280763,0|2,0:0|0:0,0:0:0:0:
384,272,44149,6,0,P|340:288|296:276,2,80.9999975280763,0|0|0,3:0|0:0|3:0,0:0:0:0:
296,136,45446,1,0,3:0:0:0:
220,108,45770,1,0,0:0:0:0:
192,184,46095,1,0,3:0:0:0:
268,212,46419,1,0,0:0:0:0:
244,288,46743,1,0,3:0:0:0:
168,260,47068,6,0,L|72:224,1,80.9999975280763,2|0,0:0|3:0,0:0:0:0:
100,68,48041,1,0,3:0:0:0:
180,48,48365,1,0,0:0:0:0:
156,124,48689,1,2,0:0:0:0:
312,160,49338,6,0,L|336:244,1,80.9999975280763,0|2,3:0|0:0,0:0:0:0:
268,284,49987,1,0,0:0:0:0:
188,268,50311,2,0,L|124:324,2,80.9999975280763,0|0|0,0:0|3:0|0:0,0:0:0:0:
164,192,51284,1,0,0:0:0:0:
180,112,51608,1,0,3:0:0:0:
248,68,51933,1,4,3:0:0:0:
328,92,52257,6,0,P|344:148|384:172,1,90,4|0,0:0|1:0,0:0:0:0:
240,296,53230,1,0,3:0:0:0:
152,272,53554,2,0,B|150:248|114:208|114:208|162:180|162:120,1,180
208,44,54527,1,0,3:0:0:0:
296,68,54851,6,0,P|352:140|452:168,1,180
460,256,55824,1,0,3:0:0:0:
376,292,56149,2,0,L|276:292,1,90,2|0,0:0|3:0,0:0:0:0:
248,212,56797,2,0,L|352:212,2,90,0|4|0,0:0|1:2|0:0,0:0:0:0:
164,248,57770,5,0,3:0:0:0:
72,96,58419,1,0,3:0:0:0:
148,48,58743,2,0,P|200:64|232:104,1,90,2|0,0:0|3:0,0:0:0:0:
224,180,59392,2,0,P|276:172|304:128,1,90,0|0,0:0|3:0,0:0:0:0:
372,92,60041,6,0,L|472:120,1,90,0|0,0:0|3:0,0:0:0:0:
288,64,61014,1,0,3:0:0:0:
200,80,61338,2,0,P|132:156|124:232,2,180,2|0|4,0:0|0:0|0:0,0:0:0:0:
264,144,62960,5,0,3:0:0:0:
316,296,63608,2,0,P|388:256|396:240,1,80.9999975280763,0|0,0:3|0:0,0:0:0:0:
404,180,64257,1,0,3:0:0:0:
252,128,64906,2,0,L|300:204,2,80.9999975280763,0|0|0,3:0|0:0|3:0,0:0:0:0:
88,132,66203,6,0,P|64:176|64:216,1,80.9999975280763,0|0,3:0|0:0,0:0:0:0:
124,260,66851,2,0,P|176:272|212:304,1,80.9999975280763,0|0,3:0|0:0,0:0:0:0:
276,304,67500,1,2,0:0:0:0:
352,272,67824,5,4,0:0:0:0:
288,224,68149,1,0,3:0:0:0:
340,72,68797,2,0,P|400:76|428:92,2,80.9999975280763,0|0|2,3:0|0:0|0:0,0:0:0:0:
180,100,70095,1,0,3:0:0:0:
108,136,70419,6,0,L|92:220,1,80.9999975280763,0|0,0:0|3:0,0:0:0:0:
168,248,71068,2,0,L|152:332,1,80.9999975280763,0|0,0:0|3:0,0:0:0:0:
224,364,71716,2,0,P|308:340|368:260,1,161.999995056153,2|0,0:0|0:0,0:0:0:0:
364,204,72689,1,2,0:0:0:0:
328,128,73014,6,0,L|244:128,2,80.9999975280763,0|0|0,0:0|3:0|0:0,0:0:0:0:
380,192,73987,1,2,0:0:0:0:
332,260,74311,2,0,B|284:316|284:316|236:300|184:308,1,161.999995056153
120,332,75284,2,0,P|120:280|140:244,2,80.9999975280763,0|0|0,3:0|0:0|3:0,0:0:0:0:
276,288,76581,5,0,3:0:0:0:
356,288,76906,2,0,P|348:248|320:220,1,80.9999975280763,2|0,0:0|3:0,0:0:0:0:
280,148,77554,2,0,P|249:174|239:213,1,80.9999975280763,2|0,0:0|3:0,0:0:0:0:
188,276,78203,6,0,B|132:268|92:292|92:292|60:260|60:212,1,161.999995056153,4|0,0:0|0:0,0:0:0:0:
84,160,79176,1,0,3:0:0:0:
132,96,79500,2,0,P|180:88|216:96,1,80.9999975280763,2|0,0:0|3:0,0:0:0:0:
280,140,80149,1,0,0:0:0:0:
356,108,80473,1,0,3:0:0:0:
424,152,80797,6,0,P|412:232|352:296,1,161.999995056153,2|0,0:0|0:0,0:0:0:0:
296,240,81770,1,0,0:0:0:0:
268,164,82095,2,0,P|188:152|104:168,2,161.999995056153,2|0|4,0:0|3:0|0:0,0:0:0:0:
300,236,83716,5,0,0:0:0:0:
368,278,84041,1,0,0:0:0:0:
445,251,84365,1,0,0:0:0:0:
471,174,84689,1,0,0:0:0:0:
427,106,85014,1,0,0:0:0:0:
348,100,85338,2,0,P|272:112|248:104,1,80.9999975280763
196,80,85987,6,0,P|152:144|156:232,1,161.999995056153
232,204,86960,2,0,P|284:196|332:212,1,80.9999975280763
352,272,87608,2,0,P|300:284|252:264,2,80.9999975280763,0|0|2,0:0|0:0|0:0,0:0:0:0:
408,208,88581,6,0,B|420:164|452:136|452:136|412:100|408:52,1,161.999995056153
332,52,89554,2,0,L|232:52,1,80.9999975280763
204,120,90203,1,0,0:0:0:0:
128,144,90527,2,0,P|156:184|204:200,1,80.9999975280763
264,184,91176,6,0,P|328:204|396:276,1,161.999995056153,2|0,0:0|0:0,0:0:0:0:
232,280,92473,2,0,P|168:260|100:188,1,161.999995056153,2|0,0:0|0:0,0:0:0:0:
96,112,93446,1,4,1:3:0:0:
156,60,93770,6,0,P|200:68|240:60,2,80.9999975280763,4|0|0,0:0|3:0|0:0,0:0:0:0:
96,112,94743,2,0,P|84:164|100:204,1,80.9999975280763,0|0,3:0|0:0,0:0:0:0:
164,156,95392,2,0,P|216:156|248:184,2,80.9999975280763,0|0|0,3:0|0:0|3:0,0:0:0:0:
188,232,96365,5,2,0:0:0:0:
216,308,96689,2,0,L|308:324,1,80.9999975280763,0|0,3:0|0:0,0:0:0:0:
344,256,97338,1,0,3:0:0:0:
408,204,97662,1,0,0:0:0:0:
380,128,97987,2,0,P|360:88|360:48,1,80.9999975280763,0|0,3:0|0:0,0:0:0:0:
440,72,98635,2,0,P|460:112|460:152,1,80.9999975280763,0|4,3:0|0:0,0:0:0:0:
408,204,99284,6,0,P|332:200|280:136,1,161.999995056153,0|0,3:0|3:0,0:0:0:0:
232,72,100257,2,0,P|172:84|148:100,1,80.9999975280763,0|0,0:0|3:0,0:0:0:0:
116,164,100906,1,0,0:0:0:0:
168,224,101230,1,0,3:0:0:0:
228,280,101554,6,0,P|300:288|336:316,2,80.9999975280763,4|0|0,0:0|0:0|0:0,0:0:0:0:
152,304,102527,2,0,L|136:356,1,40.4999987640381,0|4,3:0|0:0,0:0:0:0:
92,232,103176,2,0,P|60:188|68:140,1,80.9999975280763,0|0,3:0|0:0,0:0:0:0:
140,168,103824,1,0,1:0:0:0:
220,128,104149,6,0,P|272:144|308:184,1,90,4|0,0:0|0:0,0:0:0:0:
292,256,104797,2,0,P|372:216|372:120,1,180
324,60,105770,1,0,0:0:0:0:
236,80,106095,2,0,L|164:144,1,90
80,148,106743,6,0,P|92:196|80:240,1,90
20,300,107392,2,0,P|64:324|120:320,1,90
188,292,108041,2,0,P|272:268|376:284,1,180
448,320,109014,1,0,0:0:0:0:
488,240,109338,5,0,0:0:0:0:
468,152,109662,2,0,B|424:164|404:208|404:208|360:188|304:188,1,180
352,104,110635,2,0,P|284:104|260:116,2,90
314,188,111608,1,0,0:0:0:0:
264,264,111933,6,0,P|176:292|88:248,1,180
124,172,112906,2,0,L|180:96,1,90
268,112,113554,2,0,L|212:188,1,90
228,272,114203,1,0,0:0:0:0:
304,324,114527,6,0,P|356:312|392:280,1,90
404,200,115176,1,0,0:0:0:0:
364,120,115500,2,0,L|408:88,1,45
332,32,115987,1,0,0:0:0:0:
276,104,116311,2,0,P|188:76|140:12,1,135
108,120,117122,6,0,L|108:216,1,90
196,232,117770,2,0,L|196:136,1,90
272,96,118419,2,0,P|328:88|380:112,2,90
312,176,119392,1,0,0:0:0:0:
248,240,119716,6,0,P|196:276|184:308,1,90
100,324,120365,2,0,P|24:288|8:256,1,90
36,196,121014,2,0,L|36:100,2,90
116,236,121987,1,0,0:0:0:0:
200,272,122311,6,0,P|288:288|384:272,1,180
380,96,123608,2,0,P|292:80|196:96,1,180
120,132,124581,1,0,0:0:0:0:
120,220,124906,1,4,0:0:0:0:
336,92,135284,6,0,P|352:148|380:176,1,80.9999975280763
264,292,136257,2,0,P|224:312|184:304,1,80.9999975280763
212,228,136906,5,0,0:0:0:0:
80,132,137554,2,0,P|32:152|8:176,2,80.9999975280763
236,92,138851,5,0,0:0:0:0:
296,148,139176,2,0,P|332:168|372:172,1,80.9999975280763
444,140,139824,2,0,P|448:188|436:220,1,80.9999975280763
364,252,140473,5,4,0:0:0:0:
408,320,140797,1,0,0:0:0:0:
244,304,141446,1,0,0:0:0:0:
164,320,141770,6,0,L|96:272,1,80.9999975280763
96,112,142743,1,0,0:0:0:0:
164,64,143068,1,0,0:0:0:0:
256,192,143149,12,0,144365,0:0:0:0:
348,112,145014,6,0,L|400:136,1,40.4999987640381
308,224,145662,6,0,P|256:240|228:264,1,80.9999975280763
180,312,146311,2,0,P|116:280|92:228,1,121.499996292114
100,156,147122,2,0,P|156:132|192:80,1,121.499996292114
264,52,147933,1,0,0:0:0:0:
340,76,148257,5,0,0:0:0:0:
340,240,148906,2,0,P|380:280|392:312,1,80.9999975280763
276,344,149716,2,0,L|250:389,2,40.4999987640381
252,312,150203,2,0,P|200:268|196:240,1,80.9999975280763
184,180,150851,6,0,P|252:136|340:132,1,161.999995056153
448,168,151987,2,0,P|416:232|428:276,1,80.9999975280763
340,336,152797,2,0,L|252:336,1,80.9999975280763
188,300,153446,6,0,P|116:308|152:260,1,161.999995056153
184,184,154419,2,0,L|160:144,1,40.4999987640381
348,64,155392,1,0,0:0:0:0:
268,44,155716,1,0,0:0:0:0:
188,64,156041,6,0,P|148:100|100:108,1,80.9999975280763
92,268,157014,2,0,P|128:288|184:280,1,80.9999975280763
148,208,157663,1,0,0:0:0:0:
300,268,158312,2,0,L|340:188,1,80.9999975280763
292,128,158960,2,0,L|232:60,2,80.9999975280763
372,120,159933,2,0,P|452:156|476:232,1,161.999995056153
428,288,160906,1,0,0:0:0:0:
348,280,161230,6,0,P|264:276|176:296,1,161.999995056153
108,292,162203,2,0,P|64:260|48:232,1,80.9999975280763
88,168,162851,2,0,P|108:128|104:88,2,80.9999975280763
164,200,163824,6,0,L|280:320,1,161.999995056153
412,228,165122,2,0,L|296:108,1,161.999995056153
224,84,166095,1,0,0:0:0:0:
144,108,166419,6,0,P|136:160|152:200,1,90
224,244,167068,2,0,P|272:264|296:300,1,90
368,344,167716,2,0,P|424:344|460:324,2,90
396,260,168689,1,0,0:0:0:0:
400,168,169014,6,0,P|384:116|332:84,1,90
308,168,169662,2,0,P|268:212|260:240,1,90
232,324,170311,2,0,P|144:320|68:256,1,180
48,180,171284,2,0,L|8:152,2,45
124,132,171933,6,0,P|180:124|212:100,1,90
288,64,172581,2,0,P|344:68|388:100,2,90
312,152,173554,1,0,0:0:0:0:
380,208,173878,1,0,0:0:0:0:
472,204,174203,6,0,P|456:264|344:292,1,180
264,136,175500,2,0,P|176:136|124:216,1,180
132,296,176473,1,0,0:0:0:0:
220,272,176797,6,0,L|300:316,1,90
352,244,177446,2,0,L|272:200,1,90
232,120,178095,1,0,0:0:0:0:
276,44,178419,1,0,0:0:0:0:
364,20,178743,2,0,P|428:20|456:12,2,90
340,108,179716,6,0,P|268:160|172:164,1,180
92,152,180689,2,0,P|48:208|44:244,1,90
116,280,181338,2,0,L|144:320,2,45
188,228,181987,6,0,L|240:144,1,90
276,72,182635,2,0,P|356:92|396:84,2,90
188,88,183608,2,0,P|108:124|88:148,1,90
96,212,184257,1,0,0:0:0:0:
160,276,184581,6,0,B|236:272|284:304|284:304|284:232,1,180
252,168,185554,2,0,L|296:144,1,45
424,172,186203,2,0,P|436:228|424:268,2,90
348,220,187176,5,0,0:0:0:0:
252,76,197554,6,0,P|212:92|164:88,1,80.9999975280763
92,84,198203,2,0,L|52:56,2,40.4999987640381
72,164,198851,1,0,0:0:0:0:
116,232,199176,2,0,P|196:248|272:224,1,161.999995056153
348,200,200149,6,0,P|376:236|428:252,2,80.9999975280763
424,172,201122,2,0,L|484:100,1,80.9999975280763
420,52,201770,1,0,0:0:0:0:
340,52,202095,1,0,0:0:0:0:
288,116,202419,6,0,L|240:116,2,40.4999987640381
320,192,203068,2,0,P|288:264|216:304,1,161.999995056153
144,268,204041,2,0,P|176:232|212:224,1,80.9999975280763
132,80,205014,1,0,0:0:0:0:
212,52,205338,6,0,P|280:88|372:96,2,161.999995056153
132,72,206960,1,0,0:0:0:0:
64,116,207284,2,0,L|36:160,1,40.4999987640381
120,260,207933,6,0,P|152:296|204:308,1,90
200,220,208581,2,0,B|248:192|264:136|264:136|308:144|340:132,1,180
404,72,209554,1,0,0:0:0:0:
476,124,209878,2,0,L|532:124,2,45
416,192,210527,6,0,P|400:252|408:284,1,90
344,344,211176,1,0,0:0:0:0:
260,312,211500,1,0,0:0:0:0:
228,228,211824,2,0,P|236:136|184:64,1,180
100,84,212797,1,0,0:0:0:0:
83,172,213122,6,0,B|135:204|163:248|163:248|211:244|243:216,1,180
276,152,214095,2,0,L|248:100,2,45
364,168,214743,2,0,L|460:168,2,90
308,240,215716,6,0,P|284:296|248:320,1,90
220,232,216365,2,0,P|244:176|280:152,1,90
324,88,217014,2,0,P|392:136|428:240,1,180
372,296,217987,2,0,L|384:344,2,45
292,252,218635,6,0,P|232:256|192:280,1,90
120,300,219284,2,0,P|64:268|48:248,1,90
68,160,219933,2,0,L|40:104,1,45
172,64,220581,1,0,0:0:0:0:
160,152,220906,6,0,P|204:200|208:228,1,90
180,308,221554,2,0,P|232:308|272:288,1,90
320,220,222203,2,0,B|360:260|352:312|352:312|404:328|432:324,1,180
484,252,223176,1,0,0:0:0:0:
448,168,223500,5,0,0:0:0:0:
360,152,223824,2,0,L|308:76,2,90
384,236,224797,2,0,P|344:280|312:296,1,90
260,224,225446,1,0,0:0:0:0:
172,228,225770,1,0,0:0:0:0:
116,160,226095,6,0,P|188:96|276:84,1,180
364,236,227392,2,0,P|292:300|204:312,1,180
148,248,228365,2,0,L|76:276,2,45,0|0|4,0:0|0:0|0:0,0:0:0:0:
256,192,228770,12,0,231284,0:0:0:0:
