osu file format v14

[General]
AudioFilename: 13 .mp3
AudioLeadIn: 0
PreviewTime: 103987
Countdown: 0
SampleSet: Soft
StackLeniency: 0.7
Mode: 0
LetterboxInBreaks: 0
WidescreenStoryboard: 1

[Editor]
Bookmarks: 10743,31500,52257,62635,83392,104149,124906,145662,166419,187176,197554,207933,228689,249446
DistanceSpacing: 1.6
BeatDivisor: 4
GridSize: 4
TimelineZoom: 1.5

[Metadata]
Title:Summertime Record
TitleUnicode:サマータイムレコード
Artist:Jin
ArtistUnicode:じん
Creator:Paloch VeGa
Version:Hard
Source:Kagerou Project
Tags:IA Shizen no Teki-P Peco Shidu Mekakucity Records Mashiro Shirakami Yumao Zukio The Story of the Spinning Eyes
BeatmapID:783009
BeatmapSetID:355669

[Difficulty]
HPDrainRate:5
CircleSize:4
OverallDifficulty:5
ApproachRate:8
SliderMultiplier:1.1
SliderTickRate:1

[Events]
//Background and Video events
0,0,"mekaku-city-actors-wallpaper.jpg",0,0
Video,-1053,"summertime.avi"
//Break Periods
2,125105,134534
2,187375,196804
//Storyboard Layer 0 (Background)
//Storyboard Layer 1 (Fail)
//Storyboard Layer 2 (Pass)
//Storyboard Layer 3 (Foreground)
//Storyboard Sound Samples

[TimingPoints]
5554.65760800439,324.324324324324,4,2,2,100,1,0
9608,-100,4,2,1,60,0,0
9770,-100,4,2,1,70,0,0
9933,-100,4,2,1,80,0,0
10095,-100,4,2,1,90,0,0
10257,-100,4,2,1,100,0,0
10743,-100,4,2,2,100,0,0
20635,-100,4,2,1,100,0,0
21122,-100,4,2,2,100,0,0
25824,-100,4,2,1,100,0,0
26311,-100,4,2,2,100,0,0
30365,-100,4,2,1,100,0,0
31500,-111.111111111111,4,2,1,80,0,0
49662,-111.111111111111,4,2,1,50,0,0
49987,-111.111111111111,4,2,1,100,0,0
51284,-111.111111111111,4,2,2,100,0,0
52257,-100,4,2,2,100,0,0
56960,-100,4,2,1,100,0,0
57446,-100,4,2,2,100,0,0
62149,-100,4,2,1,100,0,0
62635,-111.111111111111,4,2,2,100,0,0
67824,-111.111111111111,4,2,2,60,0,0
68149,-111.111111111111,4,2,2,100,0,0
72689,-111.111111111111,4,2,2,50,0,0
73014,-111.111111111111,4,2,2,100,0,0
83230,-111.111111111111,4,2,2,30,0,0
83392,-100,4,2,2,100,0,0
104149,-86.9565217391304,4,2,2,100,0,1
113230,-86.9565217391304,4,2,2,100,0,0
114527,-86.9565217391304,4,2,2,100,0,1
124906,-100,4,2,2,100,0,0
156041,-111.111111111111,4,2,2,100,0,0
166419,-100,4,2,2,100,0,0
181500,-100,4,2,2,70,0,0
182149,-100,4,2,2,100,0,0
197554,-111.111111111111,4,2,2,100,0,0
207933,-86.9565217391304,4,2,2,100,0,1
217014,-86.9565217391304,4,2,2,100,0,0
218311,-86.9565217391304,4,2,2,100,0,1
228689,-86.9565217391304,4,2,2,100,0,0

[Colours]
Combo1 : 234,234,234
Combo2 : 0,121,255
Combo3 : 196,6,6
Combo4 : 133,37,197
Combo5 : 219,138,30
Combo6 : 58,186,27

[HitObjects]
180,120,5554,6,0,P|184:180|160:236,1,110,2|8,0:0|0:0,0:0:0:0:
352,296,6365,1,0,0:0:0:0:
332,212,6527,1,8,0:0:0:0:
396,48,6851,6,0,P|324:36|288:8,1,110,0|8,0:0|0:0,0:0:0:0:
152,236,7662,1,0,0:0:0:0:
224,184,7824,1,0,0:0:0:0:
392,236,8149,6,0,P|356:304|312:324,1,110,2|8,0:0|0:0,0:0:0:0:
128,144,8960,1,0,0:0:0:0:
104,228,9122,2,0,L|144:276,2,55,8|0|8,0:0|0:0|0:0,0:0:0:0:
44,164,9608,5,8,0:0:0:0:
20,80,9770,1,8,0:0:0:0:
104,56,9933,1,8,0:0:0:0:
128,144,10095,1,8,0:0:0:0:
216,144,10257,2,0,L|256:120,2,27.5,8|8|0,0:0|0:0|1:0,0:0:0:0:
188,228,10581,1,8,0:0:0:0:
188,228,10662,1,8,0:0:0:0:
188,228,10743,6,0,P|248:252|300:256,1,110,4|8,0:0|0:0,0:0:0:0:
456,192,11392,2,0,P|480:232|480:256,2,55,0|0|8,0:0|0:0|0:0,0:0:0:0:
372,168,11878,2,0,B|388:120|436:104|436:104|428:64,1,110,0|0,0:0|0:0,0:0:0:0:
356,36,12365,2,0,P|320:20|284:24,1,55,8|0,0:0|0:0,0:0:0:0:
212,28,12689,1,0,0:0:0:0:
192,116,12851,2,0,P|166:126|146:144,1,55,0|8,0:0|0:0,0:0:0:0:
216,200,13176,1,0,0:0:0:0:
216,200,13338,6,0,P|156:244|104:248,1,110,0|8,0:0|0:0,0:0:0:0:
48,200,13824,1,0,0:0:0:0:
116,144,13987,1,0,0:0:0:0:
60,76,14149,2,0,L|16:40,2,55,0|8|0,0:0|0:0|0:0,0:0:0:0:
236,88,14797,5,0,0:0:0:0:
276,200,14960,2,0,P|304:148|320:136,1,55,8|0,0:0|0:0,0:0:0:0:
388,164,15284,2,0,P|360:216|344:228,1,55,0|0,0:0|0:0,0:0:0:0:
312,284,15608,1,8,0:0:0:0:
224,272,15770,1,0,0:0:0:0:
224,272,15933,6,0,P|184:260|152:264,2,55,0|0|8,0:0|0:0|0:0,0:0:0:0:
312,284,16419,2,0,P|380:268|416:232,1,110,0|0,0:0|0:0,0:0:0:0:
404,152,16906,1,8,0:0:0:0:
324,184,17068,2,0,P|320:128|356:80,1,110,0|0,0:0|0:0,0:0:0:0:
272,32,17554,1,8,0:0:0:0:
272,32,17716,1,0,0:0:0:0:
208,92,17878,2,0,L|180:148,1,55
68,176,18203,2,0,L|96:120,1,55,8|0,0:0|0:0,0:0:0:0:
164,248,18527,6,0,B|208:204|276:212,1,110,0|8,0:0|0:0,0:0:0:0:
348,256,19014,2,0,P|356:196|332:144,1,110
356,60,19500,1,8,0:0:0:0:
452,60,19662,6,0,P|480:112|464:176,1,110,0|0,0:0|0:0,0:0:0:0:
456,244,20149,2,0,P|440:280|436:308,2,55,8|0|0,0:0|0:0|0:0,0:0:0:0:
364,216,20635,2,0,L|324:216,2,27.5,8|8|0,0:0|0:0|1:0,0:0:0:0:
432,148,20960,1,8,0:0:0:0:
432,148,21041,1,8,0:0:0:0:
432,148,21122,6,4,P|384:116|320:112,1,110,4|12,0:0|0:0,0:0:0:0:
248,96,21608,2,0,P|252:140|264:156,1,55,0|0,0:0|0:0,0:0:0:0:
228,232,21933,1,0,0:0:0:0:
156,180,22095,1,8,0:0:0:0:
144,268,22257,6,0,P|176:304|248:316,1,110,0|0,0:0|0:0,0:0:0:0:
308,272,22743,2,0,L|352:312,1,55,8|0,0:0|0:0,0:0:0:0:
372,200,23068,2,0,L|328:160,1,55,0|0,0:0|0:0,0:0:0:0:
324,76,23392,1,8,0:0:0:0:
324,76,23716,6,0,P|256:116|204:120,1,110,0|8,0:0|0:0,0:0:0:0:
52,156,24365,2,0,P|26:145|1:134,2,55,0|0|8,0:0|0:0|0:0,0:0:0:0:
128,208,24851,2,0,P|180:168|232:168,1,110,0|0,0:0|0:0,0:0:0:0:
204,252,25338,2,0,P|244:252|268:232,2,55,8|0|0,0:0|0:0|0:0,0:0:0:0:
128,300,25824,2,0,L|108:336,2,27.5,8|8|0,0:0|0:0|1:0,0:0:0:0:
84,224,26149,1,8,0:0:0:0:
84,224,26230,1,8,0:0:0:0:
84,224,26311,5,4,0:0:0:0:
248,160,26635,2,0,P|280:208|336:248,1,110,8|0,0:0|0:0,0:0:0:0:
376,312,27122,2,0,P|404:280|412:252,1,55,0|8,0:0|0:0,0:0:0:0:
388,184,27446,1,0,0:0:0:0:
256,72,27770,5,0,0:0:0:0:
168,88,27933,2,0,P|124:112|104:112,1,55,8|0,0:0|0:0,0:0:0:0:
112,24,28257,1,0,0:0:0:0:
112,24,28419,1,0,0:0:0:0:
40,76,28581,2,0,P|36:128|48:144,1,55,8|0,0:0|0:0,0:0:0:0:
60,212,28906,6,0,B|104:240|104:296|104:296|136:296,1,110,0|8,0:0|0:0,0:0:0:0:
300,292,29554,2,0,P|344:296|364:288,1,55
320,212,29878,2,0,P|308:172|280:152,1,55,8|0,0:0|0:0,0:0:0:0:
252,64,30203,5,8,0:0:0:0:
96,56,30365,1,4,0:3:0:0:
212,148,30527,1,4,0:3:0:0:
172,8,30689,1,4,0:3:0:0:
124,140,30851,1,4,0:3:0:0:
336,32,31014,2,0,L|324:4,2,27.5,8|8|8,0:0|0:0|0:0,0:0:0:0:
408,84,31338,1,8,0:0:0:0:
408,84,31419,1,8,0:0:0:0:
408,84,31500,6,0,P|392:152|400:192,1,98.9999969787599,4|8,0:0|0:0,0:0:0:0:
312,316,32149,2,0,P|268:296|256:280,1,49.4999984893799,0|0,0:0|0:0,0:0:0:0:
320,236,32473,1,8,0:0:0:0:
256,180,32635,6,0,P|184:200|152:196,1,98.9999969787599,0|0,0:0|0:0,0:0:0:0:
92,148,33122,2,0,P|76:176|80:208,1,49.4999984893799,8|0,0:0|0:0,0:0:0:0:
212,60,33608,1,0,0:0:0:0:
288,84,33770,2,0,L|316:136,2,49.4999984893799,8|0|0,0:0|0:0|0:0,0:0:0:0:
240,236,34419,5,8,0:0:0:0:
240,236,34906,1,0,0:0:0:0:
308,200,35068,2,0,P|352:212|372:208,1,49.4999984893799,8|0,0:0|0:0,0:0:0:0:
348,132,35392,6,0,B|324:100|328:56|328:56|296:40,1,98.9999969787599,0|8,0:0|0:0,0:0:0:0:
228,60,35878,1,0,0:0:0:0:
172,120,36041,2,0,L|172:176,1,49.4999984893799,0|0,0:0|0:0,0:0:0:0:
92,184,36365,2,0,L|92:124,2,49.4999984893799,8|0|4,0:0|0:0|0:0,0:0:0:0:
180,316,37014,5,8,0:0:0:0:
180,316,37338,2,0,P|256:312|288:320,1,98.9999969787599,0|8,0:0|0:0,0:0:0:0:
356,312,37824,2,0,P|400:296|432:240,1,98.9999969787599,0|0,0:0|0:0,0:0:0:0:
352,228,38311,1,8,0:0:0:0:
312,160,38473,6,0,P|272:108|272:64,1,98.9999969787599,0|0,0:0|0:0,0:0:0:0:
348,88,38960,2,0,L|396:60,2,49.4999984893799,8|0|0,0:0|0:0|0:0,0:0:0:0:
204,156,39608,1,8,0:0:0:0:
128,176,39770,2,0,P|112:228|68:264,1,98.9999969787599,0|0,0:0|0:0,0:0:0:0:
0,264,40257,6,0,P|8:296|24:316,2,49.4999984893799,8|0|0,0:0|0:0|0:0,0:0:0:0:
60,116,40906,1,8,0:0:0:0:
124,176,41068,1,0,0:0:0:0:
124,176,41149,1,0,0:0:0:0:
124,176,41230,2,0,L|128:232,2,49.4999984893799,0|0|8,0:0|0:0|0:0,0:0:0:0:
192,136,41716,1,0,0:0:0:0:
264,168,41878,6,0,B|304:204|304:204|352:212,1,98.9999969787599,4|8,0:0|0:0,0:0:0:0:
416,68,42527,2,0,P|460:88|472:100,1,49.4999984893799,0|0,0:0|0:0,0:0:0:0:
408,148,42851,2,0,P|372:140|344:120,2,49.4999984893799,8|0|0,0:0|0:0|0:0,0:0:0:0:
464,204,43338,1,0,0:0:0:0:
436,284,43500,1,8,0:0:0:0:
360,320,43662,2,0,P|304:280|260:272,1,98.9999969787599,0|0,0:0|0:0,0:0:0:0:
196,284,44149,1,8,0:0:0:0:
144,136,44473,6,0,B|180:112|184:68|184:68|212:80,1,98.9999969787599,0|8,0:0|0:0,0:0:0:0:
268,36,44960,2,0,P|280:84|256:132,1,98.9999969787599,0|0,0:0|0:0,0:0:0:0:
252,208,45446,1,8,0:0:0:0:
288,280,45608,6,0,P|360:280|392:264,1,98.9999969787599,0|0,0:0|0:0,0:0:0:0:
432,208,46095,2,0,L|488:220,1,49.4999984893799,8|0,0:0|0:0,0:0:0:0:
380,96,46581,1,0,0:0:0:0:
304,116,46743,2,0,L|248:104,1,49.4999984893799,8|0,0:0|0:0,0:0:0:0:
188,64,47068,5,0,0:0:0:0:
188,64,47392,2,0,P|140:120|136:156,1,98.9999969787599,8|0,0:0|0:0,0:0:0:0:
200,200,47878,2,0,P|232:212|256:236,1,49.4999984893799,0|8,0:0|0:0,0:0:0:0:
328,224,48203,2,0,P|308:276|260:304,1,98.9999969787599
196,328,48689,1,8,0:0:0:0:
112,320,48851,6,0,P|100:272|68:224,1,98.9999969787599,0|0,0:0|0:0,0:0:0:0:
24,168,49338,2,0,P|60:152|80:152,2,49.4999984893799,8|0|4,0:0|0:0|0:0,0:0:0:0:
152,96,49987,2,0,P|168:128|168:156,1,49.4999984893799,8|0,0:0|0:0,0:0:0:0:
232,192,50311,1,0,0:0:0:0:
384,240,50635,2,0,P|368:280|352:292,2,49.4999984893799,0|0|0,0:0|0:0|0:0,0:0:0:0:
312,100,51284,6,0,L|264:72,1,49.4999984893799,8|0,0:0|0:0,0:0:0:0:
248,152,51608,2,0,L|292:180,1,49.4999984893799,0|8,1:0|0:3,0:0:0:0:
316,252,51933,1,4,0:3:0:0:
272,316,52095,1,0,3:0:0:0:
196,308,52257,6,0,P|156:256|112:232,1,110,4|8,0:0|0:0,0:0:0:0:
32,244,52743,2,0,P|48:184|88:152,1,110,0|0,0:0|0:0,0:0:0:0:
156,108,53230,1,8,0:0:0:0:
240,80,53392,6,0,P|304:96|356:84,1,110,0|0,0:0|0:0,0:0:0:0:
432,108,53878,2,0,L|484:160,1,55,8|0,0:0|0:0,0:0:0:0:
440,256,54203,2,0,L|388:204,1,55,0|0,0:0|0:0,0:0:0:0:
276,216,54527,2,0,L|328:268,1,55,8|0,0:0|0:0,0:0:0:0:
268,344,54851,6,0,P|192:336|140:348,1,110,0|8,0:0|0:0,0:0:0:0:
28,224,55500,2,0,P|4:188|0:168,2,55,0|0|8,0:0|0:0|0:0,0:0:0:0:
96,168,55987,2,0,P|168:144|216:156,1,110,0|0,0:0|0:0,0:0:0:0:
256,216,56473,2,0,L|232:272,1,55,8|0,0:0|0:0,0:0:0:0:
248,352,56797,1,0,0:0:0:0:
332,340,56960,2,0,L|372:360,2,27.5,8|8|8,0:0|0:0|0:0,0:0:0:0:
372,264,57284,1,8,0:0:0:0:
372,264,57365,1,8,0:0:0:0:
372,264,57446,6,0,P|396:216|396:192,1,55,4|0,0:0|0:0,0:0:0:0:
392,128,57770,2,0,P|432:136|456:152,2,55,8|0|0,0:0|0:0|0:0,0:0:0:0:
308,152,58257,2,0,P|304:112|316:88,1,55,0|8,0:0|0:0,0:0:0:0:
236,48,58581,6,0,B|208:72|156:72|156:72|144:104,1,110,0|0,0:0|0:0,0:0:0:0:
84,156,59068,2,0,P|120:180|140:180,2,55,8|0|0,0:0|0:0|0:0,0:0:0:0:
36,228,59554,1,0,0:0:0:0:
76,304,59716,1,8,0:0:0:0:
164,304,59878,1,0,0:0:0:0:
164,304,60041,6,0,P|224:276|256:232,1,110,0|8,0:0|0:0,0:0:0:0:
412,176,60689,1,0,0:0:0:0:
500,184,60851,1,0,0:0:0:0:
444,260,61014,2,0,P|400:262|381:256,2,55,8|0|0,0:0|0:0|0:0,0:0:0:0:
412,176,61500,5,0,0:0:0:0:
432,92,61662,2,0,P|464:72|484:68,2,55,8|0|8,0:0|0:0|0:0,0:0:0:0:
348,120,62149,2,8,L|312:84,2,27.5
276,172,62473,1,8,0:0:0:0:
276,172,62635,6,0,P|208:164|176:140,1,98.9999969787599,4|8,0:0|0:0,0:0:0:0:
32,104,63284,1,0,0:0:0:0:
56,180,63446,1,0,0:0:0:0:
32,256,63608,2,0,P|80:304|128:312,1,98.9999969787599,8|0,0:0|0:0,0:0:0:0:
240,224,64257,1,8,0:0:0:0:
284,288,64419,1,0,0:0:0:0:
436,244,64743,2,0,P|472:260|488:280,2,49.4999984893799,0|8|0,0:0|0:0|0:0,0:0:0:0:
356,248,65230,6,0,P|332:200|340:152,1,98.9999969787599,0|8,0:0|0:0,0:0:0:0:
400,108,65716,2,0,P|348:76|292:88,1,98.9999969787599,0|0,0:0|0:0,0:0:0:0:
240,116,66203,1,8,0:0:0:0:
168,80,66365,6,0,P|116:120|76:128,1,98.9999969787599,0|0,0:0|0:0,0:0:0:0:
20,172,66851,2,0,P|16:212|24:228,1,49.4999984893799,8|0,0:0|0:0,0:0:0:0:
96,244,67176,2,0,P|100:204|92:188,1,49.4999984893799,0|0,0:0|0:0,0:0:0:0:
96,116,67500,2,0,P|156:108|192:80,1,98.9999969787599,8|4,0:0|0:0,0:0:0:0:
344,96,68149,6,0,P|348:148|336:196,1,98.9999969787599,8|0,0:0|0:0,0:0:0:0:
268,232,68635,1,0,0:0:0:0:
216,292,68797,2,0,L|212:348,2,49.4999984893799,8|0|0,0:0|0:0|0:0,0:0:0:0:
148,252,69284,2,0,P|120:216|96:204,1,49.4999984893799,0|8,0:0|0:0,0:0:0:0:
40,204,69608,2,0,P|60:160|104:140,1,98.9999969787599,0|0,0:0|0:0,0:0:0:0:
164,88,70095,1,8,0:0:0:0:
164,88,70257,1,0,0:0:0:0:
232,132,70419,6,0,B|272:160|272:160|328:160,1,98.9999969787599,0|8,0:0|0:0,0:0:0:0:
380,108,70906,2,0,B|404:152|404:152|404:212,1,98.9999969787599,0|0,0:0|0:0,0:0:0:0:
340,248,71392,2,0,L|344:300,1,49.4999984893799,8|0,0:0|0:0,0:0:0:0:
272,328,71716,6,0,P|244:344|211:339,2,49.4999984893799,0|0|8,0:0|0:0|0:0,0:0:0:0:
228,256,72203,1,0,0:0:0:0:
156,300,72365,1,0,0:0:0:0:
68,156,72689,1,4,0:0:0:0:
239,152,73014,5,4,0:0:0:0:
239,152,73338,2,0,P|223:197|235:245,1,98.9999969787599,0|0,0:0|0:0,0:0:0:0:
308,204,73824,1,0,0:0:0:0:
312,288,73987,1,0,0:0:0:0:
236,328,74149,2,0,P|172:332|124:304,1,98.9999969787599,0|0,0:0|0:0,0:0:0:0:
108,240,74635,1,0,0:0:0:0:
56,168,74797,2,0,B|100:136|152:160,1,98.9999969787599,0|0,0:0|0:0,0:0:0:0:
200,232,75284,2,0,P|224:208|232:180,1,49.4999984893799,0|0,0:0|0:0,0:0:0:0:
224,104,75608,6,0,P|264:76|324:76,1,98.9999969787599,0|0,0:0|0:0,0:0:0:0:
388,112,76095,2,0,P|392:168|420:208,1,98.9999969787599,0|0,0:0|0:0,0:0:0:0:
480,256,76581,2,0,P|448:280|424:280,1,49.4999984893799,0|0,0:0|0:0,0:0:0:0:
298,258,76906,2,0,P|330:234|354:234,1,49.4999984893799,0|0,0:0|0:0,0:0:0:0:
349,343,77230,6,0,L|300:336,1,49.4999984893799,0|0,0:0|0:0,0:0:0:0:
228,208,77554,2,0,L|258:169,1,49.4999984893799,0|0,0:0|0:0,0:0:0:0:
400,172,77878,2,0,L|418:217,1,49.4999984893799,0|0,0:0|0:0,0:0:0:0:
500,256,78203,6,0,P|464:300|408:308,1,98.9999969787599,0|0,0:0|0:0,0:0:0:0:
252,324,78851,2,0,P|292:284|336:276,1,98.9999969787599,0|0,0:0|0:0,0:0:0:0:
400,220,79338,2,0,P|404:156|384:108,1,98.9999969787599,0|0,0:0|0:0,0:0:0:0:
336,60,79824,1,0,0:0:0:0:
252,48,79987,6,0,P|200:68|164:108,1,98.9999969787599,0|0,0:0|0:0,0:0:0:0:
212,172,80473,1,0,0:0:0:0:
292,152,80635,1,0,0:0:0:0:
352,212,80797,2,0,P|336:260|292:284,1,98.9999969787599,0|0,0:0|0:0,0:0:0:0:
216,288,81284,1,0,0:0:0:0:
144,320,81446,6,0,P|120:272|80:248,1,98.9999969787599,0|0,0:0|0:0,0:0:0:0:
36,184,81933,1,0,0:0:0:0:
72,112,82095,2,0,L|120:96,1,49.4999984893799,0|0,0:0|0:0,0:0:0:0:
168,156,82419,1,0,0:0:0:0:
168,156,82581,1,0,0:0:0:0:
248,160,82743,2,0,P|240:200|224:216,1,49.4999984893799,0|0,0:0|0:0,0:0:0:0:
296,284,83068,2,0,P|304:244|320:228,1,49.4999984893799,0|0,0:0|0:0,0:0:0:0:
376,280,83392,6,0,P|428:252|448:196,1,110,0|0,0:0|0:0,0:0:0:0:
352,60,84041,1,0,0:0:0:0:
300,228,84365,1,0,0:0:0:0:
180,100,84689,1,0,0:0:0:0:
128,172,84851,2,0,P|84:188|64:188,2,55,0|0|0,0:0|0:0|0:0,0:0:0:0:
180,248,85338,1,0,0:0:0:0:
296,352,85662,1,0,0:0:0:0:
436,268,85987,6,0,P|472:256|492:256,2,55,0|0|0,0:0|0:0|0:0,0:0:0:0:
352,288,86473,2,0,P|312:248|300:192,1,110,0|0,0:0|0:0,0:0:0:0:
248,124,86960,1,0,0:0:0:0:
160,108,87122,2,0,P|112:136|56:144,2,110,0|0|0,0:0|0:0|0:0,0:0:0:0:
220,44,87933,1,0,0:0:0:0:
220,44,88095,1,0,0:0:0:0:
300,40,88257,2,0,P|344:68|368:72,1,55,0|0,0:0|0:0,0:0:0:0:
432,92,88581,6,0,L|428:148,1,55,0|0,0:0|0:0,0:0:0:0:
352,196,88906,2,0,L|348:252,1,55,0|0,0:0|0:0,0:0:0:0:
176,224,89392,2,0,P|204:248|212:268,1,55,0|0,0:0|0:0,0:0:0:0:
184,348,89716,2,0,P|240:348|288:312,1,110,0|0,0:0|0:0,0:0:0:0:
368,300,90203,2,0,L|424:316,2,55,0|0|0,0:0|0:0|0:0,0:0:0:0:
428,236,90689,1,0,0:0:0:0:
364,176,90851,1,0,0:0:0:0:
428,112,91014,1,0,0:0:0:0:
364,52,91176,6,0,P|320:72|252:76,1,110,0|0,0:0|0:0,0:0:0:0:
172,72,91662,1,0,0:0:0:0:
136,148,91824,2,0,P|168:216|168:260,1,110,0|0,0:0|0:0,0:0:0:0:
256,260,92311,1,0,0:0:0:0:
308,328,92473,2,0,P|340:276|336:220,1,110,0|0,0:0|0:0,0:0:0:0:
308,144,92960,1,0,0:0:0:0:
224,116,93122,2,0,P|208:164|196:176,1,55,0|0,0:0|0:0,0:0:0:0:
132,216,93446,1,0,0:0:0:0:
132,216,93770,5,0,0:0:0:0:
84,292,93933,1,0,0:0:0:0:
156,340,94095,1,0,0:0:0:0:
204,268,94257,1,0,0:0:0:0:
392,272,94581,2,0,P|428:256|444:232,1,55,0|0,0:0|0:0,0:0:0:0:
372,184,94906,6,0,P|360:128|328:88,1,110,0|0,0:0|0:0,0:0:0:0:
224,80,95392,1,0,0:0:0:0:
264,172,95554,2,0,P|208:188|172:240,1,110,0|0,0:0|0:0,0:0:0:0:
260,264,96041,1,0,0:0:0:0:
152,128,96365,6,0,B|172:92|164:44|164:44|200:36,1,110,0|0,0:0|0:0,0:0:0:0:
264,84,96851,2,0,P|312:108|336:156,1,110,0|0,0:0|0:0,0:0:0:0:
248,172,97338,2,0,P|236:208|204:236,2,55,0|0|0,0:0|0:0|0:0,0:0:0:0:
264,84,97824,1,0,0:0:0:0:
312,12,97987,1,0,0:0:0:0:
384,64,98149,1,0,0:0:0:0:
336,136,98311,2,0,L|336:260,1,110,0|0,0:0|0:0,0:0:0:0:
184,336,98960,6,0,L|260:308,1,55,0|0,0:0|0:0,0:0:0:0:
176,252,99284,2,0,L|100:280,1,55,0|0,0:0|0:0,0:0:0:0:
100,120,99770,2,0,P|96:147|83:171,2,55,0|0|0,0:0|0:0|0:0,0:0:0:0:
124,36,100257,1,0,0:0:0:0:
196,76,100419,2,0,L|248:48,2,55,0|0|0,0:0|0:0|0:0,0:0:0:0:
168,160,100906,2,0,P|184:204|196:212,1,55,0|0,0:0|0:0,0:0:0:0:
276,220,101230,1,0,0:0:0:0:
448,184,101554,6,0,L|408:136,1,55,0|0,0:0|0:0,0:0:0:0:
364,216,101878,2,0,L|404:264,1,55,0|0,0:0|0:0,0:0:0:0:
328,308,102203,2,0,P|284:336|276:348,2,55,0|0|0,0:0|0:0|0:0,0:0:0:0:
276,240,102689,6,0,P|232:200|216:152,1,110,0|0,0:0|0:0,0:0:0:0:
228,64,103176,1,0,0:0:0:0:
316,80,103338,1,0,0:0:0:0:
300,168,103500,1,0,0:0:0:0:
216,153,103662,1,0,0:0:0:0:
144,204,103824,1,0,0:0:0:0:
144,204,104149,6,0,P|172:252|232:296,1,126.500002412796,0|0,0:0|0:0,0:0:0:0:
396,232,104797,2,0,P|376:196|344:172,1,63.250001206398,0|0,0:0|0:0,0:0:0:0:
308,252,105122,1,0,0:0:0:0:
224,224,105284,2,0,P|152:224|92:252,1,126.500002412796,0|0,0:0|0:0,0:0:0:0:
16,228,105770,1,0,0:0:0:0:
20,140,105933,2,0,P|52:84|112:52,1,126.500002412796,0|0,0:0|0:0,0:0:0:0:
192,72,106419,1,0,0:0:0:0:
224,244,106743,6,0,P|296:264|352:232,1,126.500002412796,0|0,0:0|0:0,0:0:0:0:
308,68,107392,2,0,P|284:124|284:192,1,126.500002412796,0|0,0:0|0:0,0:0:0:0:
292,276,107878,2,0,L|240:324,1,63.250001206398,0|0,0:0|0:0,0:0:0:0:
192,248,108203,5,0,0:0:0:0:
180,160,108365,2,0,L|152:88,1,63.250001206398,0|0,0:0|0:0,0:0:0:0:
264,104,108689,2,0,L|292:176,1,63.250001206398,0|0,0:0|0:0,0:0:0:0:
384,160,109014,2,0,L|356:88,2,63.250001206398,0|0|0,0:0|0:0|0:0,0:0:0:0:
256,284,109662,6,0,P|184:292|120:272,1,126.500002412796,0|0,0:0|0:0,0:0:0:0:
76,212,110149,1,0,0:0:0:0:
76,124,110311,2,0,P|32:96|16:92,2,63.250001206398,0|0|0,0:0|0:0|0:0,0:0:0:0:
152,172,110797,2,0,P|164:120|156:92,1,63.250001206398,0|0,0:0|0:0,0:0:0:0:
232,56,111122,2,0,P|296:76|364:68,1,126.500002412796,0|0,0:0|0:0,0:0:0:0:
428,120,111608,1,0,0:0:0:0:
400,204,111770,1,0,0:0:0:0:
312,196,111933,6,0,P|280:248|272:316,1,126.500002412796,0|0,0:0|0:0,0:0:0:0:
184,332,112419,2,0,P|144:288|140:268,1,63.250001206398,0|0,0:0|0:0,0:0:0:0:
148,196,112743,2,0,P|104:200|80:216,2,63.250001206398,0|0|0,0:0|0:0|0:0,0:0:0:0:
176,112,113230,5,0,0:0:0:0:
176,112,113554,1,0,0:0:0:0:
352,84,113878,1,0,0:0:0:0:
432,124,114041,2,0,L|472:108,2,31.625000603199,0|0|0,0:0|0:0|0:0,0:0:0:0:
416,212,114365,1,0,0:0:0:0:
416,212,114446,1,0,0:0:0:0:
416,212,114527,5,0,0:0:0:0:
240,212,114851,2,0,P|176:240|148:304,1,126.500002412796,0|0,0:0|0:0,0:0:0:0:
248,316,115338,1,0,0:0:0:0:
352,284,115500,1,0,0:0:0:0:
328,180,115662,2,0,P|372:144|380:128,1,63.250001206398,0|0,0:0|0:0,0:0:0:0:
296,100,115987,2,0,P|264:60|244:52,1,63.250001206398,0|0,0:0|0:0,0:0:0:0:
212,132,116311,2,0,B|168:164|120:172|120:172|112:208,1,126.500002412796,0|0,0:0|0:0,0:0:0:0:
168,268,116797,2,0,L|112:312,2,63.250001206398,0|0|0,0:0|0:0|0:0,0:0:0:0:
344,276,117446,6,0,P|368:212|348:152,1,126.500002412796,0|0,0:0|0:0,0:0:0:0:
176,184,118095,1,0,0:0:0:0:
104,232,118257,2,0,P|76:312|44:344,2,126.500002412796,0|0|0,0:0|0:0|0:0,0:0:0:0:
88,144,119068,2,0,P|120:88|184:60,1,126.500002412796,0|0,0:0|0:0,0:0:0:0:
248,112,119554,1,0,0:0:0:0:
332,88,119716,6,0,P|348:148|332:224,1,126.500002412796,0|0,0:0|0:0,0:0:0:0:
252,236,120203,1,0,0:0:0:0:
168,268,120365,2,0,P|120:296|112:316,1,63.250001206398,0|0,0:0|0:0,0:0:0:0:
36,232,120689,2,0,P|84:204|92:184,1,63.250001206398,0|0,0:0|0:0,0:0:0:0:
148,124,121014,2,0,P|184:88|208:80,2,63.250001206398,0|0|0,0:0|0:0|0:0,0:0:0:0:
224,168,121500,2,0,P|280:188|328:248,1,126.500002412796,0|0,0:0|0:0,0:0:0:0:
400,280,121987,1,0,0:0:0:0:
400,280,122149,1,0,0:0:0:0:
460,212,122311,6,0,L|460:76,1,126.500002412796,0|0,0:0|0:0,0:0:0:0:
372,88,122797,1,0,0:0:0:0:
284,76,122960,2,0,P|236:120|164:132,1,126.500002412796,0|0,0:0|0:0,0:0:0:0:
92,116,123446,1,0,0:0:0:0:
64,200,123608,5,0,0:0:0:0:
124,264,123770,2,0,L|108:300,2,31.625000603199,0|0|0,0:0|0:0|0:0,0:0:0:0:
208,240,124095,1,0,0:0:0:0:
264,172,124257,2,0,P|316:188|368:244,1,126.500002412796,0|0,0:0|0:0,0:0:0:0:
452,248,124743,2,0,L|480:220,2,31.625000603199,0|0|0,0:0|0:0|0:0,0:0:0:0:
332,264,135284,6,0,P|328:204|352:148,1,110,0|0,0:0|0:0,0:0:0:0:
160,88,136095,1,0,0:0:0:0:
180,172,136257,1,0,0:0:0:0:
116,336,136581,6,0,P|188:348|224:376,1,110,0|0,0:0|0:0,0:0:0:0:
360,148,137392,1,0,0:0:0:0:
288,200,137554,1,0,0:0:0:0:
192,80,137878,6,0,P|164:132|116:164,1,110,0|0,0:0|0:0,0:0:0:0:
60,208,138365,2,0,P|84:260|132:296,1,110,0|0,0:0|0:0,0:0:0:0:
192,256,138851,2,0,P|232:240|264:240,1,55,0|0,0:0|0:0,0:0:0:0:
316,268,139176,6,0,P|320:224|312:200,1,55,0|0,0:0|0:0,0:0:0:0:
412,164,139500,2,0,P|408:208|416:232,1,55,0|0,0:0|0:0,0:0:0:0:
392,292,139824,1,0,0:0:0:0:
316,268,139987,1,0,0:0:0:0:
252,312,140149,1,0,0:0:0:0:
180,284,140311,1,0,0:0:0:0:
112,320,140473,6,0,P|64:272|56:216,1,110,0|0,0:0|0:0,0:0:0:0:
224,76,141284,2,0,L|288:64,2,55,0|0|0,0:0|0:0|0:0,0:0:0:0:
148,60,141770,6,0,B|120:120|120:120|132:152|128:184,1,110,0|0,0:0|0:0,0:0:0:0:
92,232,142257,1,0,0:0:0:0:
228,304,142581,2,0,P|256:320|284:320,2,55,0|0|0,0:0|0:0|0:0,0:0:0:0:
272,240,143068,6,0,B|288:180|288:180|268:128,1,110,0|0,0:0|0:0,0:0:0:0:
416,80,143716,2,0,L|444:140,1,55,0|0,0:0|0:0,0:0:0:0:
376,176,144041,2,0,L|404:236,1,55,0|0,0:0|0:0,0:0:0:0:
472,248,144365,6,0,P|444:288|376:296,1,110,0|0,0:0|0:0,0:0:0:0:
216,232,145014,2,0,L|260:200,1,55,0|0,0:0|0:0,0:0:0:0:
264,204,145662,5,0,0:0:0:0:
264,204,145987,2,0,P|244:144|200:112,1,110,0|0,0:0|0:0,0:0:0:0:
100,224,146635,1,0,0:0:0:0:
156,280,146797,2,0,P|220:280|272:304,1,110,0|0,0:0|0:0,0:0:0:0:
364,180,147446,1,0,0:0:0:0:
440,196,147608,2,0,L|480:248,1,55,0|0,0:0|0:0,0:0:0:0:
456,344,147933,2,0,L|416:292,1,55,0|0,0:0|0:0,0:0:0:0:
348,284,148257,6,0,P|296:256|268:208,1,110,0|0,0:0|0:0,0:0:0:0:
296,144,148743,2,0,P|264:96|212:72,1,110,0|0,0:0|0:0,0:0:0:0:
144,96,149230,1,0,0:0:0:0:
100,160,149392,2,0,B|80:216|80:216|104:260,1,110,0|0,0:0|0:0,0:0:0:0:
180,252,149878,2,0,P|208:268|228:292,2,55,0|0|0,0:0|0:0|0:0,0:0:0:0:
44,324,150527,1,0,0:0:0:0:
44,172,150851,6,0,B|76:136|72:88|72:88|112:84,1,110,0|0,0:0|0:0,0:0:0:0:
160,56,151338,2,0,P|192:80|200:100,1,55,0|0,0:0|0:0,0:0:0:0:
348,124,151824,1,0,0:0:0:0:
380,192,151987,2,0,P|352:248|304:268,1,110,0|0,0:0|0:0,0:0:0:0:
232,268,152473,2,0,L|192:312,2,55,0|0|0,0:0|0:0|0:0,0:0:0:0:
228,112,153122,2,0,L|188:68,1,55,0|0,0:0|0:0,0:0:0:0:
120,96,153446,6,0,P|104:160|72:192,1,110,0|0,0:0|0:0,0:0:0:0:
52,264,153933,2,0,P|96:296|152:296,1,110,0|0,0:0|0:0,0:0:0:0:
212,256,154419,2,0,L|264:296,1,55,0|0,0:0|0:0,0:0:0:0:
120,128,155230,2,0,L|96:104,2,27.5,0|0|0,0:0|0:0|0:0,0:0:0:0:
220,284,155716,6,0,P|260:240|312:224,1,110,0|0,0:0|0:0,0:0:0:0:
348,364,156365,1,0,0:0:0:0:
480,280,156689,1,0,0:0:0:0:
456,204,156851,1,0,0:0:0:0:
396,264,157014,1,0,0:0:0:0:
372,188,157176,6,0,P|368:128|340:92,1,98.9999969787599,0|0,0:0|0:0,0:0:0:0:
288,160,157662,1,0,0:0:0:0:
224,104,157824,1,0,0:0:0:0:
76,140,158148,2,0,P|40:124|24:104,2,49.4999984893799,0|0|0,0:0|0:0|0:0,0:0:0:0:
156,136,158635,6,0,P|180:184|172:232,1,98.9999969787599,0|0,0:0|0:0,0:0:0:0:
112,276,159122,2,0,P|152:304|208:296,1,98.9999969787599,0|0,0:0|0:0,0:0:0:0:
272,268,159608,1,0,0:0:0:0:
344,300,159770,6,0,P|396:260|436:252,1,98.9999969787599,0|0,0:0|0:0,0:0:0:0:
488,196,160256,2,0,P|492:156|484:140,1,49.4999984893799,0|0,0:0|0:0,0:0:0:0:
412,124,160581,2,0,P|408:164|416:180,1,49.4999984893799,0|0,0:0|0:0,0:0:0:0:
427,252,160906,2,0,P|380:267|344:300,1,98.9999969787599,0|0,0:0|0:0,0:0:0:0:
204,196,161554,5,0,0:0:0:0:
204,196,161878,2,0,P|136:176|92:184,1,98.9999969787599,0|0,0:0|0:0,0:0:0:0:
44,224,162365,2,0,P|32:176|48:128,1,98.9999969787599,0|0,0:0|0:0,0:0:0:0:
120,100,162851,2,0,L|164:64,1,49.4999984893799,0|0,0:0|0:0,0:0:0:0:
316,100,163338,2,0,L|288:52,2,49.4999984893799,0|0|0,0:0|0:0|0:0,0:0:0:0:
352,172,163824,5,0,0:0:0:0:
352,172,164149,1,0,0:0:0:0:
232,276,164473,2,0,P|172:272|128:240,1,98.9999969787599,0|0,0:0|0:0,0:0:0:0:
108,180,164960,2,0,P|72:164|48:164,1,49.4999984893799,0|0,0:0|0:0,0:0:0:0:
84,320,165446,5,0,0:0:0:0:
232,276,165770,2,0,L|288:304,1,49.4999984893799,0|0,0:0|0:0,0:0:0:0:
352,264,166095,1,0,0:0:0:0:
424,220,166257,1,0,0:0:0:0:
404,128,166419,6,0,L|384:76,1,55,0|0,0:0|0:0,0:0:0:0:
296,72,166743,2,0,L|316:124,1,55,0|0,0:0|0:0,0:0:0:0:
240,284,167230,1,0,0:0:0:0:
168,336,167392,2,0,L|148:284,1,55,0|0,0:0|0:0,0:0:0:0:
76,236,167716,6,0,P|112:204|176:200,1,110,0|0,0:0|0:0,0:0:0:0:
344,236,168365,1,0,0:0:0:0:
296,72,168689,1,0,0:0:0:0:
120,72,169014,6,0,P|124:120|116:144,1,55,0|0,0:0|0:0,0:0:0:0:
76,200,169338,2,0,P|116:212|140:208,1,55,0|0,0:0|0:0,0:0:0:0:
292,144,169824,1,0,0:0:0:0:
428,256,170149,2,0,P|384:300|340:316,2,110,0|0|0,0:0|0:0|0:0,0:0:0:0:
404,172,170960,2,0,P|424:128|436:120,2,55,0|0|0,0:0|0:0|0:0,0:0:0:0:
316,172,171446,1,0,0:0:0:0:
228,156,171608,6,0,L|176:204,2,55,0|0|0,0:0|0:0|0:0,0:0:0:0:
256,72,172095,2,0,P|196:80|140:60,1,110,0|0,0:0|0:0,0:0:0:0:
40,204,172743,2,0,P|60:260|108:300,1,110,0|0,0:0|0:0,0:0:0:0:
180,268,173230,2,0,L|216:312,1,55,0|0,0:0|0:0,0:0:0:0:
300,292,173554,1,0,0:0:0:0:
376,244,173716,1,0,0:0:0:0:
408,160,173878,1,0,0:0:0:0:
388,72,174041,1,0,0:0:0:0:
312,32,174203,6,0,P|284:76|220:96,1,110,0|0,0:0|0:0,0:0:0:0:
144,92,174689,1,0,0:0:0:0:
80,32,174851,2,0,P|56:84|72:144,1,110,0|0,0:0|0:0,0:0:0:0:
112,208,175338,1,0,0:0:0:0:
192,240,175500,2,0,P|252:240|316:260,1,110,0|0,0:0|0:0,0:0:0:0:
388,244,175987,1,0,0:0:0:0:
436,172,176149,2,0,P|472:148|492:144,2,55,0|0|0,0:0|0:0|0:0,0:0:0:0:
280,88,176797,5,0,0:0:0:0:
308,172,176960,1,0,0:0:0:0:
224,200,177122,1,0,0:0:0:0:
196,116,177284,1,0,0:0:0:0:
92,256,177608,2,0,L|60:316,2,55,0|0|0,0:0|0:0|0:0,0:0:0:0:
268,240,178257,2,0,L|320:260,2,55,0|0|0,0:0|0:0|0:0,0:0:0:0:
184,220,178743,2,0,P|176:168|200:112,1,110,0|0,0:0|0:0,0:0:0:0:
368,76,179392,6,0,L|316:48,2,55,0|0|0,0:0|0:0|0:0,0:0:0:0:
424,144,179878,2,0,P|400:200|352:232,1,110,0|0,0:0|0:0,0:0:0:0:
276,204,180365,1,0,0:0:0:0:
188,204,180527,2,0,P|152:248|152:312,1,110,0|0,0:0|0:0,0:0:0:0:
236,280,181014,2,0,L|300:312,2,55,0|0|0,0:0|0:0|0:0,0:0:0:0:
275,203,181500,2,0,L|325:228,1,55,0|0,0:0|0:0,0:0:0:0:
365,148,181824,2,0,L|316:124,1,55,0|0,0:0|0:0,0:0:0:0:
248,68,182149,5,0,0:0:0:0:
172,108,182311,2,0,P|128:128|104:128,2,55,0|0|0,0:0|0:0|0:0,0:0:0:0:
248,68,182797,1,0,0:0:0:0:
300,140,182960,2,0,P|328:176|352:184,1,55,0|0,0:0|0:0,0:0:0:0:
420,208,183284,1,0,0:0:0:0:
420,296,183446,2,0,L|396:352,1,55,0|0,0:0|0:0,0:0:0:0:
312,324,183770,1,0,0:0:0:0:
224,328,183933,2,0,P|184:296|180:276,1,55,0|0,0:0|0:0,0:0:0:0:
260,248,184257,1,0,0:0:0:0:
256,72,184581,6,0,L|224:120,1,55,0|0,0:0|0:0,0:0:0:0:
152,72,184906,2,0,L|120:120,1,55,0|0,0:0|0:0,0:0:0:0:
72,192,185230,2,0,P|72:232|64:252,2,55,0|0|0,0:0|0:0|0:0,0:0:0:0:
36,112,185716,5,0,0:0:0:0:
212,132,186041,1,0,0:0:0:0:
240,216,186203,2,0,L|288:252,1,55,0|0,0:0|0:0,0:0:0:0:
360,208,186527,2,0,L|312:172,1,55,0|0,0:0|0:0,0:0:0:0:
396,136,186851,2,0,L|444:172,2,55,0|0|0,0:0|0:0|0:0,0:0:0:0:
264,264,197554,6,0,P|224:228|176:212,1,98.9999969787599,0|0,0:0|0:0,0:0:0:0:
72,100,198203,1,0,0:0:0:0:
136,52,198365,2,0,P|180:68|240:56,1,98.9999969787599,0|0,0:0|0:0,0:0:0:0:
308,40,198851,2,0,P|344:56|364:76,1,49.4999984893799,0|0,0:0|0:0,0:0:0:0:
432,72,199176,1,0,0:0:0:0:
472,140,199338,2,0,B|456:176|480:216|480:216|456:244,1,98.9999969787599,0|0,0:0|0:0,0:0:0:0:
456,308,199824,2,0,P|420:296|408:280,1,49.4999984893799,0|0,0:0|0:0,0:0:0:0:
336,272,200149,6,0,P|296:232|248:216,1,98.9999969787599,0|0,0:0|0:0,0:0:0:0:
168,88,200797,1,0,0:0:0:0:
168,88,200960,1,0,0:0:0:0:
156,168,201122,2,0,L|104:208,1,49.4999984893799,0|0,0:0|0:0,0:0:0:0:
120,276,201446,1,0,0:0:0:0:
192,308,201608,2,0,P|264:296|288:268,1,98.9999969787599,0|0,0:0|0:0,0:0:0:0:
288,200,202095,2,0,L|348:200,1,49.4999984893799,0|0,0:0|0:0,0:0:0:0:
332,120,202419,2,0,L|272:120,1,49.4999984893799,0|0,0:0|0:0,0:0:0:0:
232,60,202743,6,0,P|208:100|224:164,1,98.9999969787599,0|0,0:0|0:0,0:0:0:0:
336,252,203392,2,0,P|296:292|248:304,1,98.9999969787599,0|0,0:0|0:0,0:0:0:0:
196,252,203878,2,0,B|176:292|184:320|184:320|140:324,1,98.9999969787599,0|0,0:0|0:0,0:0:0:0:
96,268,204365,1,0,0:0:0:0:
108,192,204527,2,0,P|156:168|188:128,1,98.9999969787599,0|0,0:0|0:0,0:0:0:0:
200,56,205014,2,0,P|240:72|248:88,1,49.4999984893799,0|0,0:0|0:0,0:0:0:0:
276,148,205338,6,0,P|312:192|360:208,1,98.9999969787599,0|0,0:0|0:0,0:0:0:0:
182,250,205987,2,0,P|146:206|98:190,1,98.9999969787599,0|0,0:0|0:0,0:0:0:0:
236,96,206635,2,0,P|280:104|292:116,2,49.4999984893799,0|0|0,0:0|0:0|0:0,0:0:0:0:
160,120,207122,2,0,L|128:140,2,24.74999924469,0|0|0,0:0|0:0|0:0,0:0:0:0:
168,40,207446,1,0,0:0:0:0:
428,96,207933,6,0,B|416:148|440:192|440:192|408:236,1,126.500002412796,0|0,0:0|0:0,0:0:0:0:
272,304,208581,2,0,P|252:240|272:184,1,126.500002412796,0|0,0:0|0:0,0:0:0:0:
292,100,209068,1,0,0:0:0:0:
216,56,209230,2,0,P|168:56|148:48,2,63.250001206398,0|0|0,0:0|0:0|0:0,0:0:0:0:
292,12,209716,1,0,0:0:0:0:
168,140,210041,1,0,0:0:0:0:
108,204,210203,2,0,L|148:256,1,63.250001206398,0|0,0:0|0:0,0:0:0:0:
172,340,210527,6,0,P|232:324|300:332,1,126.500002412796,0|0,0:0|0:0,0:0:0:0:
452,248,211176,1,0,0:0:0:0:
452,248,211338,1,0,0:0:0:0:
388,188,211500,2,0,P|416:148|420:120,1,63.250001206398,0|0,0:0|0:0,0:0:0:0:
332,124,211824,1,0,0:0:0:0:
244,104,211987,2,0,P|200:116|176:136,1,63.250001206398,0|0,0:0|0:0,0:0:0:0:
140,200,212311,1,0,0:0:0:0:
172,284,212473,2,0,P|108:288|60:248,1,126.500002412796,0|0,0:0|0:0,0:0:0:0:
124,76,213122,6,0,B|180:104|180:104|260:104,1,126.500002412796,0|0,0:0|0:0,0:0:0:0:
328,76,213608,1,0,0:0:0:0:
416,96,213770,2,0,P|432:132|432:168,1,63.250001206398,0|0,0:0|0:0,0:0:0:0:
360,208,214095,1,0,0:0:0:0:
332,292,214257,2,0,P|284:256|272:192,2,126.500002412796,0|0|0,0:0|0:0|0:0,0:0:0:0:
420,276,215068,2,0,P|456:288|480:308,2,63.250001206398,0|0|0,0:0|0:0|0:0,0:0:0:0:
244,276,215716,6,0,P|176:304|104:272,1,126.500002412796,0|0,0:0|0:0,0:0:0:0:
176,212,216203,2,0,P|192:144|176:88,1,126.500002412796,0|0,0:0|0:0,0:0:0:0:
96,60,216689,1,0,0:0:0:0:
12,84,216851,1,0,0:0:0:0:
76,148,217014,5,0,0:0:0:0:
76,148,217176,2,0,L|56:188,2,31.625000603199,0|0|0,0:0|0:0|0:0,0:0:0:0:
170,175,217500,1,0,0:0:0:0:
272,168,217662,1,0,0:0:0:0:
364,128,217824,2,0,L|400:156,2,31.625000603199,0|0|0,0:0|0:0|0:0,0:0:0:0:
324,36,218149,1,0,0:0:0:0:
232,76,218311,6,0,P|188:108|172:184,1,126.500002412796,0|0,0:0|0:0,0:0:0:0:
272,320,218960,2,0,P|324:292|392:300,1,126.500002412796,0|0,0:0|0:0,0:0:0:0:
476,284,219446,2,0,P|496:252|500:224,2,63.250001206398,0|0|0,0:0|0:0|0:0,0:0:0:0:
416,220,219933,1,0,0:0:0:0:
328,204,220095,2,0,B|288:180|280:124|280:124|240:112,1,126.500002412796,0|0,0:0|0:0,0:0:0:0:
164,120,220581,2,0,P|136:148|128:180,1,63.250001206398,0|0,0:0|0:0,0:0:0:0:
216,184,220906,6,0,P|252:248|304:276,1,126.500002412796,0|0,0:0|0:0,0:0:0:0:
412,104,221554,2,0,L|308:188,1,126.500002412796,0|0,0:0|0:0,0:0:0:0:
224,184,222041,1,0,0:0:0:0:
224,184,222203,2,0,L|216:108,1,63.250001206398,0|0,0:0|0:0,0:0:0:0:
132,160,222527,2,0,L|140:236,1,63.250001206398,0|0,0:0|0:0,0:0:0:0:
168,60,222851,2,0,P|216:40|240:44,1,63.250001206398,0|0,0:0|0:0,0:0:0:0:
281,164,223176,2,0,P|233:184|209:180,1,63.250001206398,0|0,0:0|0:0,0:0:0:0:
132,160,223500,6,0,P|140:216|188:268,1,126.500002412796,0|0,0:0|0:0,0:0:0:0:
352,208,224149,1,0,0:0:0:0:
428,164,224311,2,0,B|388:136|384:72|384:72|360:92,1,126.500002412796,0|0,0:0|0:0,0:0:0:0:
284,116,224797,2,0,P|244:88|232:68,1,63.250001206398,0|0,0:0|0:0,0:0:0:0:
176,144,225122,1,0,0:0:0:0:
88,132,225284,2,0,P|104:192|160:232,1,126.500002412796,0|0,0:0|0:0,0:0:0:0:
240,216,225770,1,0,0:0:0:0:
328,200,225933,1,0,0:0:0:0:
300,116,226095,6,0,P|372:120|416:172,1,126.500002412796,0|0,0:0|0:0,0:0:0:0:
404,244,226581,1,0,0:0:0:0:
324,280,226743,2,0,P|256:292|200:324,1,126.500002412796,0|0,0:0|0:0,0:0:0:0:
132,272,227230,1,0,0:0:0:0:
128,184,227392,2,0,P|148:136|164:124,2,63.250001206398,0|0|0,0:0|0:0|0:0,0:0:0:0:
216,196,227878,1,0,0:0:0:0:
284,140,228041,6,0,P|332:128|412:140,1,126.500002412796,0|0,0:0|0:0,0:0:0:0:
476,84,228527,2,0,L|512:56,2,31.625000603199,0|0|0,0:0|0:0|0:0,0:0:0:0:
256,192,228770,12,0,231284,0:0:0:0:
