osu file format v14

[General]
AudioFilename: Jin - Shounen Brave.mp3
AudioLeadIn: 0
PreviewTime: 79319
Countdown: 0
SampleSet: Soft
StackLeniency: 0.3
Mode: 0
LetterboxInBreaks: 1
WidescreenStoryboard: 1

[Editor]
Bookmarks: 81221,234148,266636
DistanceSpacing: 1.3
BeatDivisor: 4
GridSize: 32
TimelineZoom: 1.199999

[Metadata]
Title:Shounen Brave
TitleUnicode:少年ブレイヴ
Artist:JIN
ArtistUnicode:じん
Creator:buhei
Version:papapa's Hard
Source:カゲロウプロジェクト
Tags:_lai papapa213 Kagerou Project 自然の敵P 瀬戸幸助 小桜茉莉 Seto Marry IA VOCALOID
BeatmapID:2081750
BeatmapSetID:208242

[Difficulty]
HPDrainRate:5
CircleSize:4
OverallDifficulty:6
ApproachRate:8
SliderMultiplier:1.2
SliderTickRate:2

[Events]
//Background and Video events
0,0,"BG.jpg",0,0
//Break Periods
2,105860,123057
2,196884,205300
//Storyboard Layer 0 (Background)
//Storyboard Layer 1 (Fail)
//Storyboard Layer 2 (Pass)
//Storyboard Layer 3 (Foreground)
//Storyboard Layer 4 (Overlay)
//Storyboard Sound Samples

[TimingPoints]
295,292.682926829268,4,2,0,40,1,0
7319,-100,4,2,0,60,0,0
14343,-100,4,2,0,75,0,0
33075,-100,4,2,0,60,0,0
51807,-100,4,2,0,70,0,0
79904,-83.3333333333333,4,2,0,80,0,1
103318,-83.3333333333333,4,2,0,90,0,1
104343,-100,4,2,0,90,0,0
105221,-100,4,2,0,70,0,0
123807,-100,4,2,0,60,0,0
143124,-100,4,2,0,70,0,0
170929,292.682926829268,4,2,0,80,1,1
170929,-83.3333333333333,4,2,0,80,0,1
194343,-83.3333333333333,4,2,0,90,0,1
195368,-100,4,2,0,90,0,0
195953,-100,4,2,0,70,0,0
206050,-100,4,2,0,60,0,0
214246,-100,4,2,0,50,0,0
214831,-100,4,2,0,45,0,0
215416,-100,4,2,0,70,0,0
229611,-100,4,2,0,60,0,0
230050,-100,4,2,0,70,0,0
230636,-100,4,2,0,75,0,0
231221,-100,4,2,0,80,0,0
231807,-100,4,2,0,75,0,0
232246,-100,4,2,0,75,0,0
232465,-100,4,2,0,5,0,0
232538,-100,4,2,0,75,0,0
232758,-100,4,2,0,5,0,0
232831,-100,4,2,0,75,0,0
234148,-83.3333333333333,4,2,0,80,0,1
257563,-83.3333333333333,4,2,0,90,0,1
258587,-100,4,2,0,90,0,0
259904,-100,4,2,0,70,0,0

[Colours]
Combo1 : 255,128,64
Combo2 : 250,154,219
Combo3 : 39,238,17
Combo4 : 0,128,255

[HitObjects]
337,150,295,6,0,P|367:133|409:130,3,60,0|0|2|0,0:0|0:0|0:0|0:0,0:0:0:0:
512,228,1026,1,0,0:0:0:0:
392,129,1319,2,0,P|330:111|251:108,1,120,2|0,0:0|0:0,0:0:0:0:
212,154,1758,2,0,L|224:233,1,60,2|0,0:0|0:0,0:0:0:0:
194,287,2051,6,0,P|163:303|122:307,3,60,0|0|2|0,0:0|0:0|0:0|0:0,0:0:0:0:
0,234,2782,1,0,0:0:0:0:
92,108,3075,2,0,P|161:113|221:134,1,120,2|0,0:0|0:0,0:0:0:0:
261,186,3514,2,0,L|264:290,1,90,2|0,0:0|0:0,0:0:0:0:
297,296,3807,6,0,P|327:269|342:230,3,60,0|0|2|0,0:0|0:0|0:0|0:0,0:0:0:0:
313,98,4538,1,0,0:0:0:0:
336,252,4831,2,0,L|353:378,1,120,2|0,0:0|0:0,0:0:0:0:
426,347,5270,2,0,P|442:319|449:277,1,60,2|0,0:0|0:0,0:0:0:0:
402,229,5563,6,0,P|369:230|330:247,3,60,0|0|2|0,0:0|0:0|0:0|0:0,0:0:0:0:
212,322,6294,1,0,0:0:0:0:
272,178,6587,2,0,L|399:199,1,120,2|0,0:0|0:0,0:0:0:0:
463,102,7026,2,0,P|418:93|374:104,1,90,2|0,0:0|0:0,0:0:0:0:
351,129,7319,5,4,1:2:0:0:
275,89,7465,1,0,0:0:0:0:
339,34,7612,2,0,L|431:21,2,90,0|0|0,1:0|0:0|0:0,0:0:0:0:
275,89,8197,1,0,1:0:0:0:
212,33,8343,2,0,L|83:2,1,120,0|2,0:0|0:3,0:0:0:0:
30,58,8782,1,0,1:0:0:0:
90,168,9002,5,2,0:0:0:0:
90,168,9075,2,0,L|99:246,2,60,2|0|0,0:0|0:0|1:0,0:0:0:0:
208,210,9587,1,2,0:0:0:0:
208,210,9660,2,0,L|197:286,2,60,2|0|0,0:0|0:0|1:0,0:0:0:0:
287,239,10099,2,0,L|306:372,1,120,0|2,0:0|0:3,0:0:0:0:
384,381,10538,1,0,1:0:0:0:
456,277,10758,5,2,0:0:0:0:
456,277,10831,2,0,L|539:267,2,60,2|0|0,0:0|0:0|1:0,0:0:0:0:
416,157,11343,1,2,0:0:0:0:
416,157,11416,2,0,L|499:167,2,60,2|0|0,0:0|0:0|1:0,0:0:0:0:
373,83,11855,2,0,L|253:101,1,120,0|2,0:0|0:3,0:0:0:0:
200,165,12294,1,0,1:0:0:0:
132,58,12514,5,2,0:0:0:0:
132,58,12587,2,0,L|143:0,2,60,2|0|0,0:0|0:0|1:0,0:0:0:0:
40,144,13099,1,2,0:0:0:0:
40,144,13172,2,0,L|29:86,2,60,2|0|0,0:0|0:0|1:0,0:0:0:0:
98,205,13612,1,0,0:0:0:0:
153,142,13758,2,0,B|187:126|187:126|205:220,1,120,2|2,3:0|1:2,0:0:0:0:
240,248,14148,2,0,L|246:209,1,40,2|0,3:2|3:0,0:0:0:0:
280,162,14343,6,0,P|323:201|381:196,2,120,4|0|2,1:2|1:0|0:0,0:0:0:0:
429,80,15221,1,2,1:2:0:0:
429,80,15368,2,0,P|443:108|441:139,1,60,2|0,0:0|0:0,0:0:0:0:
381,195,15660,1,0,0:0:0:0:
298,154,15807,6,0,B|266:154|266:154|239:163,1,60,0|0,1:0|0:0,0:0:0:0:
288,82,16099,2,0,B|256:82|256:82|229:91,1,60,2|0,0:0|0:0,0:0:0:0:
275,9,16392,2,0,B|243:9|243:9|216:18,1,60,2|2,1:2|0:0,0:0:0:0:
153,64,16685,2,0,P|76:38|68:-12,2,120,0|0|2,0:0|1:0|0:0,0:0:0:0:
319,114,17563,1,2,1:2:0:0:
319,114,17709,2,0,L|398:121,1,60,2|0,0:0|0:0,0:0:0:0:
422,184,18002,1,0,0:0:0:0:
369,241,18148,6,0,B|368:269|368:269|378:299,1,60,0|0,1:0|0:0,0:0:0:0:
298,253,18440,2,0,B|297:281|297:281|307:311,1,60,2|0,0:0|0:0,0:0:0:0:
224,264,18733,2,0,B|223:292|223:292|233:322,2,60,0|2|2,1:0|0:0|0:0,0:0:0:0:
252,193,19173,1,0,0:0:0:0:
178,204,19319,6,0,B|148:213|148:213|119:213,1,60,0|0,1:0|0:0,0:0:0:0:
206,133,19612,2,0,B|212:102|212:102|226:77,1,60,2|0,0:0|0:0,0:0:0:0:
252,193,19904,2,0,B|288:219|288:219|305:315,1,120,2|0,1:2|0:0,0:0:0:0:
291,371,20343,1,0,0:0:0:0:
368,363,20490,6,0,B|399:365|399:365|427:359,1,60,0|0,1:0|0:0,0:0:0:0:
500,332,20782,2,0,B|486:303|486:303|467:282,1,60,2|0,0:0|0:0,0:0:0:0:
407,231,21075,2,0,B|389:256|389:256|380:284,2,60,2|2|0,1:2|0:0|0:0,0:0:0:0:
479,202,21514,1,0,0:0:0:0:
416,155,21660,6,0,B|393:147|393:147|332:149,1,60,0|0,1:0|0:0,0:0:0:0:
318,80,21953,2,0,B|340:72|340:72|401:74,1,60,2|0,0:0|0:0,0:0:0:0:
455,73,22246,1,0,1:0:0:0:
419,3,22392,2,0,B|387:-5|387:-5|277:5,1,120,2|2,0:0|0:0,0:0:0:0:
318,80,22831,6,0,B|340:72|340:72|401:74,1,60,2|0,1:2|0:0,0:0:0:0:
357,148,23124,2,0,B|335:156|335:156|298:154,1,60,2|2,3:0|3:2,0:0:0:0:
240,102,23416,2,0,B|218:94|218:94|157:96,1,60,8|8,1:3|3:0,0:0:0:0:
160,128,23636,1,8,3:0:0:0:
160,128,23709,6,0,P|137:173|61:172,2,120,4|0|2,1:2|1:0|0:0,0:0:0:0:
309,42,24587,1,2,1:2:0:0:
309,42,24734,2,0,L|319:106,1,60,2|0,0:0|0:0,0:0:0:0:
364,163,25026,1,2,0:0:0:0:
428,210,25173,6,0,B|460:210|460:210|487:219,1,60,0|0,1:0|0:0,0:0:0:0:
438,138,25465,2,0,B|470:138|470:138|497:147,1,60,2|0,0:0|0:0,0:0:0:0:
451,65,25758,2,0,B|483:65|483:65|510:74,1,60,2|2,1:2|0:0,0:0:0:0:
376,84,26051,2,0,P|312:66|289:22,2,120,0|0|2,0:0|1:0|0:0,0:0:0:0:
222,142,26929,1,2,1:2:0:0:
222,142,27075,2,0,L|151:154,1,60,2|0,0:0|0:0,0:0:0:0:
107,207,27368,1,0,0:0:0:0:
166,257,27514,6,0,B|166:289|166:289|157:316,1,60,0|0,1:0|0:0,0:0:0:0:
238,267,27806,2,0,B|238:299|238:299|229:326,1,60,2|0,0:0|0:0,0:0:0:0:
311,280,28099,2,0,B|311:312|311:312|302:339,2,60,0|0|2,1:0|0:0|0:0,0:0:0:0:
285,209,28539,1,0,0:0:0:0:
238,267,28685,6,0,B|229:296|229:296|228:325,1,60,0|0,1:0|0:0,0:0:0:0:
285,209,28978,2,0,B|316:203|316:203|341:188,1,60,2|0,0:0|0:0,0:0:0:0:
210,196,29270,2,0,B|183:159|183:159|87:143,1,120,0|0,1:0|0:0,0:0:0:0:
32,159,29709,1,0,0:0:0:0:
60,86,29855,6,0,B|88:74|88:74|117:71,1,60,0|0,1:0|0:0,0:0:0:0:
194,59,30147,2,0,B|189:90|189:90|178:116,1,60,2|0,0:0|0:0,0:0:0:0:
151,188,30441,2,0,B|126:169|126:169|108:145,2,60,2|2|0,1:2|0:0|0:0,0:0:0:0:
229,176,30880,1,0,0:0:0:0:
294,133,31026,6,0,B|309:114|309:114|329:56,1,60,0|2,1:0|0:0,0:0:0:0:
303,210,31319,2,0,B|326:204|326:204|376:169,1,60,2|2,3:0|0:0,0:0:0:0:
235,253,31612,1,2,1:3:0:0:
229,176,31758,2,0,B|182:174|182:174|108:207,1,120,2|2,0:0|0:0,0:0:0:0:
102,280,32197,6,0,P|131:280|158:294,1,60,2|0,1:2|0:0,0:0:0:0:
226,333,32490,2,0,P|255:332|282:318,1,60,2|8,3:0|3:0,0:0:0:0:
312,247,32782,1,2,0:0:0:0:
361,315,32929,1,8,1:3:0:0:
361,315,33075,2,0,L|487:347,1,120,4|0,1:2|1:0,0:0:0:0:
453,190,33660,6,0,P|460:160|456:115,1,60,2|0,0:0|0:0,0:0:0:0:
379,155,33953,1,0,1:0:0:0:
379,155,34099,2,0,P|376:90|338:39,1,120,2|2,0:0|0:0,0:0:0:0:
294,104,34538,2,0,P|268:76|232:60,2,60,0|0|0,1:0|0:0|0:0,0:0:0:0:
257,256,35124,2,0,P|234:280|188:289,1,60,0|2,1:0|0:0,0:0:0:0:
278,340,35416,2,0,P|220:368|141:352,1,120,0|0,0:0|1:0,0:0:0:0:
83,230,36002,6,0,P|83:194|100:158,1,60,0|0,0:0|0:0,0:0:0:0:
11,173,36294,1,0,1:0:0:0:
51,106,36441,2,0,P|101:133|177:126,1,120,2|2,0:0|0:0,0:0:0:0:
176,208,36880,2,0,P|207:200|234:174,1,60,0|0,1:0|0:0,0:0:0:0:
239,104,37173,1,2,0:0:0:0:
315,118,37319,2,0,P|329:89|328:52,1,60,2|2,1:3|0:0,0:0:0:0:
366,176,37612,2,0,P|387:152|396:115,1,60,2|2,1:3|0:0,0:0:0:0:
403,282,38051,1,0,1:0:0:0:
259,222,38343,6,0,P|229:207|189:209,1,60,2|0,0:0|0:0,0:0:0:0:
237,132,38636,1,0,1:0:0:0:
237,132,38782,2,0,P|172:135|121:173,1,120,2|2,0:0|0:0,0:0:0:0:
85,99,39221,2,0,P|55:134|50:161,2,60,0|0|0,1:0|0:0|0:0,0:0:0:0:
236,57,39807,2,0,P|271:63|304:93,1,60,2|2,1:0|0:0,0:0:0:0:
333,11,40099,2,0,P|367:44|402:128,1,120,0|0,0:0|1:0,1:1:0:0:
453,255,40685,6,0,P|418:267|376:260,1,60,2|0,0:0|0:0,0:0:0:0:
425,337,40977,1,0,1:0:0:0:
347,325,41124,2,0,P|357:278|328:213,1,120,2|2,0:0|0:0,0:0:0:0:
289,218,41490,1,0,0:0:0:0:
289,218,41563,2,0,P|269:252|268:277,1,60,2|0,1:2|0:0,0:0:0:0:
211,326,41855,2,0,P|191:291|190:267,1,60,2|2,0:0|1:2,0:0:0:0:
189,193,42148,2,0,P|159:197|135:214,2,60,8|0|4,0:3|1:0|1:2,0:0:0:0:
332,131,42734,1,4,1:2:0:0:
189,193,43026,6,0,P|170:220|164:250,1,60,2|2,0:0|0:0,0:0:0:0:
270,213,43319,1,0,1:0:0:0:
270,213,43465,2,0,P|258:147|202:113,1,120,2|2,0:0|0:0,0:0:0:0:
140,129,43904,1,0,1:0:0:0:
238,7,44197,2,0,P|267:2|302:13,2,60,0|2|2,0:0|0:0|1:2,0:0:0:0:
176,55,44636,1,2,0:0:0:0:
176,55,44782,2,0,P|135:54|100:38,1,60,0|0,0:0|0:0,0:0:0:0:
61,103,45075,6,0,L|76:239,1,120,0|2,1:0|0:0,0:0:0:0:
140,264,45514,2,0,L|155:191,1,60,0|0,0:0|1:0,0:0:0:0:
220,261,45807,2,0,L|248:126,1,120,2|2,0:0|0:0,0:0:0:0:
312,105,46246,2,0,L|394:99,1,60,0|2,1:0|0:0,0:0:0:0:
435,145,46538,1,2,0:0:0:0:
419,222,46685,2,0,L|368:253,1,60,2|2,1:3|0:0,0:0:0:0:
475,277,46977,2,0,L|424:308,1,60,2|2,1:3|0:0,0:0:0:0:
348,174,47417,5,0,1:0:0:0:
294,320,47709,2,0,P|265:333|216:332,2,60,2|2|0,0:0|0:0|1:0,0:0:0:0:
286,242,48148,2,0,P|218:226|160:239,1,120,2|2,0:0|0:0,0:0:0:0:
121,297,48587,1,0,1:0:0:0:
145,142,48880,2,0,P|180:141|230:159,2,60,2|0|0,0:0|0:0|1:0,0:0:0:0:
266,43,49465,2,0,P|329:46|400:28,1,120,0|0,0:0|1:0,0:0:0:0:
335,182,50051,2,0,P|311:152|278:131,2,60,0|0|0,0:0|0:0|1:0,0:0:0:0:
382,244,50490,6,0,L|395:124,1,120,2|2,0:0|0:0,0:0:0:0:
424,98,50855,1,0,0:0:0:0:
424,98,50929,2,0,P|458:111|480:151,1,60,2|0,1:2|0:0,0:0:0:0:
503,199,51221,2,0,P|509:235|485:273,1,60,2|8,3:0|3:0,0:0:0:0:
473,329,51514,2,0,P|444:352|399:350,1,60,8|2,1:3|0:0,0:0:0:0:
415,278,51807,6,0,P|427:218|410:179,1,90,4|0,1:2|0:0,0:0:0:0:
380,182,52099,2,0,P|342:203|329:239,1,60,2|0,1:2|0:0,0:0:0:0:
296,284,52392,2,0,P|263:297|232:291,2,60,2|0|0,0:0|0:0|1:0,0:0:0:0:
262,182,52831,2,0,L|126:154,1,120,2|2,0:0|0:0,0:0:0:0:
122,82,53270,2,0,L|201:78,1,60,0|0,1:0|0:0,0:0:0:0:
144,157,53563,2,0,L|65:153,1,60,0|2,0:0|0:0,0:0:0:0:
64,187,53782,1,0,0:0:0:0:
64,187,53855,2,0,P|66:222|88:244,1,60,2|2,1:2|0:0,0:0:0:0:
141,290,54148,6,0,L|216:286,1,60,0|2,0:0|0:0,0:0:0:0:
279,286,54441,2,0,P|287:250|284:222,1,60,2|0,1:2|0:0,0:0:0:0:
344,176,54734,2,0,P|362:214|362:252,2,60,2|0|0,0:0|0:0|1:0,0:0:0:0:
363,100,55173,2,0,P|419:69|478:73,1,120,2|2,0:0|0:0,0:0:0:0:
507,106,55538,1,0,0:0:0:0:
507,106,55612,6,0,L|513:33,1,60,0|2,1:0|0:0,0:0:0:0:
437,152,55904,2,0,L|435:216,1,60,0|2,0:0|1:3,0:0:0:0:
305,228,56197,2,0,P|333:223|374:237,1,60,8|0,1:3|1:0,0:0:0:0:
399,300,56490,6,0,P|356:323|295:319,1,90,0|0,1:0|0:0,0:0:0:0:
281,304,56782,2,0,P|251:294|213:303,1,60,2|0,1:2|0:0,0:0:0:0:
149,325,57075,2,0,L|165:401,2,60,0|2|0,0:0|0:0|1:0,0:0:0:0:
79,288,57514,2,0,P|73:232|98:165,1,120,2|2,0:0|0:0,0:0:0:0:
148,116,57953,2,0,L|226:108,1,60,0|0,1:0|0:0,0:0:0:0:
158,34,58246,2,0,L|80:26,1,60,0|2,0:0|0:0,0:0:0:0:
154,126,58538,2,0,L|224:118,1,60,2|0,1:2|0:0,0:0:0:0:
308,75,58831,6,0,L|287:151,1,60,0|2,0:0|0:0,0:0:0:0:
334,198,59124,2,0,L|409:187,1,60,0|0,1:0|0:0,0:0:0:0:
446,131,59417,2,0,P|459:102|455:62,2,60,2|0|0,0:0|0:0|1:0,0:0:0:0:
393,189,59856,2,0,P|383:254|422:303,1,120,2|2,0:0|0:0,0:0:0:0:
397,321,60221,1,0,0:0:0:0:
397,321,60294,6,0,L|328:335,1,60,2|2,1:2|0:0,0:0:0:0:
292,248,60587,2,0,L|223:234,1,60,0|0,1:0|1:0,0:0:0:0:
180,363,60880,2,0,L|239:352,1,60,8|2,1:3|0:0,0:0:0:0:
175,253,61173,6,0,L|285:277,1,90,4|0,1:2|0:0,0:0:0:0:
292,248,61465,2,0,P|291:210|270:171,1,60,2|0,1:2|0:0,0:0:0:0:
231,130,61758,2,0,L|240:59,2,60,0|0|0,0:0|0:0|1:0,0:0:0:0:
164,171,62197,2,0,P|108:190|31:178,1,120,0|0,0:0|0:0,0:0:0:0:
8,116,62636,1,0,1:0:0:0:
69,66,62782,2,0,L|45:201,1,120,0|2,0:0|0:0,0:0:0:0:
13,254,63221,1,2,1:2:0:0:
113,239,63368,1,2,0:0:0:0:
149,314,63514,6,0,P|190:329|243:306,1,90,0|0,0:0|0:0,0:0:0:0:
267,291,63807,2,0,L|259:363,1,60,2|0,1:2|0:0,1:1:0:0:
352,318,64099,2,0,L|343:250,2,60,2|0|0,0:0|0:0|1:0,0:0:0:0:
425,359,64539,2,0,P|446:300|436:234,1,120,2|2,0:0|0:0,0:0:0:0:
413,211,64904,1,0,0:0:0:0:
413,211,64978,6,0,L|496:217,1,60,2|0,1:2|1:0,0:0:0:0:
447,135,65270,2,0,L|376:127,1,60,8|2,3:0|0:2,0:0:0:0:
310,110,65563,2,0,P|300:73|317:26,1,60,8|8,1:3|3:0,0:0:0:0:
242,4,65855,6,0,P|223:67|221:122,1,120,0|2,1:0|1:2,0:0:0:0:
80,204,66441,2,0,L|88:281,2,60,2|0|0,0:0|0:0|1:0,0:0:0:0:
154,165,66880,2,0,L|170:307,1,120,2|0,0:0|0:0,0:0:0:0:
106,342,67319,1,0,1:0:0:0:
186,365,67465,2,0,P|210:378|257:382,2,60,2|0|2,0:0|0:0|0:0,0:0:0:0:
244,304,67904,1,2,1:2:0:0:
324,279,68051,2,0,P|327:308|319:337,1,60,0|0,0:0|0:0,0:0:0:0:
421,203,68490,6,0,L|413:126,1,60,0|0,1:0|0:0,0:0:0:0:
454,67,68782,2,0,P|482:59|512:62,2,60,2|2|2,3:0|0:0|1:3,0:0:0:0:
371,82,69221,2,0,L|241:62,1,120,4|2,0:0|0:0,0:0:0:0:
216,86,69587,1,0,0:0:0:0:
216,86,69660,6,0,L|228:155,1,60,2|2,1:2|3:2,0:0:0:0:
158,195,69953,2,0,P|123:198|82:184,1,60,2|2,3:0|3:2,0:0:0:0:
49,284,70246,2,0,L|124:273,1,60,8|8,1:3|3:0,0:0:0:0:
191,268,70538,1,4,1:2:0:0:
365,244,70831,5,2,0:0:0:0:
365,244,70977,2,0,L|373:329,1,60,6|0,1:2|0:0,0:0:0:0:
225,202,71416,1,0,0:0:0:0:
225,202,71563,1,2,1:0:0:0:
123,338,71855,6,0,P|93:358|57:366,2,60,2|0|0,0:0|1:3|1:3,0:0:0:0:
168,273,72294,1,2,0:0:0:0:
134,202,72441,1,0,0:0:0:0:
58,184,72587,2,0,P|25:188|-8:214,1,60,0|0,1:0|0:0,0:0:0:0:
2,280,72880,1,4,1:2:0:0:
203,350,73173,5,2,0:0:0:0:
203,350,73319,2,0,L|332:329,1,120,2|0,1:0|0:0,0:0:0:0:
381,279,73758,1,0,1:0:0:0:
397,355,73904,1,2,1:0:0:0:
447,159,74197,6,0,L|461:85,2,60,2|2|0,0:0|1:2|0:0,0:0:0:0:
375,195,74636,2,0,P|341:201|301:192,1,60,0|8,1:0|3:0,0:0:0:0:
259,143,74929,2,0,P|229:139|200:145,1,60,0|0,1:0|0:0,0:0:0:0:
139,193,75221,1,4,1:2:0:0:
32,40,75514,5,2,0:0:0:0:
32,40,75660,2,0,L|98:79,1,60,2|2,1:0|0:0,0:0:0:0:
282,4,76099,1,0,1:0:0:0:
282,4,76246,1,2,0:0:0:0:
195,211,76538,6,0,L|202:127,1,60,2|0,0:0|1:0,0:0:0:0:
246,85,76831,1,0,0:0:0:0:
305,135,76977,2,0,P|331:142|369:139,1,60,2|8,3:0|3:0,0:0:0:0:
405,58,77270,2,0,P|375:55|346:63,1,60,8|8,1:3|3:0,0:0:0:0:
290,155,77563,6,0,P|228:167|213:161,1,60,8|8,1:3|3:0,0:0:0:0:
204,156,77782,1,8,3:0:0:0:
204,156,77855,2,0,L|205:220,1,60,8|2,1:3|3:0,0:0:0:0:
204,215,78441,2,0,P|231:271|229:287,1,60,8|8,1:3|3:0,0:0:0:0:
227,297,78660,1,8,3:0:0:0:
227,297,78733,2,0,L|288:279,1,60,8|2,1:3|3:2,0:0:0:0:
284,280,79612,6,0,L|168:267,1,90,2|0,0:0|0:0,0:0:0:0:
152,289,79904,6,0,P|126:257|129:185,1,107.999996704102,4|0,1:2|0:0,0:0:0:0:
158,164,80197,2,0,L|265:174,1,107.999996704102,0|0,1:0|0:0,0:0:0:0:
302,150,80490,2,0,P|305:97|275:53,1,107.999996704102,2|0,0:0|0:0,0:0:0:0:
234,39,80782,1,0,1:0:0:0:
150,92,80929,2,0,L|159:178,1,71.9999978027344,2|0,0:0|0:0,0:0:0:0:
205,226,81221,1,2,0:0:0:0:
265,174,81368,6,0,P|300:168|339:182,1,71.9999978027344,0|2,1:0|0:0,0:0:0:0:
279,281,81660,2,0,P|314:280|344:260,1,71.9999978027344,0|2,0:0|0:0,0:0:0:0:
269,183,81953,2,0,P|304:177|343:191,1,71.9999978027344,0|0,1:0|1:0,0:0:0:0:
417,186,82246,6,0,P|432:135|418:83,1,107.999996704102,0|0,1:0|0:0,0:0:0:0:
386,64,82538,2,0,P|326:81|258:51,1,107.999996704102,2|0,1:2|0:0,0:0:0:0:
248,42,82831,2,0,P|195:30|145:47,1,107.999996704102,0|0,0:0|0:0,0:0:0:0:
114,78,83124,1,0,1:0:0:0:
162,140,83270,2,0,L|259:146,1,71.9999978027344,2|0,0:0|0:0,0:0:0:0:
291,198,83562,1,2,0:0:0:0:
223,239,83709,6,0,P|211:276|222:328,1,71.9999978027344,0|2,1:0|0:0,0:0:0:0:
328,275,84002,2,0,P|319:312|284:352,1,71.9999978027344,0|2,0:0|0:0,0:0:0:0:
227,248,84294,1,0,1:0:0:0:
296,204,84441,6,0,P|359:199|401:268,1,143.999995605469,4|0,0:0|0:0,0:0:0:0:
474,291,84880,2,0,L|484:194,1,71.9999978027344,0|2,1:0|0:0,0:0:0:0:
498,141,85173,2,0,L|490:51,2,71.9999978027344,0|0|0,1:0|1:0|1:0,0:0:0:0:
416,105,85612,6,0,P|371:47|289:35,1,143.999995605469,4|0,0:0|0:0,0:0:0:0:
227,28,86051,2,0,L|211:118,1,71.9999978027344,0|2,1:0|0:0,0:0:0:0:
265,157,86344,2,0,L|281:247,2,71.9999978027344,0|2|0,1:0|0:0|1:0,0:0:0:0:
144,134,86782,6,0,P|199:177|265:158,1,143.999995605469,4|2,0:0|0:0,0:0:0:0:
330,113,87221,2,0,L|418:102,1,71.9999978027344,0|2,1:0|0:0,0:0:0:0:
423,193,87514,2,0,L|347:185,2,71.9999978027344,0|2|0,0:0|0:0|1:0,0:0:0:0:
496,222,87953,6,0,P|447:271|378:262,1,143.999995605469,2|0,0:0|0:0,0:0:0:0:
298,253,88392,2,0,P|306:290|300:332,1,71.9999978027344,0|2,1:0|0:0,0:0:0:0:
226,345,88685,2,0,L|214:391,2,35.9999989013672,8|0|0,1:3|3:0|3:0,0:0:0:0:
174,269,88977,2,0,P|136:248|119:203,1,71.9999978027344,8|0,1:3|1:0,0:0:0:0:
225,146,89270,6,0,P|231:196|182:268,1,107.999996704102,4|0,1:2|0:0,0:0:0:0:
174,269,89563,2,0,L|46:255,1,107.999996704102,0|0,1:0|0:0,0:0:0:0:
32,236,89855,2,0,P|9:187|14:134,1,107.999996704102,2|0,0:0|0:0,0:0:0:0:
39,103,90148,1,0,1:0:0:0:
116,120,90295,2,0,P|118:161|97:213,1,71.9999978027344,2|0,0:0|0:0,0:0:0:0:
66,257,90587,1,2,0:0:0:0:
147,263,90734,6,0,P|172:287|182:322,1,71.9999978027344,0|2,1:0|0:0,0:0:0:0:
60,342,91026,2,0,P|81:370|114:384,1,71.9999978027344,0|2,0:0|0:0,0:0:0:0:
141,272,91319,2,0,P|166:296|176:331,1,71.9999978027344,0|0,1:0|1:0,0:0:0:0:
243,374,91612,6,0,P|278:332|285:273,1,107.999996704102,0|0,1:0|0:0,0:0:0:0:
267,243,91904,2,0,L|385:256,1,107.999996704102,0|0,1:0|0:0,0:0:0:0:
412,241,92197,2,0,P|377:200|368:147,1,107.999996704102,2|0,0:0|0:0,0:0:0:0:
397,120,92490,1,0,1:0:0:0:
326,83,92636,2,0,L|252:95,1,71.9999978027344,2|0,0:0|0:0,0:0:0:0:
210,159,92928,1,0,0:0:0:0:
175,87,93075,6,0,L|181:16,1,71.9999978027344,0|2,1:0|0:0,0:0:0:0:
92,28,93368,2,0,L|98:99,2,71.9999978027344,0|0|0,0:0|0:0|1:0,0:0:0:0:
18,84,93807,6,0,P|36:151|110:178,1,143.999995605469,4|2,0:0|0:0,0:0:0:0:
178,168,94246,2,0,P|140:165|90:188,1,71.9999978027344,0|2,1:0|0:0,0:0:0:0:
92,253,94539,2,0,P|126:263|161:260,1,71.9999978027344,0|0,1:0|1:0,0:0:0:0:
233,226,94831,1,0,1:0:0:0:
220,304,94978,6,0,P|294:276|306:206,1,143.999995605469,4|2,0:0|0:0,0:0:0:0:
285,143,95416,2,0,P|321:140|354:152,1,71.9999978027344,0|2,1:0|0:0,0:0:0:0:
452,216,95709,2,0,P|422:228|381:223,1,71.9999978027344,0|2,1:0|0:0,0:0:0:0:
433,140,96002,1,0,1:0:0:0:
433,140,96148,6,0,P|492:145|531:214,1,143.999995605469,4|0,0:0|0:0,0:0:0:0:
494,284,96587,1,0,1:0:0:0:
494,284,96734,2,0,P|458:301|396:285,1,71.9999978027344,4|0,0:0|0:0,0:0:0:0:
349,292,97026,2,0,L|355:364,1,71.9999978027344,0|0,0:0|1:0,0:0:0:0:
398,228,97319,6,0,P|331:214|276:264,1,143.999995605469,4|0,0:0|0:0,0:0:0:0:
203,288,97758,2,0,L|108:279,1,71.9999978027344,0|8,1:0|3:0,0:0:0:0:
66,206,98051,2,0,L|50:285,1,71.9999978027344,8|2,1:3|0:0,0:0:0:0:
60,314,98270,1,0,0:0:0:0:
60,314,98343,2,0,L|47:389,1,71.9999978027344,8|2,1:3|1:2,0:0:0:0:
126,371,98636,6,0,L|221:362,1,71.9999978027344,4|0,1:2|0:0,0:0:0:0:
270,333,98929,1,0,1:0:0:0:
203,288,99075,2,0,L|131:281,2,71.9999978027344,2|0|2,0:0|0:0|0:0,0:0:0:0:
266,240,99514,1,0,1:0:0:0:
215,178,99660,2,0,L|143:184,1,71.9999978027344,2|0,0:0|0:0,0:0:0:0:
74,224,99953,1,2,0:0:0:0:
2,139,100099,2,0,L|73:145,1,71.9999978027344,0|2,1:0|0:0,0:0:0:0:
301,176,100538,5,2,0:0:0:0:
381,169,100685,2,0,L|388:82,1,71.9999978027344,0|2,1:0|0:0,0:0:0:0:
466,52,100977,2,0,L|484:194,1,143.999995605469,0|0,1:0|1:0,0:0:0:0:
447,265,101416,2,0,P|413:273|352:254,1,71.9999978027344,2|0,0:0|0:0,0:0:0:0:
344,245,101636,1,0,0:0:0:0:
344,245,101709,2,0,P|309:239|274:247,1,71.9999978027344,2|0,0:0|1:0,0:0:0:0:
225,318,102002,6,0,P|293:355|370:342,1,143.999995605469,2|0,0:0|1:0,0:0:0:0:
377,267,102441,2,0,L|371:189,1,71.9999978027344,2|2,1:3|3:2,0:0:0:0:
343,121,102734,1,2,1:3:0:0:
278,165,102880,2,0,P|243:178|194:163,2,71.9999978027344,2|8|0,1:2|1:3|0:0,0:0:0:0:
276,85,103319,6,0,P|248:76|202:82,2,71.9999978027344,0|8|2,1:0|3:0|3:2,0:0:0:0:
199,6,103758,2,0,P|171:13|136:49,2,71.9999978027344,0|8|2,1:0|3:0|3:2,0:0:0:0:
76,2,104197,2,0,P|64:49|92:95,1,71.9999978027344,8|4,1:3|1:2,0:0:0:0:
195,192,105221,5,2,0:0:0:0:
195,192,105368,2,0,L|330:192,1,120,2|4,0:0|1:2,0:0:0:0:
251,113,123807,6,0,P|250:153|242:180,1,60,2|2,3:2|1:3,0:0:0:0:
225,205,124026,1,0,3:0:0:0:
225,205,124099,2,0,L|294:197,2,60,8|2|4,1:3|1:3|1:2,0:0:0:0:
68,218,124685,1,0,1:0:0:0:
176,329,124977,6,0,P|208:338|256:329,1,60,2|2,0:0|0:0,0:0:0:0:
307,308,125270,1,0,1:0:0:0:
307,308,125416,2,0,P|350:263|364:207,1,120,2|2,0:0|0:0,0:0:0:0:
306,154,125855,2,0,L|220:139,1,60,0|0,1:0|0:0,0:0:0:0:
387,134,126148,2,0,L|471:121,1,60,0|2,0:0|0:0,0:0:0:0:
329,77,126441,1,2,1:2:0:0:
306,154,126587,1,2,0:0:0:0:
387,134,126733,2,0,L|506:115,1,120,0|0,0:0|1:0,0:0:0:0:
481,269,127319,6,0,L|395:256,1,60,0|0,0:0|0:0,0:0:0:0:
356,301,127611,1,0,1:0:0:0:
291,257,127758,2,0,L|172:276,1,120,2|0,0:0|0:0,0:0:0:0:
103,238,128197,2,0,L|93:169,1,60,0|0,1:0|0:0,0:0:0:0:
143,117,128490,2,0,L|215:106,1,60,2|2,0:0|1:3,0:0:0:0:
127,39,128782,2,0,L|199:28,1,60,2|2,0:0|1:3,0:0:0:0:
322,44,129075,2,0,L|243:58,2,60,2|2|2,0:0|0:0|1:2,0:0:0:0:
440,145,129660,6,0,P|437:182|415:219,1,60,2|2,0:0|0:0,0:0:0:0:
374,260,129953,1,0,1:0:0:0:
374,260,130099,2,0,L|239:240,1,120,2|0,0:0|0:0,0:0:0:0:
189,200,130538,2,0,L|179:125,1,60,0|2,1:0|0:0,0:0:0:0:
182,275,130831,2,0,L|174:334,1,60,0|2,0:0|0:0,0:0:0:0:
156,369,131051,1,0,0:0:0:0:
156,369,131124,2,0,P|115:381|76:376,1,60,2|2,1:2|0:0,0:0:0:0:
182,275,131416,2,0,P|245:284|305:334,1,120,0|2,0:0|1:2,0:0:0:0:
446,207,132002,6,0,P|405:205|365:221,1,60,2|0,0:0|0:0,0:0:0:0:
367,285,132294,1,0,1:0:0:0:
310,230,132441,2,0,L|296:102,1,120,2|0,0:0|0:0,0:0:0:0:
248,49,132880,2,0,P|218:34|184:39,1,60,0|2,1:0|0:0,0:0:0:0:
140,95,133173,2,0,L|139:140,3,30,8|8|8|8,3:0|3:0|3:0|3:0,0:0:0:0:
119,158,133465,2,0,L|50:168,1,60,8|0,1:3|0:0,0:0:0:0:
0,219,133758,2,0,P|59:251|112:228,1,120,4|0,1:2|1:0,0:0:0:0:
196,361,134343,6,0,L|274:346,1,60,2|2,0:0|0:0,0:0:0:0:
332,338,134636,1,0,1:0:0:0:
332,338,134782,2,0,P|329:273|318:254,1,60,2|0,0:0|0:0,0:0:0:0:
254,264,135075,1,0,0:0:0:0:
275,189,135221,2,0,L|334:199,1,60,0|2,1:0|0:0,0:0:0:0:
212,139,135514,2,0,L|197:218,1,60,0|2,0:0|0:0,0:0:0:0:
286,112,135806,2,0,L|364:122,1,60,2|2,1:2|0:0,0:0:0:0:
410,170,136099,2,0,L|433:47,1,120,0|2,0:0|1:2,0:0:0:0:
512,206,136685,5,2,0:0:0:0:
475,274,136831,2,0,P|450:287|401:286,1,60,0|0,0:0|1:0,0:0:0:0:
363,234,137124,2,0,P|301:213|236:223,1,120,2|0,0:0|0:0,0:0:0:0:
179,325,137563,2,0,L|174:241,1,60,0|2,1:0|0:0,0:0:0:0:
175,187,137855,1,2,0:0:0:0:
107,227,138002,2,0,L|26:231,1,60,2|2,1:3|0:0,0:0:0:0:
102,144,138294,2,0,L|21:148,1,60,2|2,1:3|0:0,0:0:0:0:
227,85,138734,5,0,1:0:0:0:
371,143,139026,2,0,L|447:149,2,60,2|0|0,0:0|0:0|1:0,0:0:0:0:
298,171,139465,2,0,P|281:234|300:292,1,120,2|0,0:0|0:0,0:0:0:0:
248,348,139904,2,0,L|161:356,1,60,0|8,1:0|3:0,0:0:0:0:
156,339,140124,1,8,3:0:0:0:
156,339,140197,2,0,P|132:310|127:285,1,60,8|8,3:0|3:0,0:0:0:0:
151,214,140490,2,0,P|170:169|172:143,2,60,8|8|8,3:0|3:0|3:0,0:0:0:0:
313,188,142099,6,0,L|322:237,2,30,2|0|0,0:0|0:0|0:0,0:0:0:0:
242,156,142392,2,0,L|227:231,1,60,2|0,0:0|0:0,0:0:0:0:
326,202,142685,1,2,0:0:0:0:
326,202,142758,1,0,0:0:0:0:
326,202,142831,2,0,L|342:279,1,60,2|2,0:0|0:0,0:0:0:0:
349,338,143124,6,0,P|399:310|411:256,1,90,4|0,1:2|0:0,0:0:0:0:
439,255,143416,2,0,L|450:330,1,60,0|0,1:0|0:0,0:0:0:0:
474,182,143709,2,0,P|435:173|410:181,2,60,2|0|0,0:0|0:0|1:0,0:0:0:0:
467,90,144148,2,0,L|336:113,1,120,2|0,0:0|0:0,0:0:0:0:
272,126,144587,1,0,1:0:0:0:
239,39,144734,2,0,L|312:57,1,60,0|2,0:0|0:0,0:0:0:0:
197,105,145026,2,0,P|170:79|163:35,2,60,0|0|2,0:0|1:0|0:0,0:0:0:0:
272,126,145465,6,0,P|292:184|279:255,1,120,0|0,0:0|1:0,0:0:0:0:
214,273,145904,1,0,0:0:0:0:
155,324,146051,2,0,P|139:349|133:395,2,60,0|2|0,0:0|0:0|1:0,0:0:0:0:
214,273,146490,2,0,L|76:279,1,120,2|2,0:0|0:0,0:0:0:0:
61,257,146855,1,0,0:0:0:0:
61,257,146929,6,0,P|61:222|78:190,1,60,2|2,1:2|0:0,0:0:0:0:
141,130,147221,2,0,P|141:165|158:197,1,60,0|2,0:0|1:3,0:0:0:0:
242,73,147514,2,0,L|176:63,1,60,8|0,1:3|1:0,0:0:0:0:
69,88,147807,6,0,P|97:122|141:130,1,90,0|0,1:0|0:0,0:0:0:0:
177,143,148099,2,0,L|165:215,1,60,0|0,1:0|0:0,0:0:0:0:
133,273,148392,2,0,P|98:289|59:286,2,60,2|0|0,0:0|0:0|1:0,0:0:0:0:
211,268,148831,2,0,L|356:288,1,120,2|0,0:0|0:0,0:0:0:0:
382,226,149270,1,0,1:0:0:0:
386,148,149416,2,0,P|382:92|331:40,1,120,2|0,0:0|0:0,0:0:0:0:
274,4,149855,1,0,1:0:0:0:
198,39,150002,6,0,P|158:88|156:156,1,120,2|0,0:0|0:0,0:0:0:0:
222,178,150441,1,0,1:0:0:0:
154,216,150587,2,0,L|72:226,1,60,0|2,0:0|0:0,0:0:0:0:
17,240,150880,1,0,0:0:0:0:
42,166,151026,1,0,1:0:0:0:
103,235,151173,2,0,L|84:373,1,120,2|2,0:0|0:0,0:0:0:0:
111,383,151538,1,0,0:0:0:0:
111,383,151612,6,0,P|143:376|166:359,1,60,2|2,1:2|0:0,0:0:0:0:
229,275,151904,2,0,L|154:288,1,60,0|0,1:0|1:0,0:0:0:0:
299,338,152197,2,0,L|224:351,1,60,8|2,1:3|0:0,0:0:0:0:
305,263,152490,6,0,L|406:245,1,90,4|0,1:2|0:0,0:0:0:0:
428,264,152782,2,0,P|428:300|413:336,1,60,0|0,1:0|0:0,0:0:0:0:
366,211,153075,2,0,P|362:173|381:139,2,60,2|0|0,0:0|0:0|1:0,0:0:0:0:
439,184,153514,2,0,P|444:133|400:85,1,120,2|0,0:0|0:0,0:0:0:0:
321,88,153953,1,0,1:0:0:0:
294,161,154099,2,0,P|231:174|176:152,1,120,2|0,0:0|0:0,0:0:0:0:
114,113,154538,1,0,1:0:0:0:
36,126,154685,1,2,0:0:0:0:
36,126,154831,6,0,L|36:215,1,90,0|0,0:0|0:0,0:0:0:0:
57,249,155124,2,0,P|72:262|120:269,1,60,0|0,1:0|0:0,0:0:0:0:
146,339,155416,2,0,L|70:356,2,60,2|0|0,0:0|0:0|1:0,0:0:0:0:
190,274,155856,2,0,P|253:275|310:329,1,120,2|2,0:0|0:0,0:0:0:0:
321,337,156221,1,0,0:0:0:0:
321,337,156295,6,0,P|356:357|397:345,1,60,2|0,1:2|1:0,0:0:0:0:
433,304,156587,2,0,L|436:241,1,60,8|2,3:0|0:0,0:0:0:0:
412,212,156807,1,0,0:0:0:0:
412,212,156880,2,0,P|382:211|351:229,1,60,8|8,1:3|3:0,0:0:0:0:
280,204,157172,6,0,L|295:68,1,120,0|0,1:0|1:0,0:0:0:0:
140,49,157758,2,0,L|148:126,2,60,2|0|0,0:0|0:0|1:0,0:0:0:0:
69,14,158197,2,0,L|47:159,1,120,2|0,0:0|0:0,0:0:0:0:
113,180,158636,1,0,1:0:0:0:
190,181,158782,2,0,L|202:257,1,60,2|0,0:0|0:0,0:0:0:0:
144,295,159075,2,0,L|74:287,1,60,0|0,0:0|1:0,0:0:0:0:
222,318,159368,1,2,0:0:0:0:
222,318,159514,6,0,P|282:307|330:255,1,120,0|0,0:0|1:0,0:0:0:0:
376,209,159953,1,2,0:0:0:0:
443,246,160099,2,0,P|436:286|406:312,2,60,2|0|0,0:0|0:0|1:0,0:0:0:0:
447,171,160538,1,2,0:0:0:0:
320,79,160831,2,0,L|267:88,4,30,0|0|2|0|2,0:0|0:0|1:2|3:0|3:2,0:0:0:0:
322,162,161270,2,0,L|254:156,1,60,2|0,3:0|3:2,0:0:0:0:
209,98,161563,2,0,L|141:104,1,60,8|8,1:3|3:0,0:0:0:0:
70,174,161855,6,0,L|192:182,1,120,4|2,1:2|0:0,0:0:0:0:
249,232,162294,2,0,P|261:267|249:312,1,60,4|0,1:2|0:0,0:0:0:0:
55,293,162733,1,4,1:2:0:0:
55,293,162880,2,0,L|72:154,1,120,0|2,0:0|0:0,0:0:0:0:
144,140,163319,1,2,1:2:0:0:
144,140,163392,1,0,0:0:0:0:
144,140,163465,2,0,L|151:213,1,60,2|2,0:0|0:0,0:0:0:0:
161,277,163758,1,0,0:0:0:0:
223,230,163904,2,0,P|255:231|296:256,1,60,0|0,1:0|0:0,0:0:0:0:
330,309,164197,6,0,L|343:180,1,120,2|2,0:0|0:0,0:0:0:0:
398,135,164636,2,0,L|464:132,1,60,2|2,0:0|0:0,0:0:0:0:
420,210,164929,1,0,0:0:0:0:
398,135,165075,2,0,L|405:54,1,60,0|2,1:0|0:0,0:0:0:0:
258,17,165514,6,0,P|224:6|186:13,1,60,0|0,0:0|1:0,0:0:0:0:
138,57,165807,1,2,3:2:0:0:
188,115,165953,2,0,L|194:180,1,60,2|8,1:2|3:0,0:0:0:0:
107,132,166246,2,0,L|101:197,1,60,2|0,1:2|0:0,0:0:0:0:
53,292,166538,6,0,P|112:287|155:247,1,120,2|2,1:2|0:0,0:0:0:0:
233,242,166977,2,0,P|220:288|198:308,1,60,0|2,1:0|0:0,0:0:0:0:
358,240,167416,1,0,1:0:0:0:
358,240,167563,1,2,0:0:0:0:
477,359,167855,6,0,L|403:350,1,60,2|0,0:0|1:0,0:0:0:0:
347,316,168148,1,0,0:0:0:0:
358,240,168294,2,0,L|370:170,1,60,2|8,3:0|3:0,0:0:0:0:
454,156,168587,2,0,L|443:215,1,60,8|8,1:3|3:0,0:0:0:0:
358,240,168880,6,0,P|296:252|281:246,1,60,8|8,3:0|3:0,0:0:0:0:
269,230,169099,1,8,3:0:0:0:
269,230,169172,2,0,L|193:226,1,60,8|2,1:3|3:0,0:0:0:0:
209,226,169758,2,0,P|221:164|215:149,1,60,8|8,3:0|3:0,0:0:0:0:
199,137,169977,1,8,3:0:0:0:
199,137,170050,2,0,L|195:61,1,60,8|2,1:3|3:2,0:0:0:0:
195,77,170636,6,0,L|100:99,1,90,2|0,0:0|0:0,0:0:0:0:
70,121,170929,6,0,P|47:167|64:227,1,107.999996704102,4|0,1:2|0:0,0:0:0:0:
92,242,171222,2,0,L|219:250,1,107.999996704102,0|0,1:0|0:0,0:0:0:0:
233,269,171514,2,0,P|256:315|239:375,1,107.999996704102,2|0,0:0|0:0,0:0:0:0:
214,384,171807,1,0,1:0:0:0:
301,315,171954,6,0,P|338:309|379:324,1,71.9999978027344,2|0,0:0|0:0,0:0:0:0:
441,284,172246,2,0,P|450:249|445:214,1,71.9999978027344,2|0,0:0|1:0,0:0:0:0:
383,164,172538,2,0,P|373:129|378:94,1,71.9999978027344,2|0,0:0|0:0,0:0:0:0:
433,37,172831,1,2,0:0:0:0:
373,98,172977,2,0,L|295:104,1,71.9999978027344,0|2,1:0|0:0,0:0:0:0:
237,152,173271,6,0,P|169:169|134:151,1,107.999996704102,0|0,1:0|0:0,0:0:0:0:
106,129,173563,2,0,L|108:250,1,107.999996704102,2|0,1:2|0:0,0:0:0:0:
94,274,173855,2,0,P|144:256|193:275,1,107.999996704102,0|0,0:0|0:0,0:0:0:0:
218,307,174149,1,0,1:0:0:0:
319,324,174295,6,0,L|308:159,1,143.999995605469,2|2,0:0|0:0,0:0:0:0:
301,103,174733,1,0,1:0:0:0:
372,137,174880,2,0,P|397:145|442:124,1,71.9999978027344,2|0,0:0|0:0,0:0:0:0:
508,61,175172,2,0,P|476:45|441:52,1,71.9999978027344,2|0,0:0|1:0,0:0:0:0:
440,137,175466,6,0,L|426:282,1,143.999995605469,4|0,0:0|0:0,0:0:0:0:
383,346,175904,2,0,P|350:344|311:361,1,71.9999978027344,0|2,1:0|0:0,0:0:0:0:
293,281,176197,1,0,1:0:0:0:
239,343,176343,2,0,P|206:345|167:328,1,71.9999978027344,0|0,1:0|1:0,0:0:0:0:
146,210,176636,6,0,P|188:258|154:345,1,143.999995605469,4|2,0:0|0:0,0:0:0:0:
97,362,177075,2,0,P|60:359|21:375,1,71.9999978027344,0|2,1:0|0:0,0:0:0:0:
44,271,177368,2,0,P|80:268|120:284,1,71.9999978027344,0|2,1:0|0:0,0:0:0:0:
174,335,177661,1,0,1:0:0:0:
174,335,177807,6,0,P|236:301|243:224,1,143.999995605469,4|0,0:0|0:0,0:0:0:0:
207,164,178246,1,0,1:0:0:0:
285,166,178392,2,0,L|365:173,1,71.9999978027344,2|0,0:0|0:0,0:0:0:0:
404,85,178685,2,0,L|333:92,1,71.9999978027344,0|0,0:0|1:0,0:0:0:0:
289,172,178978,6,0,P|357:175|394:236,1,143.999995605469,2|0,0:0|0:0,0:0:0:0:
393,314,179416,1,0,1:0:0:0:
310,316,179563,2,0,L|321:214,1,71.9999978027344,2|8,0:0|1:3,0:0:0:0:
234,267,179856,2,0,L|163:271,1,71.9999978027344,0|8,3:0|1:3,0:0:0:0:
89,298,180148,1,0,1:0:0:0:
89,298,180294,6,0,P|112:335|195:339,1,107.999996704102,4|0,1:2|0:0,0:0:0:0:
211,336,180587,2,0,L|230:217,1,107.999996704102,0|0,1:0|0:0,0:0:0:0:
198,202,180880,2,0,P|147:191|103:220,1,107.999996704102,2|0,0:0|0:0,0:0:0:0:
63,222,181172,1,0,1:0:0:0:
114,148,181319,6,0,L|119:74,1,71.9999978027344,2|0,0:0|0:0,0:0:0:0:
190,30,181611,2,0,L|195:101,1,71.9999978027344,2|0,0:0|1:0,0:0:0:0:
256,152,181903,2,0,L|357:161,1,71.9999978027344,2|0,0:0|0:0,0:0:0:0:
407,143,182196,1,2,0:0:0:0:
407,143,182343,2,0,L|393:229,1,71.9999978027344,0|0,1:0|1:0,0:0:0:0:
322,153,182636,6,0,P|301:100|314:39,1,107.999996704102,0|0,1:0|0:0,0:0:0:0:
337,23,182928,2,0,L|204:9,1,107.999996704102,0|0,1:0|0:0,0:0:0:0:
193,25,183221,2,0,P|204:64|193:111,1,71.9999978027344,2|0,0:0|0:0,0:0:0:0:
161,164,183514,1,0,1:0:0:0:
83,142,183660,6,0,P|131:90|201:94,1,143.999995605469,2|0,0:0|0:0,0:0:0:0:
239,161,184098,1,0,1:0:0:0:
154,235,184245,2,0,L|160:164,1,71.9999978027344,2|0,0:0|0:0,0:0:0:0:
239,161,184538,2,0,P|276:161|337:135,1,71.9999978027344,0|0,0:0|1:0,0:0:0:0:
354,87,184831,6,0,P|427:52|498:102,1,143.999995605469,4|2,0:0|0:0,0:0:0:0:
499,152,185269,2,0,P|496:199|461:241,1,71.9999978027344,0|2,1:0|0:0,0:0:0:0:
423,272,185562,1,0,1:0:0:0:
394,193,185709,2,0,P|406:148|449:114,1,71.9999978027344,0|0,1:0|1:0,0:0:0:0:
388,199,186002,6,0,L|232:209,1,143.999995605469,4|2,0:0|0:0,0:0:0:0:
197,144,186440,2,0,P|170:131|118:135,1,71.9999978027344,0|2,1:0|0:0,0:0:0:0:
80,227,186733,2,0,P|106:214|158:218,2,71.9999978027344,0|2|0,1:0|0:0|1:0,0:0:0:0:
128,292,187172,6,0,P|193:316|257:287,1,143.999995605469,4|0,0:0|0:0,0:0:0:0:
289,213,187611,1,0,1:0:0:0:
289,213,187757,2,0,P|313:208|370:226,1,71.9999978027344,4|0,0:0|0:0,0:0:0:0:
415,163,188050,2,0,L|415:77,1,71.9999978027344,0|0,0:0|1:0,0:0:0:0:
436,235,188343,6,0,L|440:378,1,143.999995605469,4|0,0:0|0:0,0:0:0:0:
360,380,188782,2,0,P|299:369|263:317,1,107.999996704102,0|0,1:0|0:0,0:0:0:0:
265,296,189075,2,0,P|254:260|220:236,1,71.9999978027344,8|2,1:3|3:2,0:0:0:0:
190,249,189294,1,0,3:0:0:0:
190,249,189368,2,0,P|172:280|176:315,1,71.9999978027344,8|2,1:3|1:2,0:0:0:0:
122,372,189660,6,0,L|41:381,1,71.9999978027344,4|0,1:2|0:0,0:0:0:0:
0,317,189953,1,0,1:0:0:0:
38,247,190099,2,0,L|42:168,1,71.9999978027344,2|0,0:0|0:0,0:0:0:0:
116,148,190392,2,0,L|119:235,1,71.9999978027344,2|0,0:0|1:0,0:0:0:0:
137,254,190611,1,0,0:0:0:0:
137,254,190685,2,0,P|179:257|229:220,1,71.9999978027344,2|0,0:0|0:0,0:0:0:0:
251,180,190977,1,2,0:0:0:0:
278,105,191124,2,0,P|235:102|186:139,1,71.9999978027344,0|2,1:0|0:0,0:0:0:0:
370,233,191563,5,2,0:0:0:0:
328,300,191709,2,0,L|246:309,1,71.9999978027344,0|2,1:0|0:0,0:0:0:0:
193,357,192002,2,0,L|358:375,1,143.999995605469,0|0,1:0|1:0,0:0:0:0:
415,382,192441,2,0,P|442:362|460:313,1,71.9999978027344,2|0,0:0|0:0,0:0:0:0:
497,259,192733,2,0,L|489:176,1,71.9999978027344,2|0,0:0|1:0,0:0:0:0:
420,147,193026,6,0,P|382:164|343:157,1,71.9999978027344,2|0,0:0|0:0,0:0:0:0:
203,216,193465,1,2,1:3:0:0:
203,216,193538,1,0,3:0:0:0:
203,216,193611,2,0,L|206:294,1,71.9999978027344,2|2,3:2|1:3,0:0:0:0:
205,367,193904,2,0,P|231:380|288:373,2,71.9999978027344,2|8|0,1:2|1:3|0:0,0:0:0:0:
137,324,194343,6,0,P|90:320|54:338,2,71.9999978027344,0|8|2,1:0|3:0|3:2,0:0:0:0:
122,245,194782,2,0,P|75:241|39:259,2,71.9999978027344,0|8|2,1:0|3:0|3:2,0:0:0:0:
172,158,195221,2,0,P|137:168|102:162,1,71.9999978027344,8|4,1:3|1:2,0:0:0:0:
256,271,195953,6,0,L|256:324,2,30,8|0|2,3:0|0:0|3:2,0:0:0:0:
256,192,196246,1,2,0:0:0:0:
256,114,196392,2,0,L|256:28,2,60,8|0|4,0:3|0:0|1:2,0:0:0:0:
106,93,206050,6,0,L|233:104,1,120,4|0,0:0|0:0,0:0:0:0:
297,73,206489,1,0,0:0:0:0:
325,146,206636,2,0,L|319:270,1,120,2|0,0:0|0:0,0:0:0:0:
395,316,207075,1,2,0:0:0:0:
395,316,207368,2,0,L|398:245,1,60,0|0,0:0|0:0,0:0:0:0:
401,178,207660,1,2,0:0:0:0:
401,178,207953,2,0,L|405:102,2,60,2|0|2,0:0|0:0|0:0,0:0:0:0:
397,256,208392,6,0,L|275:247,1,120,2|0,0:0|0:0,0:0:0:0:
199,240,208831,1,0,0:0:0:0:
156,174,208977,2,0,L|28:184,1,120,2|0,0:0|0:0,0:0:0:0:
4,254,209416,1,2,0:0:0:0:
4,254,209709,2,0,L|68:262,1,60,0|0,0:0|0:0,0:0:0:0:
140,275,210002,1,2,0:0:0:0:
140,275,210294,2,0,L|215:289,2,60,2|2|2,0:0|0:0|0:0,0:0:0:0:
63,261,210733,6,0,L|96:118,1,120,2|0,0:0|0:0,0:0:0:0:
149,93,211172,1,0,0:0:0:0:
216,133,211319,2,0,L|359:124,1,120,2|0,0:0|0:0,0:0:0:0:
379,190,211758,1,2,0:0:0:0:
461,58,212050,1,0,0:0:0:0:
410,0,212197,1,0,0:0:0:0:
384,70,212343,2,0,L|378:192,1,120,2|0,0:0|0:0,0:0:0:0:
419,312,212928,1,2,0:0:0:0:
358,262,213075,6,0,L|283:252,1,60,2|0,0:0|0:0,0:0:0:0:
230,292,213368,2,0,L|170:299,1,60,2|0,0:0|0:0,0:0:0:0:
134,230,213660,2,0,L|157:146,2,60,2|0|2,0:0|0:0|0:0,0:0:0:0:
93,297,214099,1,2,0:0:0:0:
56,145,214392,1,2,3:2:0:0:
219,216,214685,1,2,3:2:0:0:
286,176,214831,2,0,L|298:113,1,60,0|2,1:0|1:2,0:0:0:0:
372,93,215124,2,0,L|383:151,1,60,0|2,1:0|1:2,0:0:0:0:
345,261,215416,6,0,L|264:254,1,60,4|0,1:2|0:0,0:0:0:0:
159,221,215709,2,0,L|240:214,1,60,0|0,1:0|0:0,0:0:0:0:
212,335,216002,2,0,L|219:205,1,120,2|0,0:0|1:0,0:0:0:0:
259,148,216441,2,0,L|342:144,1,60,2|0,0:0|0:0,0:0:0:0:
383,188,216733,2,0,L|379:260,1,60,2|0,0:0|1:0,0:0:0:0:
465,264,217026,2,0,L|447:132,1,120,2|0,0:0|0:0,0:0:0:0:
383,101,217465,1,0,1:0:0:0:
318,145,217611,1,2,0:0:0:0:
257,194,217758,6,0,L|250:268,1,60,2|0,0:0|0:0,0:0:0:0:
327,339,218050,2,0,L|320:265,1,60,0|0,1:0|0:0,0:0:0:0:
215,344,218343,2,0,P|273:360|334:331,1,120,2|0,0:0|1:0,0:0:0:0:
251,253,218782,2,0,L|171:248,1,60,0|2,0:0|0:0,0:0:0:0:
140,309,219075,2,0,L|60:314,1,60,0|0,0:0|1:0,0:0:0:0:
26,255,219368,2,0,L|41:114,1,120,2|0,0:0|0:0,0:0:0:0:
87,74,219807,1,0,1:0:0:0:
120,144,219953,1,2,0:0:0:0:
186,103,220099,6,0,P|226:91|268:102,1,60,2|0,0:0|0:0,0:0:0:0:
301,145,220392,1,0,1:0:0:0:
356,199,220538,2,0,L|418:206,1,60,2|0,0:0|0:0,0:0:0:0:
276,218,220831,2,0,L|214:225,1,60,2|0,0:0|1:0,0:0:0:0:
163,293,221124,2,0,L|306:305,1,120,2|0,0:0|0:0,0:0:0:0:
355,274,221563,1,0,1:0:0:0:
286,326,221709,2,0,L|166:315,1,120,2|0,0:0|0:0,0:0:0:0:
90,336,222148,1,0,1:0:0:0:
99,258,222294,1,2,0:0:0:0:
99,258,222441,6,0,P|115:234|119:188,1,60,2|0,0:0|0:0,0:0:0:0:
77,139,222733,1,0,1:0:0:0:
154,129,222880,2,0,L|229:115,1,60,2|0,0:0|0:0,0:0:0:0:
276,162,223172,1,0,0:0:0:0:
349,127,223319,2,0,L|428:113,1,60,0|0,1:0|0:0,0:0:0:0:
276,162,223611,6,0,P|268:194|275:227,1,60,0|0,1:0|3:0,0:0:0:0:
195,204,223904,2,0,P|187:236|194:269,1,60,0|0,1:0|3:0,0:0:0:0:
259,301,224197,2,0,P|267:333|260:366,1,60,0|2,1:0|3:2,0:0:0:0:
333,274,224490,2,0,P|341:306|334:339,1,60,2|2,1:3|3:2,0:0:0:0:
414,325,224782,6,0,L|423:249,1,60,4|0,1:2|0:0,0:0:0:0:
325,214,225075,2,0,L|333:279,1,60,0|0,1:0|0:0,0:0:0:0:
379,160,225368,2,0,L|244:176,1,120,2|0,0:0|1:0,0:0:0:0:
181,181,225807,2,0,L|194:102,1,60,2|0,0:0|0:0,0:0:0:0:
246,10,226099,2,0,L|255:69,1,60,2|0,0:0|1:0,0:0:0:0:
375,76,226392,2,0,L|236:68,1,120,2|0,0:0|0:0,0:0:0:0:
190,121,226831,1,0,1:0:0:0:
271,151,226977,1,0,0:0:0:0:
271,151,227124,6,0,L|274:234,1,60,2|0,0:0|0:0,0:0:0:0:
400,259,227416,2,0,L|318:244,1,60,0|0,1:0|0:0,0:0:0:0:
222,267,227709,2,0,L|361:244,1,120,2|0,0:0|1:0,0:0:0:0:
359,171,228148,2,0,L|369:111,1,60,2|2,0:0|0:0,0:0:0:0:
439,147,228441,2,0,L|449:206,1,60,0|0,0:0|1:0,0:0:0:0:
362,104,228733,2,0,L|226:97,1,120,2|0,0:0|1:0,0:0:0:0:
182,47,229172,1,0,1:0:0:0:
115,94,229319,1,2,0:0:0:0:
115,94,229465,6,0,P|94:127|92:156,1,60,0|0,1:0|3:0,0:0:0:0:
138,209,229758,2,0,P|159:242|161:271,1,60,0|0,1:0|3:0,0:0:0:0:
83,266,230050,1,0,1:0:0:0:
83,266,230197,1,0,3:0:0:0:
125,335,230343,2,0,L|201:344,1,60,0|0,1:0|3:0,0:0:0:0:
304,271,230636,6,0,L|217:282,1,60,0|0,1:0|3:0,0:0:0:0:
347,346,230928,2,0,L|335:277,1,60,0|0,1:0|3:0,0:0:0:0:
257,384,231221,2,0,L|316:376,1,60,0|0,1:0|3:0,0:0:0:0:
219,303,231514,2,0,L|230:385,1,60,0|0,1:0|3:0,0:0:0:0:
304,271,231807,1,8,1:3:0:0:
359,215,231953,2,0,L|399:218,2,30,4|0|0,1:3|0:0|0:0,0:0:0:0:
281,202,232246,2,0,P|230:188|216:143,1,90,4|0,1:2|0:0,0:0:0:0:
196,126,232538,2,0,L|186:201,1,60,4|0,1:2|0:0,0:0:0:0:
117,151,232831,6,2,P|130:72|240:60,1,180,4|0,1:2|0:0,0:0:0:0:
300,95,233416,1,0,0:0:0:0:
300,95,233489,1,0,0:0:0:0:
300,95,233563,2,0,L|384:94,1,60,8|8,3:0|3:0,0:0:0:0:
360,95,234148,6,0,P|386:127|383:199,1,107.999996704102,4|0,1:2|0:0,0:0:0:0:
354,220,234441,2,0,L|247:210,1,107.999996704102,0|0,1:0|0:0,0:0:0:0:
210,234,234734,2,0,P|207:287|237:331,1,107.999996704102,2|0,0:0|0:0,0:0:0:0:
278,345,235026,1,0,1:0:0:0:
362,292,235173,2,0,L|353:206,1,71.9999978027344,2|0,0:0|0:0,0:0:0:0:
307,158,235465,1,2,0:0:0:0:
247,210,235612,6,0,P|212:216|173:202,1,71.9999978027344,0|2,1:0|0:0,0:0:0:0:
233,103,235904,2,0,P|198:104|168:124,1,71.9999978027344,0|2,0:0|0:0,0:0:0:0:
243,201,236197,2,0,P|208:207|169:193,1,71.9999978027344,0|0,1:0|1:0,0:0:0:0:
95,198,236490,6,0,P|80:249|94:301,1,107.999996704102,0|0,1:0|0:0,0:0:0:0:
126,320,236782,2,0,P|186:303|254:333,1,107.999996704102,2|0,1:2|0:0,0:0:0:0:
264,342,237075,2,0,P|317:354|367:337,1,107.999996704102,0|0,0:0|0:0,0:0:0:0:
398,306,237368,1,0,1:0:0:0:
350,244,237514,2,0,L|253:238,1,71.9999978027344,2|0,0:0|0:0,0:0:0:0:
221,186,237806,1,2,0:0:0:0:
289,145,237953,6,0,P|301:108|290:56,1,71.9999978027344,0|2,1:0|0:0,0:0:0:0:
184,109,238246,2,0,P|193:72|228:32,1,71.9999978027344,0|2,0:0|0:0,0:0:0:0:
285,136,238538,1,0,1:0:0:0:
216,180,238685,6,0,P|149:222|68:186,1,143.999995605469,4|0,0:0|0:0,0:0:0:0:
9,201,239124,2,0,P|14:236|36:264,1,71.9999978027344,0|2,1:0|0:0,0:0:0:0:
90,207,239417,2,0,P|116:166|114:126,2,71.9999978027344,0|2|0,1:0|0:0|1:0,0:0:0:0:
47,98,239856,6,0,P|128:63|192:105,1,143.999995605469,4|0,0:0|0:0,0:0:0:0:
253,88,240294,2,0,P|247:52|225:24,1,71.9999978027344,0|2,1:0|0:0,0:0:0:0:
174,84,240587,2,0,P|148:125|150:165,2,71.9999978027344,0|2|0,1:0|0:0|1:0,0:0:0:0:
253,108,241026,6,0,P|319:129|385:72,1,143.999995605469,4|0,0:0|0:0,0:0:0:0:
451,118,241465,2,0,L|447:189,1,71.9999978027344,0|2,1:0|0:0,0:0:0:0:
379,264,241758,2,0,L|372:186,2,71.9999978027344,0|2|0,0:0|0:0|1:0,0:0:0:0:
429,325,242197,6,0,P|364:345|309:301,1,143.999995605469,4|0,0:0|0:0,0:0:0:0:
236,238,242636,2,0,L|229:320,1,71.9999978027344,0|2,1:0|0:0,0:0:0:0:
202,384,242929,2,0,L|150:379,2,35.9999989013672,8|0|0,1:3|3:0|3:0,0:0:0:0:
285,366,243221,2,0,P|304:336|309:301,1,71.9999978027344,8|0,1:3|1:0,0:0:0:0:
236,238,243514,6,0,P|230:188|279:116,1,107.999996704102,4|0,1:2|0:0,0:0:0:0:
287,115,243807,2,0,L|415:129,1,107.999996704102,0|0,1:0|0:0,0:0:0:0:
429,148,244099,2,0,P|452:197|447:250,1,107.999996704102,2|0,0:0|0:0,0:0:0:0:
422,281,244392,1,0,1:0:0:0:
345,264,244539,2,0,P|343:223|364:171,1,71.9999978027344,2|0,0:0|0:0,0:0:0:0:
395,127,244831,1,2,0:0:0:0:
314,121,244977,6,0,P|289:97|279:62,1,71.9999978027344,0|2,1:0|0:0,0:0:0:0:
401,42,245270,2,0,P|380:14|347:0,1,71.9999978027344,0|2,0:0|0:0,0:0:0:0:
320,112,245563,2,0,P|295:88|285:53,1,71.9999978027344,0|0,1:0|1:0,0:0:0:0:
218,10,245855,6,0,P|183:52|176:111,1,107.999996704102,0|0,1:0|0:0,0:0:0:0:
194,141,246148,2,0,L|76:128,1,107.999996704102,0|0,1:0|0:0,0:0:0:0:
49,143,246441,2,0,P|84:184|88:228,1,71.9999978027344,2|0,0:0|0:0,0:0:0:0:
55,273,246734,1,0,1:0:0:0:
135,301,246880,2,0,L|209:289,1,71.9999978027344,2|0,0:0|0:0,0:0:0:0:
251,225,247172,1,0,0:0:0:0:
286,297,247319,6,0,L|280:368,1,71.9999978027344,0|2,1:0|0:0,0:0:0:0:
369,356,247612,2,0,L|363:285,2,71.9999978027344,0|0|0,0:0|0:0|1:0,0:0:0:0:
447,345,248051,6,0,L|465:191,1,143.999995605469,4|2,0:0|0:0,0:0:0:0:
418,137,248489,2,0,P|380:134|330:157,1,71.9999978027344,0|2,1:0|0:0,0:0:0:0:
377,221,248783,2,0,P|339:224|289:201,2,71.9999978027344,0|0|0,1:0|1:0|1:0,0:0:0:0:
348,144,249222,6,0,P|269:128|197:186,1,143.999995605469,4|2,0:0|0:0,0:0:0:0:
145,191,249660,2,0,P|140:154|165:103,1,71.9999978027344,0|2,1:0|0:0,0:0:0:0:
224,83,249954,2,0,P|227:45|204:-5,2,71.9999978027344,0|2|0,1:0|0:0|1:0,0:0:0:0:
289,126,250392,6,0,P|326:68|411:67,1,143.999995605469,4|0,0:0|0:0,0:0:0:0:
473,79,250831,1,0,1:0:0:0:
439,150,250978,2,0,P|403:150|371:133,1,71.9999978027344,4|0,0:0|0:0,0:0:0:0:
324,217,251270,2,0,L|405:222,1,71.9999978027344,0|0,0:0|1:0,0:0:0:0:
473,239,251563,6,0,P|430:294|362:291,1,143.999995605469,4|0,0:0|0:0,0:0:0:0:
324,217,252002,2,0,L|229:226,1,71.9999978027344,0|8,1:0|3:0,0:0:0:0:
177,196,252295,2,0,L|167:272,1,71.9999978027344,8|2,1:3|3:2,0:0:0:0:
134,289,252514,1,0,3:0:0:0:
134,289,252587,2,0,L|128:212,1,71.9999978027344,8|2,1:3|1:2,0:0:0:0:
113,139,252880,6,0,P|154:114|197:111,1,71.9999978027344,4|0,1:2|0:0,0:0:0:0:
255,125,253173,1,0,1:0:0:0:
225,51,253319,2,0,P|185:36|139:46,2,71.9999978027344,2|0|2,0:0|0:0|0:0,0:0:0:0:
255,125,253758,1,0,1:0:0:0:
328,96,253904,2,0,L|400:90,1,71.9999978027344,2|0,0:0|0:0,0:0:0:0:
448,174,254197,1,2,0:0:0:0:
448,174,254343,2,0,L|377:168,1,71.9999978027344,0|2,1:0|0:0,0:0:0:0:
211,208,254781,5,2,0:0:0:0:
131,215,254928,2,0,L|124:302,1,71.9999978027344,0|2,1:0|0:0,0:0:0:0:
46,332,255221,2,0,L|28:190,1,143.999995605469,0|0,1:0|1:0,0:0:0:0:
52,113,255660,2,0,P|83:100|128:108,1,71.9999978027344,2|0,0:0|0:0,0:0:0:0:
158,120,255880,1,0,0:0:0:0:
158,120,255953,2,0,P|194:124|227:111,1,71.9999978027344,2|0,0:0|1:0,0:0:0:0:
279,51,256246,6,0,P|370:41|424:72,1,143.999995605469,2|0,0:0|1:0,0:0:0:0:
452,134,256685,2,0,L|447:210,1,71.9999978027344,2|2,1:3|3:2,0:0:0:0:
372,229,256978,1,2,1:3:0:0:
428,285,257124,2,0,L|523:270,2,71.9999978027344,2|8|0,1:2|1:3|0:0,0:0:0:0:
352,304,257563,6,0,L|276:292,2,71.9999978027344,0|8|2,1:0|3:0|3:2,0:0:0:0:
310,371,258002,2,0,L|234:359,2,71.9999978027344,0|8|2,1:0|3:0|3:2,0:0:0:0:
281,292,258441,2,0,L|205:280,1,71.9999978027344,8|4,1:3|1:2,0:0:0:0:
256,192,259172,5,0,0:0:0:0:
177,192,259319,2,0,L|115:192,1,60,0|0,0:0|0:0,0:0:0:0:
256,192,259612,2,0,L|343:192,1,60,0|0,0:0|0:0,0:0:0:0:
370,247,259904,6,0,P|411:237|429:215,1,60,4|0,1:2|0:0,0:0:0:0:
440,148,260197,2,0,P|428:112|403:90,1,60,0|0,1:0|0:0,0:0:0:0:
256,192,260636,2,0,P|236:214|229:243,1,60,0|0,1:0|0:0,0:0:0:0:
249,318,260928,2,0,L|120:329,1,120,2|8,0:0|3:0,0:0:0:0:
57,296,261368,2,0,P|39:256|44:224,1,60,0|2,1:0|0:0,0:0:0:0:
98,190,261660,1,8,3:0:0:0:
123,115,261807,1,0,0:0:0:0:
78,50,261954,6,0,P|39:40|0:56,1,60,0|0,1:0|0:0,0:0:0:0:
197,187,262392,2,0,P|226:190|254:180,1,60,0|0,1:0|0:0,0:0:0:0:
310,125,262685,1,2,0:0:0:0:
365,179,262831,2,0,L|359:260,1,60,0|8,0:0|3:0,0:0:0:0:
400,306,263124,2,0,P|429:306|469:287,2,60,0|2|8,1:0|0:0|3:0,0:0:0:0:
321,305,263563,1,0,0:0:0:0:
254,345,263709,6,0,P|224:345|184:326,1,60,0|8,1:0|3:0,0:0:0:0:
89,200,264148,2,0,P|118:199|158:218,1,60,0|8,1:0|3:0,0:0:0:0:
217,177,264441,2,0,L|210:43,1,120,0|2,1:0|0:0,0:0:0:0:
143,17,264880,2,0,P|113:16|73:35,1,60,0|8,1:0|3:0,0:0:0:0:
30,83,265172,1,0,1:0:0:0:
96,143,265319,5,8,3:0:0:0:
96,143,265465,2,0,L|90:211,1,60,2|0,3:2|1:0,0:0:0:0:
25,246,265758,1,8,3:0:0:0:
25,246,265904,2,0,L|31:314,1,60,2|8,3:2|1:3,0:0:0:0:
81,365,266197,2,0,P|105:371|153:364,1,60,2|0,1:2|0:0,0:0:0:0:
195,314,266489,2,0,L|207:271,2,30,8|0|4,1:3|1:0|1:2,0:0:0:0:
