osu file format v14

[General]
AudioFilename: ShounenBrave.mp3
AudioLeadIn: 0
PreviewTime: 79901
Countdown: 0
SampleSet: Soft
StackLeniency: 0.7
Mode: 0
LetterboxInBreaks: 0
WidescreenStoryboard: 0

[Editor]
Bookmarks: 16097,17121,18438,19462,23706,33511,35883,36907,38224,39249,40566,41590
DistanceSpacing: 1.4
BeatDivisor: 4
GridSize: 4
TimelineZoom: 1

[Metadata]
Title:Shounen Brave
TitleUnicode:Shounen Brave
Artist:Jin
ArtistUnicode:Jin
Creator:Xinchii
Version:Insane
Source:
Tags:
BeatmapID:357399
BeatmapSetID:143729

[Difficulty]
HPDrainRate:7
CircleSize:4
OverallDifficulty:7
ApproachRate:9
SliderMultiplier:1.8
SliderTickRate:1

[Events]
//Background and Video events
Video,0,"ShounenBrave.avi"
0,0,"BG.jpg",0,0
//Break Periods
2,106327,123819
2,197350,214257
//Storyboard Layer 0 (Background)
//Storyboard Layer 1 (Fail)
//Storyboard Layer 2 (Pass)
//Storyboard Layer 3 (Foreground)
//Storyboard Sound Samples

[TimingPoints]
14810,292.682926829268,4,2,1,70,1,0
20663,-100,4,2,2,80,0,0
20736,-100,4,2,1,70,0,0
23005,-100,4,2,2,80,0,0
23078,-100,4,2,1,70,0,0
30029,-100,4,2,2,80,0,0
30102,-100,4,2,1,70,0,0
32370,-100,4,2,2,80,0,0
32444,-100,4,2,1,70,0,0
33541,-100,4,2,1,70,0,0
52566,-100,4,2,3,70,0,0
78029,-100,4,2,1,70,0,0
80078,-100,4,2,1,50,0,0
80370,-100,4,2,3,80,0,1
81688,-83.3333333333333,4,2,3,80,0,1
81980,-71.4285714285714,4,2,3,80,0,1
82273,-100,4,2,3,80,0,1
91053,-83.3333333333333,4,2,3,80,0,1
91346,-71.4285714285714,4,2,3,80,0,1
91639,-100,4,2,3,80,0,1
100127,-100,4,2,2,80,0,1
100200,-100,4,2,3,80,0,1
102468,-100,4,2,2,80,0,1
102541,-100,4,2,3,80,0,1
104809,-100,4,2,2,80,0,1
104883,-100,4,2,3,80,0,1
104983,-100,4,2,3,80,0,1
105102,-100,4,2,1,30,0,1
106127,-100,4,2,1,70,0,0
143883,-100,4,2,3,70,0,0
169346,-100,4,2,1,50,0,0
171394,292.682926829268,4,2,1,80,1,0
171394,-100,4,2,3,80,0,1
172711,-83.3333333333333,4,2,3,80,0,1
173003,-71.4285714285714,4,2,3,80,0,1
173296,-100,4,2,3,80,0,1
182076,-83.3333333333333,4,2,3,80,0,1
182369,-71.4285714285714,4,2,3,80,0,1
182662,-100,4,2,3,80,0,1
191150,-100,4,2,2,80,0,1
191296,-100,4,2,3,80,0,1
193491,-100,4,2,2,80,0,1
193637,-100,4,2,3,80,0,1
196418,-100,4,2,1,50,0,1
197150,-100,4,2,1,70,0,0
215881,-100,4,2,3,70,0,0
226564,-83.3333333333333,4,2,3,70,0,0
226857,-71.4285714285714,4,2,3,70,0,0
227150,-100,4,2,3,70,0,0
234614,-100,4,2,3,80,0,1
235930,-83.3333333333333,4,2,3,80,0,1
236223,-71.4285714285714,4,2,3,80,0,1
236515,-100,4,2,3,80,0,1
245296,-83.3333333333333,4,2,3,80,0,1
245589,-71.4285714285714,4,2,3,80,0,1
245881,-100,4,2,3,80,0,1
254369,-100,4,2,2,80,0,1
254515,-100,4,2,3,80,0,1
256711,-100,4,2,2,80,0,1
256857,-100,4,2,3,80,0,1
260370,-100,4,2,1,100,0,0

[Colours]
Combo1 : 45,105,166
Combo2 : 18,203,124
Combo3 : 27,160,199

[HitObjects]
148,288,14810,6,0,B|144:240|120:204|120:204|152:172|152:116,1,180,4|8,0:0|0:0,0:0:0:0:
60,136,15249,1,0,0:0:0:0:
228,40,15395,2,0,P|244:128|216:216,1,180,2|8,0:0|0:0,0:0:0:0:
148,288,15834,2,0,P|188:272|240:272,1,90
316,304,16127,5,0,0:0:0:0:
292,220,16273,1,8,0:0:0:0:
332,140,16420,1,0,0:0:0:0:
412,100,16566,1,2,0:0:0:0:
296,116,16712,1,0,0:0:0:0:
448,60,16859,1,8,0:0:0:0:
256,148,17005,1,0,0:0:0:0:
448,60,17151,6,0,B|424:104|448:148|448:148|408:180|416:240,1,180,2|8,0:0|0:0,0:0:0:0:
504,216,17590,1,0,0:0:0:0:
340,284,17736,2,0,P|328:192|360:112,1,180,2|8,0:0|0:0,0:0:0:0:
448,60,18175,2,0,P|404:68|360:60,1,90
276,24,18468,5,0,0:0:0:0:
268,112,18614,1,8,0:0:0:0:
200,172,18761,1,0,0:0:0:0:
112,184,18907,1,2,0:0:0:0:
188,96,19053,1,0,0:0:0:0:
272,176,19200,1,8,0:0:0:0:
192,260,19346,1,0,0:0:0:0:
376,128,19492,6,0,P|388:172|376:216,1,90,4|0,0:0|0:0,0:0:0:0:
324,60,19785,1,8,0:0:0:0:
448,172,19931,1,0,0:0:0:0:
312,48,20078,2,0,P|280:84|272:136,1,90,2|0,0:0|0:0,0:0:0:0:
456,180,20370,2,0,P|488:144|496:92,1,90,10|0,0:0|0:0,0:0:0:0:
376,128,20663,6,0,P|364:172|376:216,1,90,4|0,0:0|0:0,0:0:0:0:
452,260,20956,1,8,0:0:0:0:
448,172,21102,1,0,0:0:0:0:
372,300,21249,2,0,P|328:288|296:256,1,90,2|0,0:0|0:0,0:0:0:0:
256,86,21541,2,0,L|256:176,1,90,10|0,0:0|0:0,0:0:0:0:
140,299,21834,6,0,P|183:288|215:257,1,90,4|0,0:0|0:0,0:0:0:0:
64,272,22127,1,8,0:0:0:0:
224,256,22273,1,0,0:0:0:0:
56,272,22419,2,0,P|44:224|56:184,1,90,2|0,0:0|0:0,0:0:0:0:
232,256,22712,2,0,P|244:304|232:344,1,90,10|0,0:0|0:0,0:0:0:0:
140,300,23005,6,0,L|232:300,1,90,4|0,0:0|0:0,0:0:0:0:
304,248,23297,1,8,0:0:0:0:
356,320,23444,1,0,0:0:0:0:
424,260,23590,1,2,0:0:0:0:
440,236,23663,1,0,0:0:0:0:
440,208,23736,1,0,0:0:0:0:
428,184,23810,1,0,0:0:0:0:
408,164,23883,1,8,0:0:0:0:
388,148,23956,1,0,0:0:0:0:
380,124,24029,1,0,0:0:0:0:
388,96,24102,1,0,0:0:0:0:
408,76,24175,6,0,P|328:116|244:88,1,180,4|8,0:0|0:0,0:0:0:0:
188,20,24614,1,0,0:0:0:0:
120,80,24761,2,0,P|96:120|96:172,1,90
180,140,25053,1,8,0:0:0:0:
180,140,25200,2,0,L|256:208,1,90
336,192,25492,5,0,0:0:0:0:
360,280,25639,1,8,0:0:0:0:
448,284,25785,1,0,0:0:0:0:
336,192,25931,2,0,L|420:144,1,90,0|0,0:0|0:0,0:0:0:0:
448,284,26224,2,0,L|364:336,1,90,8|0,0:0|0:0,0:0:0:0:
327,180,26517,6,0,P|310:97|384:56,1,180,2|8,0:0|0:0,0:0:0:0:
416,148,26956,1,0,0:0:0:0:
336,192,27102,2,0,P|288:208|244:204,1,90
172,156,27395,1,8,0:0:0:0:
172,156,27541,2,0,L|204:248,1,90
132,300,27834,5,0,0:0:0:0:
56,252,27980,1,8,0:0:0:0:
76,164,28127,1,0,0:0:0:0:
132,300,28273,2,0,L|52:348,1,90,0|0,0:0|0:0,0:0:0:0:
76,164,28566,2,0,L|108:76,1,90,8|0,0:0|0:0,0:0:0:0:
231,94,28858,6,0,P|210:134|172:156,1,90,4|0,0:0|0:0,0:0:0:0:
76,164,29151,1,8,0:0:0:0:
228,288,29297,1,0,0:0:0:0:
171,156,29444,2,0,L|264:188,1,90,2|0,0:0|0:0,0:0:0:0:
132,300,29736,2,0,L|44:268,1,90,10|0,0:0|0:0,0:0:0:0:
172,144,30029,6,0,P|228:76|312:108,1,180,4|8,0:0|0:0,0:0:0:0:
258,181,30468,1,0,0:0:0:0:
324,244,30614,2,0,L|416:272,1,90,2|0,0:0|0:0,0:0:0:0:
305,100,30907,2,0,L|240:24,1,90,10|0,0:0|0:0,0:0:0:0:
109,217,31200,6,0,P|193:238|258:181,1,180,4|8,0:0|0:0,0:0:0:0:
172,144,31639,1,0,0:0:0:0:
304,100,31785,2,0,L|352:184,1,90,2|0,0:0|0:0,0:0:0:0:
172,144,32078,2,0,L|128:64,1,90,10|0,0:0|0:0,0:0:0:0:
332,60,32370,6,0,P|408:100|396:184,1,180,4|8,0:0|0:0,0:0:0:0:
256,288,32810,1,0,0:0:0:0:
256,288,32883,1,0,0:0:0:0:
256,288,32956,1,0,0:0:0:0:
316,220,33102,1,0,0:0:0:0:
168,284,33249,1,8,0:0:0:0:
344,316,33395,1,0,0:0:0:0:
224,204,33541,5,4,0:0:0:0:
224,204,33834,1,8,0:0:0:0:
224,204,34127,5,0,0:0:0:0:
140,168,34273,1,0,0:0:0:0:
212,116,34419,1,8,0:0:0:0:
54,143,34566,6,0,P|70:227|152:256,1,180,2|0,0:0|0:0,0:0:0:0:
140,168,35005,1,8,0:0:0:0:
224,204,35151,1,0,0:0:0:0:
224,204,35297,2,0,L|316:204,1,90,0|0,0:0|0:0,0:0:0:0:
380,140,35590,1,8,0:0:0:0:
436,244,35736,1,0,0:0:0:0:
448,68,35883,6,0,P|356:36|292:84,1,180,2|8,0:0|0:0,0:0:0:0:
314,204,36322,1,0,0:0:0:0:
436,244,36468,2,0,L|364:312,1,90
256,284,36761,1,8,0:0:0:0:
140,168,36907,6,0,P|120:260|176:324,1,180,2|0,0:0|0:0,0:0:0:0:
256,284,37346,1,8,0:0:0:0:
336,340,37492,1,0,0:0:0:0:
314,204,37639,2,0,L|376:140,1,90
292,36,37931,2,0,L|196:60,1,90,8|0,0:0|0:0,0:0:0:0:
140,168,38224,5,4,0:0:0:0:
140,168,38517,1,8,0:0:0:0:
140,168,38809,5,0,0:0:0:0:
56,132,38956,1,0,0:0:0:0:
128,80,39102,1,8,0:0:0:0:
63,219,39249,6,0,P|140:260|217:219,1,180,2|0,0:0|0:0,0:0:0:0:
140,168,39688,1,8,0:0:0:0:
208,112,39834,1,0,0:0:0:0:
208,112,39980,2,0,L|300:112,1,90
368,168,40273,1,8,0:0:0:0:
448,80,40419,1,0,0:0:0:0:
452,248,40566,6,0,P|376:288|288:252,1,180,2|8,0:0|0:0,0:0:0:0:
208,112,41005,1,0,0:0:0:0:
208,112,41151,2,0,L|136:172,1,90
56,128,41444,1,8,0:0:0:0:
96,256,41590,2,0,L|188:256,1,90,2|0,0:0|0:0,0:0:0:0:
56,128,41883,5,0,0:0:0:0:
56,128,41956,1,0,0:0:0:0:
56,128,42029,1,8,0:0:0:0:
138,169,42175,1,0,0:0:0:0:
52,40,42322,1,2,0:0:0:0:
208,112,42468,1,0,0:0:0:0:
208,112,42541,1,0,0:0:0:0:
208,112,42614,1,8,0:0:0:0:
64,216,42761,1,0,0:0:0:0:
256,296,42907,5,4,0:0:0:0:
256,296,43200,1,8,0:0:0:0:
256,296,43492,5,0,0:0:0:0:
336,252,43639,1,0,0:0:0:0:
256,208,43785,1,8,0:0:0:0:
423,223,43931,2,0,P|414:308|336:344,1,180,2|0,0:0|0:0,0:0:0:0:
344,156,44370,1,8,0:0:0:0:
132,280,44663,1,0,0:0:0:0:
256,64,44956,1,8,0:0:0:0:
424,224,45249,6,0,P|448:136|392:64,1,180,2|8,0:0|0:0,0:0:0:0:
256,64,45688,1,0,0:0:0:0:
181,202,45834,2,0,L|268:228,1,90
132,280,46127,1,8,0:0:0:0:
144,120,46273,6,0,B|204:64|272:100|272:100|252:56,1,180,2|0,0:0|0:0,0:0:0:0:
344,40,46712,1,8,0:0:0:0:
360,128,46858,2,0,P|340:164|292:188,1,90
272,100,47151,1,0,0:0:0:0:
396,76,47297,1,8,0:0:0:0:
468,180,47444,1,0,0:0:0:0:
372,264,47590,6,0,L|288:308,1,90,2|0,0:0|0:0,0:0:0:0:
204,300,47883,1,8,0:0:0:0:
240,220,48029,1,0,0:0:0:0:
124,264,48175,2,0,P|112:212|120:176,1,90
180,112,48468,1,8,0:0:0:0:
36,144,48614,6,0,P|24:232|52:320,1,180,2|0,0:0|0:0,0:0:0:0:
124,264,49053,1,8,0:0:0:0:
204,300,49200,2,0,P|296:292|328:216,1,180
240,220,49639,1,8,0:0:0:0:
124,264,49785,1,0,0:0:0:0:
180,112,49931,6,0,L|100:64,1,90,2|0,0:0|0:0,0:0:0:0:
20,104,50224,1,8,0:0:0:0:
256,52,50517,1,0,0:0:0:0:
124,264,50809,1,8,0:0:0:0:
124,264,50956,2,0,L|200:320,1,90
256,192,51249,12,4,52273,0:0:0:0:
332,68,52566,5,8,0:0:0:0:
404,124,52712,1,0,0:0:0:0:
380,212,52858,2,0,B|376:236|392:256|392:256|372:268|364:296,2,90,0|0|8,0:0|0:0|0:0,0:0:0:0:
444,324,53297,6,0,P|356:368|292:324,1,180,2|0,0:0|0:0,0:0:0:0:
208,348,53736,1,8,0:0:0:0:
196,260,53883,1,0,0:0:0:0:
144,188,54029,2,0,L|76:128,1,90
100,40,54322,2,0,L|168:100,1,90,8|0,0:0|0:0,0:0:0:0:
112,272,54614,6,0,L|40:208,1,90
144,188,54907,1,8,0:0:0:0:
196,260,55053,1,0,0:0:0:0:
188,352,55200,2,0,P|236:348|272:316,1,90
280,232,55492,1,8,0:0:0:0:
284,56,55639,6,0,B|292:104|284:144|284:144|336:144|364:200,1,180,2|0,0:0|0:0,0:0:0:0:
368,216,56005,1,0,0:0:0:0:
368,244,56078,1,8,0:0:0:0:
280,232,56224,1,0,0:0:0:0:
116,216,56370,1,2,0:0:0:0:
196,260,56517,1,0,0:0:0:0:
104,128,56663,1,8,0:0:0:0:
52,276,56809,1,0,0:0:0:0:
192,164,56956,6,0,P|188:76|108:36,1,180,4|8,0:0|0:0,0:0:0:0:
104,128,57395,1,0,0:0:0:0:
116,216,57541,2,0,B|124:236|144:248|144:248|140:276|156:296,2,90,0|0|8,0:0|0:0|0:0,0:0:0:0:
285,94,57980,6,0,P|281:183|236:260,1,180,2|0,0:0|0:0,0:0:0:0:
153,292,58419,1,8,0:0:0:0:
224,348,58566,1,0,0:0:0:0:
308,312,58712,2,0,L|400:312,1,90
456,236,59005,2,0,L|372:200,1,90,8|0,0:0|0:0,0:0:0:0:
184,64,59297,6,0,B|124:92|140:168|140:168|88:132,1,180,2|8,0:0|0:0,0:0:0:0:
24,80,59736,1,0,0:0:0:0:
224,140,59883,2,0,P|208:232|128:256,1,180,2|8,0:0|0:0,0:0:0:0:
140,168,60322,6,0,L|288:280,1,180,2|0,0:0|0:0,0:0:0:0:
304,292,60688,1,0,0:0:0:0:
324,308,60761,1,8,0:0:0:0:
412,292,60907,1,0,0:0:0:0:
324,148,61053,1,2,0:0:0:0:
324,148,61200,1,0,0:0:0:0:
472,200,61346,1,8,0:0:0:0:
472,200,61492,1,0,0:0:0:0:
384,44,61639,6,0,B|340:20|296:36|296:36|280:84|224:92,1,180,4|8,0:0|0:0,0:0:0:0:
212,4,62078,1,0,0:0:0:0:
148,72,62224,2,0,P|152:120|176:156,2,90,0|0|8,0:0|0:0|0:0,0:0:0:0:
256,192,62663,6,0,P|180:236|100:200,1,180,2|0,0:0|0:0,0:0:0:0:
174,154,63102,1,8,0:0:0:0:
231,90,63249,1,0,0:0:0:0:
312,128,63395,2,0,L|404:128,1,90
476,76,63688,1,8,0:0:0:0:
456,204,63834,6,0,B|436:224|400:224|400:224|352:256|404:304|344:332,1,180,2|0,0:0|0:0,0:0:0:0:
292,260,64273,1,8,0:0:0:0:
124,80,64419,6,0,P|72:144|123:223,1,180,0|0,0:0|0:0,0:0:0:0:
174,154,64858,1,8,0:0:0:0:
292,260,65005,6,0,B|244:236|208:244|208:244|196:296|136:312,1,180,2|0,0:0|0:0,0:0:0:0:
128,312,65370,1,0,0:0:0:0:
108,312,65444,1,8,0:0:0:0:
116,220,65590,1,0,0:0:0:0:
248,336,65736,1,0,0:0:0:0:
292,172,65883,1,0,0:0:0:0:
296,156,65956,1,0,0:0:0:0:
300,140,66029,1,8,0:0:0:0:
324,268,66175,1,0,0:0:0:0:
416,104,66322,6,0,P|376:32|280:24,1,180,4|8,0:0|0:0,0:0:0:0:
212,76,66761,1,0,0:0:0:0:
124,52,66907,2,0,L|40:92,1,90
148,140,67200,1,8,0:0:0:0:
184,226,67346,6,0,P|238:158|212:76,1,180,2|0,0:0|0:0,0:0:0:0:
124,52,67785,1,8,0:0:0:0:
280,36,67931,2,0,L|360:80,2,90
148,140,68370,1,8,0:0:0:0:
327,225,68517,6,0,P|256:271|184:226,1,180
148,140,68956,1,8,0:0:0:0:
176,56,69102,1,0,0:0:0:0:
84,204,69249,1,0,0:0:0:0:
236,156,69395,1,0,0:0:0:0:
76,96,69541,1,8,0:0:0:0:
183,224,69688,6,0,L|184:320,1,90,2|0,0:0|0:0,0:0:0:0:
272,324,69980,1,0,0:0:0:0:
288,316,70053,1,0,0:0:0:0:
304,308,70127,1,8,0:0:0:0:
384,204,70273,1,0,0:0:0:0:
376,200,70346,1,0,0:0:0:0:
368,196,70419,1,0,0:0:0:0:
360,192,70492,1,0,0:0:0:0:
352,188,70566,1,0,0:0:0:0:
344,184,70639,1,0,0:0:0:0:
336,164,70712,1,8,0:0:0:0:
328,160,70785,1,0,0:0:0:0:
320,156,70858,1,0,0:0:0:0:
312,152,70931,1,0,0:0:0:0:
304,132,71005,6,0,B|280:116|244:112|244:112|316:88|328:32,1,180,4|8,0:0|0:0,0:0:0:0:
176,64,71444,2,0,P|169:149|244:192,1,180
244,112,71883,1,8,0:0:0:0:
324,156,72029,6,0,L|368:240,1,90,2|0,0:0|0:0,0:0:0:0:
452,260,72322,1,0,0:0:0:0:
384,352,72468,1,8,0:0:0:0:
432,176,72614,1,0,0:0:0:0:
428,168,72688,1,0,0:0:0:0:
424,160,72761,1,0,0:0:0:0:
420,152,72834,1,0,0:0:0:0:
416,144,72907,1,0,0:0:0:0:
412,136,72980,1,0,0:0:0:0:
408,128,73053,1,8,0:0:0:0:
404,120,73127,1,0,0:0:0:0:
400,112,73200,1,0,0:0:0:0:
396,104,73273,1,0,0:0:0:0:
392,96,73346,6,0,P|472:120|420:184,1,180,4|8,0:0|0:0,0:0:0:0:
256,112,73785,2,0,B|228:88|220:56|220:56|216:120|152:148,1,180
132,56,74224,1,8,0:0:0:0:
76,218,74370,6,0,L|76:128,1,90,2|0,0:0|0:0,0:0:0:0:
164,232,74663,1,0,0:0:0:0:
120,308,74809,1,8,0:0:0:0:
252,232,74956,1,0,0:0:0:0:
280,232,75029,1,0,0:0:0:0:
304,224,75102,1,0,0:0:0:0:
324,200,75175,1,0,0:0:0:0:
328,172,75249,1,0,0:0:0:0:
320,148,75322,1,0,0:0:0:0:
316,120,75395,1,8,0:0:0:0:
324,96,75468,1,0,0:0:0:0:
344,80,75541,1,0,0:0:0:0:
372,76,75614,1,0,0:0:0:0:
396,88,75688,6,0,P|308:80|224:44,1,180,4|8,0:0|0:0,0:0:0:0:
136,36,76127,1,0,0:0:0:0:
128,124,76273,2,0,L|52:180,1,90
28,264,76566,1,8,0:0:0:0:
104,312,76712,2,0,L|200:292,1,90
276,324,77005,5,0,0:0:0:0:
348,272,77151,1,8,0:0:0:0:
296,200,77297,1,0,0:0:0:0:
364,140,77444,1,0,0:0:0:0:
292,84,77590,1,0,0:0:0:0:
336,4,77736,5,8,0:0:0:0:
268,64,77883,1,0,0:0:0:0:
180,64,78029,2,0,L|128:140,1,90,4|0,0:0|0:0,0:0:0:0:
129,138,78249,1,0,0:0:0:0:
129,138,78322,1,8,0:0:0:0:
44,168,78468,1,0,0:0:0:0:
332,320,78907,6,0,L|384:244,1,90,4|0,0:0|0:0,0:0:0:0:
382,245,79127,1,0,0:0:0:0:
382,245,79200,1,8,0:0:0:0:
468,216,79346,1,0,0:0:0:0:
256,128,80078,5,0,0:0:0:0:
256,128,80370,6,0,B|240:172|240:172|256:220|256:220|272:172|272:172|260:128,1,180,4|8,0:0|0:0,0:0:0:0:
256,44,80809,1,0,0:0:0:0:
176,88,80956,2,0,B|152:88|132:76|132:76|108:76|80:88,2,90,0|0|8,0:0|0:0|0:0,0:0:0:0:
336,88,81395,6,0,B|360:88|380:76|380:76|404:76|432:88,1,90,0|0,0:0|0:0,0:0:0:0:
332,84,81688,2,0,B|356:96|384:92|384:92|416:104|432:132,1,107.999996704102,0|8,0:0|0:0,0:0:0:0:
328,80,81980,2,0,B|348:104|380:112|380:112|404:140|408:180,1,125.999996154785,0|0,0:0|0:0,0:0:0:0:
388,256,82273,1,0,0:0:0:0:
448,320,82419,1,8,0:0:0:0:
308,304,82566,5,0,0:0:0:0:
308,304,82639,1,0,0:0:0:0:
308,304,82712,2,0,L|216:272,1,90,4|0,0:0|0:0,0:0:0:0:
172,200,83005,1,8,0:0:0:0:
88,228,83151,1,0,0:0:0:0:
184,104,83297,2,0,L|276:136,1,90
172,200,83590,1,8,0:0:0:0:
360,112,83736,1,0,0:0:0:0:
360,112,83883,6,0,L|304:40,1,90
304,40,84175,1,8,0:0:0:0:
304,40,84322,1,0,0:0:0:0:
420,40,84468,2,0,L|488:120,1,90
360,200,84761,1,8,0:0:0:0:
168,308,84907,6,0,B|188:288|216:280|216:280|168:228|196:164,1,180,4|0,0:0|0:0,0:0:0:0:
268,108,85346,1,8,0:0:0:0:
108,188,85492,1,0,0:0:0:0:
272,208,85639,1,0,0:0:0:0:
160,88,85785,1,0,0:0:0:0:
160,88,85858,1,0,0:0:0:0:
160,88,85931,1,8,0:0:0:0:
396,28,86078,6,0,B|372:44|343:47|343:47|382:106|343:164,1,180,4|0,0:0|0:0,0:0:0:0:
272,208,86517,1,8,0:0:0:0:
432,156,86663,1,0,0:0:0:0:
268,108,86809,1,0,0:0:0:0:
372,244,86956,1,0,0:0:0:0:
372,244,87029,1,0,0:0:0:0:
372,244,87102,1,8,0:0:0:0:
176,160,87249,6,0,P|168:248|232:304,1,180,4|0,0:0|0:0,0:0:0:0:
272,208,87688,1,8,0:0:0:0:
372,244,87834,1,0,0:0:0:0:
372,244,87907,1,0,0:0:0:0:
372,244,87980,1,0,0:0:0:0:
432,156,88127,2,0,L|456:248,1,90,0|8,0:0|0:0,0:0:0:0:
400,76,88419,6,0,B|356:92|344:144|344:144|296:124|288:72,1,180,4|0,0:0|0:0,0:0:0:0:
216,28,88858,1,8,0:0:0:0:
136,68,89005,1,0,0:0:0:0:
124,76,89078,1,0,0:0:0:0:
112,84,89151,1,0,0:0:0:0:
100,92,89224,1,0,0:0:0:0:
88,100,89297,1,0,0:0:0:0:
76,108,89370,1,0,0:0:0:0:
64,116,89444,1,8,0:0:0:0:
44,208,89590,5,0,0:0:0:0:
52,220,89663,1,0,0:0:0:0:
60,232,89736,2,0,P|128:272|212:232,1,180,4|8,0:0|0:0,0:0:0:0:
256,152,90175,1,0,0:0:0:0:
304,76,90322,2,0,L|396:36,2,90,0|0|8,0:0|0:0|0:0,0:0:0:0:
212,76,90761,6,0,L|124:36,1,90
212,80,91053,2,0,P|156:72|96:80,1,107.999996704102,0|8,0:0|0:0,0:0:0:0:
212,84,91346,2,0,P|144:92|92:124,1,125.999996154785
108,212,91639,1,0,0:0:0:0:
32,264,91785,1,8,0:0:0:0:
152,284,91931,1,0,0:0:0:0:
304,200,92078,6,0,L|240:264,1,90,4|0,0:0|0:0,0:0:0:0:
376,284,92370,2,0,L|440:216,1,90,8|0,0:0|0:0,0:0:0:0:
380,148,92663,1,0,0:0:0:0:
304,200,92809,1,0,0:0:0:0:
248,128,92956,1,8,0:0:0:0:
108,212,93102,2,0,B|76:200|64:176|64:176|112:140|60:104|112:68,1,180
109,69,93541,1,8,0:0:0:0:
109,69,93688,1,0,0:0:0:0:
196,44,93834,2,0,L|292:44,1,90
364,92,94127,1,8,0:0:0:0:
256,280,94273,6,0,P|211:206|248:128,1,180,4|0,0:0|0:0,0:0:0:0:
304,200,94712,1,8,0:0:0:0:
148,268,94858,1,0,0:0:0:0:
248,128,95005,1,0,0:0:0:0:
256,280,95151,1,0,0:0:0:0:
256,280,95224,1,0,0:0:0:0:
256,280,95297,1,8,0:0:0:0:
360,128,95444,6,0,P|396:206|351:280,1,180,4|0,0:0|0:0,0:0:0:0:
304,200,95883,1,8,0:0:0:0:
468,156,96029,1,0,0:0:0:0:
351,280,96175,1,0,0:0:0:0:
360,128,96322,1,0,0:0:0:0:
360,128,96395,1,0,0:0:0:0:
360,128,96468,1,8,0:0:0:0:
216,52,96614,6,0,B|184:32|152:64|128:52|128:52|124:80|80:88|80:132,1,180,4|0,0:0|0:0,0:0:0:0:
128,204,97053,1,8,0:0:0:0:
92,288,97200,2,0,L|164:352,1,90
236,300,97492,1,0,0:0:0:0:
228,208,97639,1,8,0:0:0:0:
316,344,97785,6,0,P|352:260|316:184,1,180,4|0,0:0|0:0,0:0:0:0:
228,208,98224,1,8,0:0:0:0:
252,120,98370,1,0,0:0:0:0:
340,100,98517,1,0,0:0:0:0:
412,156,98663,1,0,0:0:0:0:
416,148,98736,1,0,0:0:0:0:
420,140,98809,1,8,0:0:0:0:
424,132,98883,1,0,0:0:0:0:
428,124,98956,1,0,0:0:0:0:
432,116,99029,1,0,0:0:0:0:
440,104,99102,6,0,B|452:80|472:68|472:68|436:16|352:16,1,180,4|8,0:0|0:0,0:0:0:0:
179,66,99541,2,0,L|252:120,1,90,0|0,0:0|0:0,0:0:0:0:
300,261,99834,2,0,L|228:208,1,90,0|8,0:0|0:0,0:0:0:0:
76,200,100127,6,0,P|88:288|168:332,1,180,4|0,0:0|0:0,0:0:0:0:
252,336,100566,1,8,0:0:0:0:
300,260,100712,1,0,0:0:0:0:
388,256,100858,1,0,0:0:0:0:
456,316,101005,5,0,0:0:0:0:
400,244,101151,1,8,0:0:0:0:
480,156,101297,1,0,0:0:0:0:
368,48,101444,2,0,B|332:32|301:48|301:48|316:112|272:156,1,180,4|8,0:0|0:0,0:0:0:0:
188,144,101883,2,0,L|224:240,1,90
156,292,102175,2,0,L|124:204,1,90,0|8,0:0|0:0,0:0:0:0:
276,151,102468,6,0,P|312:244|264:312,1,180,4|0,0:0|0:0,0:0:0:0:
156,292,102907,2,0,L|112:276,3,45,8|0|0|0,0:0|0:0|0:0|0:0,0:0:0:0:
88,240,103200,1,0,0:0:0:0:
132,160,103346,1,0,0:0:0:0:
52,120,103492,1,8,0:0:0:0:
80,32,103639,1,0,0:0:0:0:
132,160,103785,6,0,L|224:124,1,90,4|0,0:0|0:0,0:0:0:0:
224,116,104005,1,0,0:0:0:0:
232,104,104078,1,8,0:0:0:0:
372,48,104224,2,0,L|360:104,2,45
364,204,104517,2,0,L|408:184,2,45,0|0|8,0:0|0:0|0:0,0:0:0:0:
226,267,104809,5,4,0:0:0:0:
226,267,105102,6,0,P|173:177|285:266,1,450,0|2,0:0|0:0,0:0:0:0:
256,192,106127,1,4,0:0:0:0:
320,140,124419,5,0,0:0:0:0:
324,132,124493,1,0,0:0:0:0:
328,124,124566,1,0,0:0:0:0:
332,116,124639,1,0,0:0:0:0:
336,108,124712,1,0,0:0:0:0:
340,100,124785,1,0,0:0:0:0:
344,92,124858,6,0,P|408:144|388:236,1,180,4|8,0:0|0:0,0:0:0:0:
392,231,125444,1,0,0:0:0:0:
424,316,125590,1,0,0:0:0:0:
304,256,125736,1,8,0:0:0:0:
220,344,125883,6,0,B|184:312|180:264|180:264|128:268|100:232,1,180,2|0,0:0|0:0,0:0:0:0:
52,160,126322,1,8,0:0:0:0:
168,176,126468,1,0,0:0:0:0:
89,321,126614,2,0,P|87:276|101:233,1,90
168,176,126907,1,8,0:0:0:0:
320,44,127053,6,0,P|323:130|254:183,1,180,2|0,0:0|0:0,0:0:0:0:
168,176,127492,1,8,0:0:0:0:
304,256,127639,1,0,0:0:0:0:
164,328,127785,2,0,L|260:328,1,90
340,356,128078,1,8,0:0:0:0:
444,180,128224,6,0,P|484:264|436:332,1,180,2|0,0:0|0:0,0:0:0:0:
340,356,128663,1,8,0:0:0:0:
392,252,128809,1,0,0:0:0:0:
308,144,128956,2,0,L|380:88,1,90
256,40,129249,2,0,L|180:96,1,90,8|0,0:0|0:0,0:0:0:0:
64,180,129541,1,4,0:0:0:0:
64,180,129834,1,8,0:0:0:0:
64,180,130127,5,0,0:0:0:0:
152,176,130273,1,0,0:0:0:0:
40,264,130419,1,8,0:0:0:0:
136,352,130566,6,0,P|220:340|248:256,1,180,2|0,0:0|0:0,0:0:0:0:
244,168,131005,1,8,0:0:0:0:
320,120,131151,1,0,0:0:0:0:
192,88,131297,2,0,L|96:88,1,90
24,32,131590,1,8,0:0:0:0:
64,180,131736,1,0,0:0:0:0:
244,168,131883,6,0,B|304:160|320:120|320:120|336:160|400:172,1,180,2|8,0:0|0:0,0:0:0:0:
392,72,132322,2,0,P|316:28|240:76,1,180
320,120,132761,1,8,0:0:0:0:
320,212,132907,6,0,P|248:260|172:220,1,180,2|0,0:0|0:0,0:0:0:0:
244,168,133346,1,8,0:0:0:0:
108,96,133492,1,0,0:0:0:0:
320,120,133639,1,0,0:0:0:0:
332,120,133712,1,0,0:0:0:0:
344,120,133785,1,0,0:0:0:0:
356,120,133858,1,0,0:0:0:0:
368,120,133931,2,0,L|436:200,1,90,8|0,0:0|0:0,0:0:0:0:
320,304,134224,1,4,0:0:0:0:
320,304,134517,1,8,0:0:0:0:
320,304,134809,5,0,0:0:0:0:
244,348,134956,1,0,0:0:0:0:
320,212,135102,1,8,0:0:0:0:
164,308,135249,2,0,P|120:228|160:156,1,180,2|0,0:0|0:0,0:0:0:0:
248,140,135688,1,8,0:0:0:0:
116,76,135834,1,0,0:0:0:0:
276,56,135980,2,0,L|360:92,1,90
444,60,136273,1,8,0:0:0:0:
474,205,136419,6,0,P|398:247|319:211,1,180,2|0,0:0|0:0,0:0:0:0:
248,140,136858,1,8,0:0:0:0:
280,296,137005,1,0,0:0:0:0:
114,228,137151,2,0,L|204:228,1,90
248,140,137444,1,8,0:0:0:0:
64,304,137590,6,0,P|20:228|64:152,1,180,2|0,0:0|0:0,0:0:0:0:
152,144,138029,1,8,0:0:0:0:
200,60,138175,1,0,0:0:0:0:
336,120,138322,2,0,L|248:140,1,90
328,232,138614,2,0,L|424:212,1,90,8|0,0:0|0:0,0:0:0:0:
456,56,138907,1,4,0:0:0:0:
456,56,139200,1,8,0:0:0:0:
456,56,139492,5,0,0:0:0:0:
368,36,139639,1,0,0:0:0:0:
452,140,139785,1,8,0:0:0:0:
328,232,139931,2,0,P|272:164|288:80,1,180,2|0,0:0|0:0,0:0:0:0:
368,36,140370,1,8,0:0:0:0:
188,80,140517,1,0,0:0:0:0:
168,88,140590,1,0,0:0:0:0:
148,96,140663,2,0,L|56:68,1,90
132,192,140956,1,8,0:0:0:0:
64,288,141102,1,0,0:0:0:0:
240,228,141249,1,4,0:0:0:0:
256,192,142566,12,4,143590,0:0:0:0:
256,84,143883,5,8,0:0:0:0:
204,156,144029,1,0,0:0:0:0:
256,228,144175,2,0,P|300:228|336:200,2,90,0|0|8,0:0|0:0|0:0,0:0:0:0:
344,112,144614,6,0,P|416:164|412:248,1,180,2|0,0:0|0:0,0:0:0:0:
324,288,145053,1,8,0:0:0:0:
336,200,145200,1,0,0:0:0:0:
256,228,145346,2,0,L|168:264,1,90
104,320,145639,1,8,0:0:0:0:
28,276,145785,1,0,0:0:0:0:
44,188,145931,6,0,L|108:124,1,90
196,120,146224,1,8,0:0:0:0:
256,56,146370,1,0,0:0:0:0:
344,44,146517,2,0,P|392:56|424:88,1,90
428,172,146809,1,8,0:0:0:0:
344,136,146956,6,0,B|312:196|376:256|344:316,1,180,2|0,0:0|0:0,0:0:0:0:
340,324,147322,1,0,0:0:0:0:
332,332,147395,1,8,0:0:0:0:
264,272,147541,1,0,0:0:0:0:
160,328,147688,1,0,0:0:0:0:
184,240,147834,1,0,0:0:0:0:
72,304,147980,1,8,0:0:0:0:
136,168,148127,1,0,0:0:0:0:
16,232,148273,6,0,B|20:176|24:140|24:140|56:112|104:84,1,180,4|8,0:0|0:0,0:0:0:0:
184,68,148712,1,0,0:0:0:0:
272,80,148858,2,0,B|296:72|316:76|316:76|332:56|360:52,2,90,0|0|8,0:0|0:0|0:0,0:0:0:0:
184,68,149297,2,0,P|224:156|308:160,1,180,2|0,0:0|0:0,0:0:0:0:
380,128,149736,1,8,0:0:0:0:
452,184,149883,1,0,0:0:0:0:
424,268,150029,2,0,L|352:328,1,90
292,260,150322,2,0,L|200:284,1,90,8|0,0:0|0:0,0:0:0:0:
64,196,150614,6,0,P|64:288|140:332,1,180,2|8,0:0|0:0,0:0:0:0:
204,282,151053,1,0,0:0:0:0:
160,152,151200,2,0,P|88:92|4:112,1,180,2|8,0:0|0:0,0:0:0:0:
64,196,151639,6,0,L|120:24,1,180,2|0,0:0|0:0,0:0:0:0:
128,28,152005,1,0,0:0:0:0:
136,32,152078,1,8,0:0:0:0:
216,72,152224,1,0,0:0:0:0:
300,44,152370,1,0,0:0:0:0:
256,152,152517,1,0,0:0:0:0:
344,32,152663,1,8,0:0:0:0:
276,192,152809,1,0,0:0:0:0:
388,140,152956,6,0,B|424:212|352:248|400:324,1,180,4|8,0:0|0:0,0:0:0:0:
472,268,153395,1,0,0:0:0:0:
325,357,153541,2,0,P|307:316|303:272,2,90,0|0|8,0:0|0:0|0:0,0:0:0:0:
276,192,153980,6,0,B|220:224|224:288|224:288|192:284|156:264,1,180,2|0,0:0|0:0,0:0:0:0:
80,232,154419,1,8,0:0:0:0:
52,148,154566,1,0,0:0:0:0:
120,88,154712,2,0,B|152:60|152:60|204:60,1,90
288,44,155005,1,8,0:0:0:0:
464,88,155151,6,0,L|388:256,1,180,2|0,0:0|0:0,0:0:0:0:
456,320,155590,1,8,0:0:0:0:
284,264,155736,2,0,L|364:96,1,180,2|0,0:0|0:0,0:0:0:0:
288,44,156175,1,8,0:0:0:0:
408,196,156322,6,0,P|312:192|260:128,1,180,2|0,0:0|0:0,0:0:0:0:
260,124,156688,1,0,0:0:0:0:
260,116,156761,1,8,0:0:0:0:
192,60,156907,1,0,0:0:0:0:
156,204,157053,1,0,0:0:0:0:
104,88,157200,1,0,0:0:0:0:
92,92,157273,1,0,0:0:0:0:
80,96,157346,1,8,0:0:0:0:
176,132,157492,1,0,0:0:0:0:
136,272,157639,6,0,B|216:320|216:320|308:320,1,180,4|8,0:0|0:0,0:0:0:0:
376,264,158078,1,0,0:0:0:0:
464,272,158224,2,0,L|488:180,1,90
472,96,158517,1,8,0:0:0:0:
396,52,158663,2,0,B|360:32|360:32|324:96|240:80,1,180,2|0,0:0|0:0,0:0:0:0:
156,44,159102,1,8,0:0:0:0:
88,100,159249,2,0,P|80:144|104:188,2,90
156,44,159688,1,8,0:0:0:0:
172,132,159834,1,0,0:0:0:0:
99,183,159980,6,0,B|64:216|64:216|72:288|152:304,1,180,4|8,0:0|0:0,0:0:0:0:
232,268,160419,1,0,0:0:0:0:
296,332,160566,2,0,L|388:288,1,90
468,300,160858,1,8,0:0:0:0:
432,216,161005,6,0,P|416:172|412:128,1,90,2|0,0:0|0:0,0:0:0:0:
452,48,161297,2,0,L|500:40,2,45,0|0|8,0:0|0:0|0:0,0:0:0:0:
360,40,161590,1,0,0:0:0:0:
352,48,161663,1,0,0:0:0:0:
344,56,161736,1,0,0:0:0:0:
332,64,161809,1,0,0:0:0:0:
320,68,161883,1,0,0:0:0:0:
308,72,161956,1,0,0:0:0:0:
296,72,162029,1,8,0:0:0:0:
284,72,162102,1,0,0:0:0:0:
272,68,162175,1,0,0:0:0:0:
260,64,162249,1,0,0:0:0:0:
248,56,162322,6,0,P|172:104|168:192,1,180,4|8,0:0|0:0,0:0:0:0:
256,184,162761,2,0,L|76:228,1,180,2|0,0:0|0:0,0:0:0:0:
44,308,163200,1,8,0:0:0:0:
120,356,163346,2,0,L|208:332,1,90
296,348,163639,1,0,0:0:0:0:
336,252,163785,1,8,0:0:0:0:
436,320,163931,1,0,0:0:0:0:
444,308,164005,1,0,0:0:0:0:
452,296,164078,1,0,0:0:0:0:
460,284,164151,1,0,0:0:0:0:
468,272,164224,1,0,0:0:0:0:
464,260,164297,1,0,0:0:0:0:
460,248,164370,1,8,0:0:0:0:
456,236,164444,1,0,0:0:0:0:
452,224,164517,1,0,0:0:0:0:
448,212,164590,1,0,0:0:0:0:
444,200,164663,6,0,B|368:144|368:144|392:60,1,180,4|8,0:0|0:0,0:0:0:0:
480,44,165102,2,0,L|296:56,1,180,2|0,0:0|0:0,0:0:0:0:
228,108,165541,1,8,0:0:0:0:
140,80,165688,2,0,P|100:104|72:144,1,90,2|0,0:0|0:0,0:0:0:0:
112,220,165980,1,0,0:0:0:0:
56,292,166127,1,8,0:0:0:0:
140,324,166273,1,0,0:0:0:0:
152,324,166346,1,0,0:0:0:0:
164,324,166419,1,0,0:0:0:0:
176,324,166492,1,0,0:0:0:0:
188,324,166566,1,0,0:0:0:0:
200,320,166639,1,0,0:0:0:0:
212,316,166712,1,8,0:0:0:0:
224,312,166785,1,0,0:0:0:0:
236,312,166858,1,0,0:0:0:0:
248,312,166931,1,0,0:0:0:0:
260,312,167005,6,0,B|336:312|328:216|408:216,1,180,4|8,0:0|0:0,0:0:0:0:
460,288,167444,2,0,L|396:116,1,180,2|0,0:0|0:0,0:0:0:0:
428,32,167883,1,8,0:0:0:0:
304,100,168029,2,0,L|212:100,1,90
136,52,168322,1,0,0:0:0:0:
80,120,168468,1,8,0:0:0:0:
152,172,168614,1,0,0:0:0:0:
100,244,168761,5,0,0:0:0:0:
180,204,168907,1,0,0:0:0:0:
264,232,169053,1,8,0:0:0:0:
304,312,169200,1,0,0:0:0:0:
384,268,169346,2,0,L|420:184,1,90,4|0,0:0|0:0,0:0:0:0:
420,180,169566,1,0,0:0:0:0:
420,176,169639,1,8,0:0:0:0:
476,104,169785,1,0,0:0:0:0:
128,116,170224,6,0,L|92:200,1,90,4|0,0:0|0:0,0:0:0:0:
92,204,170444,1,0,0:0:0:0:
92,208,170517,1,8,0:0:0:0:
36,280,170663,1,0,0:0:0:0:
256,124,171102,5,0,0:0:0:0:
256,124,171394,6,0,B|220:80|256:40|256:40|296:80|264:124,1,180,4|8,0:0|0:0,0:0:0:0:
256,208,171833,1,0,0:0:0:0:
188,268,171979,2,0,B|148:292|148:292|124:284|100:292,2,90,0|0|8,0:0|0:0|0:0,0:0:0:0:
316,268,172418,6,0,B|356:292|356:292|380:284|404:292,1,90
316,264,172711,2,0,B|360:280|360:280|392:264|432:272,1,107.999996704102,0|8,0:0|0:0,0:0:0:0:
316,260,173003,2,0,B|360:276|360:276|396:252|440:252,1,125.999996154785
508,304,173296,1,0,0:0:0:0:
464,228,173442,1,8,0:0:0:0:
484,140,173589,5,0,0:0:0:0:
484,140,173662,1,0,0:0:0:0:
484,140,173735,2,0,L|416:76,1,90,4|0,0:0|0:0,0:0:0:0:
340,36,174028,1,8,0:0:0:0:
280,104,174174,1,0,0:0:0:0:
208,52,174320,2,0,L|112:72,1,90
36,40,174613,1,8,0:0:0:0:
96,160,174759,1,0,0:0:0:0:
96,160,174906,6,0,L|192:188,1,90
182,185,175198,1,8,0:0:0:0:
182,185,175345,1,0,0:0:0:0:
248,248,175491,2,0,L|152:284,1,90
124,360,175784,1,8,0:0:0:0:
324,320,175930,6,0,P|364:240|316:160,1,180,4|0,0:0|0:0,0:0:0:0:
248,120,176369,1,8,0:0:0:0:
436,176,176515,1,0,0:0:0:0:
248,248,176662,1,0,0:0:0:0:
352,80,176808,1,0,0:0:0:0:
352,80,176881,1,0,0:0:0:0:
352,80,176954,1,8,0:0:0:0:
168,40,177101,6,0,P|132:112|168:200,1,180,4|0,0:0|0:0,0:0:0:0:
248,248,177540,1,8,0:0:0:0:
56,176,177686,1,0,0:0:0:0:
248,120,177833,1,0,0:0:0:0:
132,280,177979,1,0,0:0:0:0:
132,280,178052,1,0,0:0:0:0:
132,280,178125,1,8,0:0:0:0:
324,320,178272,6,0,B|368:268|344:208|344:208|404:224,1,180,4|0,0:0|0:0,0:0:0:0:
488,244,178711,1,8,0:0:0:0:
464,156,178857,2,0,L|376:128,1,90
320,60,179150,1,0,0:0:0:0:
248,120,179296,1,8,0:0:0:0:
72,48,179442,6,0,B|120:64|120:64|88:128|128:192,1,180,4|0,0:0|0:0,0:0:0:0:
208,228,179881,1,8,0:0:0:0:
172,312,180028,1,0,0:0:0:0:
256,348,180174,1,0,0:0:0:0:
340,312,180320,1,0,0:0:0:0:
352,304,180394,1,0,0:0:0:0:
364,296,180467,1,8,0:0:0:0:
376,288,180540,1,0,0:0:0:0:
388,280,180613,1,0,0:0:0:0:
400,272,180686,1,0,0:0:0:0:
412,264,180759,6,0,B|352:168|424:92,1,180,4|8,0:0|0:0,0:0:0:0:
504,64,181198,1,0,0:0:0:0:
352,44,181345,2,0,L|256:60,1,90
176,48,181637,1,8,0:0:0:0:
124,120,181784,6,0,B|96:156|96:156|48:180,1,90
124,124,182076,2,0,B|112:148|112:172|112:172|92:196|56:212,1,107.999996704102,0|8,0:0|0:0,0:0:0:0:
124,124,182369,2,0,B|112:152|120:184|120:184|108:212|76:236,1,125.999996154785
20,300,182662,1,0,0:0:0:0:
79,233,182808,1,8,0:0:0:0:
148,292,182954,1,0,0:0:0:0:
256,192,183101,6,0,L|288:276,1,90,4|0,0:0|0:0,0:0:0:0:
408,300,183394,2,0,L|372:216,1,90,8|0,0:0|0:0,0:0:0:0:
332,136,183686,1,0,0:0:0:0:
256,192,183833,1,0,0:0:0:0:
200,120,183979,1,8,0:0:0:0:
79,233,184125,6,0,B|60:204|80:164|56:144|56:144|80:124|64:76|84:56,1,180,2|0,0:0|0:0,0:0:0:0:
78,63,184564,1,8,0:0:0:0:
78,63,184711,1,0,0:0:0:0:
164,44,184857,2,0,P|212:36|252:52,1,90
200,120,185150,1,8,0:0:0:0:
380,56,185296,6,0,P|424:136|384:216,1,180,4|0,0:0|0:0,0:0:0:0:
332,136,185735,1,8,0:0:0:0:
304,272,185881,1,0,0:0:0:0:
200,120,186028,1,0,0:0:0:0:
80,224,186174,1,0,0:0:0:0:
80,224,186247,1,0,0:0:0:0:
80,224,186320,1,8,0:0:0:0:
77,225,186467,6,0,P|43:144|79:64,1,180,4|0,0:0|0:0,0:0:0:0:
164,44,186906,1,8,0:0:0:0:
236,192,187052,1,0,0:0:0:0:
380,56,187198,1,0,0:0:0:0:
480,192,187345,1,0,0:0:0:0:
480,192,187418,1,0,0:0:0:0:
480,192,187491,1,8,0:0:0:0:
480,192,187637,6,0,B|492:232|444:252|448:296|448:296|380:308,1,180,4|0,0:0|0:0,0:0:0:0:
292,288,188076,1,8,0:0:0:0:
216,336,188223,2,0,L|132:304,1,90
144,216,188515,1,0,0:0:0:0:
72,160,188662,1,8,0:0:0:0:
208,38,188808,6,0,P|259:108|235:192,1,180,4|0,0:0|0:0,0:0:0:0:
144,216,189247,1,8,0:0:0:0:
160,128,189393,1,0,0:0:0:0:
235,192,189540,1,0,0:0:0:0:
304,252,189686,1,0,0:0:0:0:
316,248,189759,1,0,0:0:0:0:
328,244,189833,1,8,0:0:0:0:
340,240,189906,1,0,0:0:0:0:
352,236,189979,1,0,0:0:0:0:
364,232,190052,1,0,0:0:0:0:
376,228,190125,6,0,P|368:316|288:340,1,180,4|8,0:0|0:0,0:0:0:0:
116,301,190564,2,0,L|144:216,1,90
259,105,190857,2,0,L|235:192,1,90,0|8,0:0|0:0,0:0:0:0:
68,160,191150,6,0,P|76:68|156:36,1,180,4|0,0:0|0:0,0:0:0:0:
228,76,191589,1,8,0:0:0:0:
316,84,191735,1,0,0:0:0:0:
388,28,191881,1,0,0:0:0:0:
356,112,192028,5,0,0:0:0:0:
324,196,192174,1,8,0:0:0:0:
444,132,192320,1,0,0:0:0:0:
448,264,192467,2,0,P|376:332|296:336,1,180,4|8,0:0|0:0,0:0:0:0:
208,336,192906,2,0,L|248:252,1,90
188,188,193198,2,0,L|148:272,1,90,0|8,0:0|0:0,0:0:0:0:
300,336,193491,6,0,B|337:243|337:243|329:191|285:167,1,180,4|0,0:0|0:0,0:0:0:0:
256,96,193930,2,0,L|224:56,3,45,8|0|0|0,0:0|0:0|0:0|0:0,0:0:0:0:
256,24,194223,1,0,0:0:0:0:
180,72,194369,1,0,0:0:0:0:
96,36,194515,1,8,0:0:0:0:
48,116,194662,1,0,0:0:0:0:
132,238,194808,6,0,L|132:148,1,90,2|0,0:0|0:0,0:0:0:0:
132,148,195028,1,0,0:0:0:0:
132,148,195101,1,8,0:0:0:0:
256,96,195247,2,0,L|304:72,2,45
248,228,195540,2,0,L|324:288,1,90,0|8,0:0|0:0,0:0:0:0:
388,340,195833,1,0,0:0:0:0:
388,340,196418,5,0,0:0:0:0:
388,340,196491,1,0,0:0:0:0:
388,340,196564,1,0,0:0:0:0:
424,256,196711,2,0,B|440:212|440:212|420:164,2,90,0|8|0,0:0|0:0|0:0,0:0:0:0:
344,216,197150,1,4,0:0:0:0:
256,56,214857,5,0,0:0:0:0:
248,56,214930,1,0,0:0:0:0:
240,60,215003,1,8,0:0:0:0:
228,68,215076,1,0,0:0:0:0:
216,84,215150,1,0,0:0:0:0:
208,100,215223,1,0,0:0:0:0:
204,124,215296,1,0,0:0:0:0:
208,144,215369,1,0,0:0:0:0:
224,172,215442,1,0,0:0:0:0:
252,188,215515,1,0,0:0:0:0:
280,204,215589,1,8,0:0:0:0:
312,232,215662,1,0,0:0:0:0:
328,268,215735,1,0,0:0:0:0:
316,312,215808,1,0,0:0:0:0:
280,340,215881,6,0,B|224:352|192:304|192:304|152:292|116:320,1,180,4|8,0:0|0:0,0:0:0:0:
32,340,216320,1,0,0:0:0:0:
56,252,216467,2,0,L|112:176,1,90
80,96,216759,1,8,0:0:0:0:
156,48,216906,6,0,P|200:40|256:48,1,90
376,124,217198,2,0,P|332:116|276:124,1,90,0|8,0:0|0:0,0:0:0:0:
180,212,217491,2,0,P|224:204|280:212,1,90
356,236,217784,1,0,0:0:0:0:
416,300,217930,1,8,0:0:0:0:
444,216,218076,1,0,0:0:0:0:
328,320,218223,6,0,P|244:344|156:320,1,180,4|8,0:0|0:0,0:0:0:0:
180,212,218662,1,0,0:0:0:0:
70,74,218808,2,0,P|47:161|68:248,1,180,0|8,0:0|0:0,0:0:0:0:
180,212,219247,5,0,0:0:0:0:
212,128,219393,1,0,0:0:0:0:
304,128,219540,1,0,0:0:0:0:
328,216,219686,1,8,0:0:0:0:
256,272,219833,2,0,L|256:84,1,180
256,92,220272,1,8,0:0:0:0:
256,92,220418,1,0,0:0:0:0:
180,136,220564,6,0,P|256:176|336:132,1,180,4|8,0:0|0:0,0:0:0:0:
328,44,221003,1,0,0:0:0:0:
408,84,221150,1,0,0:0:0:0:
416,172,221296,1,0,0:0:0:0:
344,224,221442,1,8,0:0:0:0:
304,304,221589,6,0,P|256:312|212:304,1,90
104,220,221881,2,0,P|152:228|196:220,1,90,0|8,0:0|0:0,0:0:0:0:
304,136,222174,2,0,P|256:144|212:136,1,90
136,96,222467,1,0,0:0:0:0:
60,48,222613,1,8,0:0:0:0:
56,136,222759,1,0,0:0:0:0:
216,48,222906,6,0,P|304:32|400:48,1,180,4|8,0:0|0:0,0:0:0:0:
420,132,223345,1,0,0:0:0:0:
504,164,223491,2,0,L|464:256,1,90
420,324,223784,1,8,0:0:0:0:
256,288,223930,6,0,B|232:240|232:240|256:192|288:240|288:240|264:288,1,180,2|0,0:0|0:0,0:0:0:0:
196,340,224369,1,8,0:0:0:0:
120,296,224515,2,0,L|96:336,2,45
148,212,224808,1,0,0:0:0:0:
40,260,224954,1,8,0:0:0:0:
168,124,225101,5,0,0:0:0:0:
168,124,225174,1,0,0:0:0:0:
168,124,225247,2,0,P|256:100|348:128,1,180,4|8,0:0|0:0,0:0:0:0:
404,188,225686,1,0,0:0:0:0:
420,100,225833,2,0,L|352:164,1,90
292,224,226125,1,8,0:0:0:0:
256,308,226272,6,0,L|256:216,1,90
256,308,226564,2,0,B|232:256|232:256|196:220,1,107.999996704102,0|8,0:0|0:0,0:0:0:0:
256,308,226857,2,0,B|212:256|212:256|156:240,1,125.999996154785
68,228,227150,1,0,0:0:0:0:
116,152,227296,1,8,0:0:0:0:
44,96,227442,1,0,0:0:0:0:
116,152,227589,6,0,P|204:136|232:56,1,180,4|8,0:0|0:0,0:0:0:0:
144,64,228028,1,0,0:0:0:0:
116,152,228174,2,0,L|116:252,1,90
116,332,228467,1,8,0:0:0:0:
116,242,228613,5,0,0:0:0:0:
196,284,228759,1,0,0:0:0:0:
116,152,228906,1,0,0:0:0:0:
268,232,229052,1,8,0:0:0:0:
272,60,229198,2,0,L|220:136,1,90
196,284,229491,2,0,L|96:284,2,90,0|8|0,0:0|0:0|0:0,0:0:0:0:
340,232,229930,6,0,L|412:300,1,90,4|0,0:0|0:0,0:0:0:0:
436,208,230223,2,0,L|368:144,1,90,8|0,0:0|0:0,0:0:0:0:
216,96,230515,2,0,L|280:160,1,90
440,208,230808,2,0,P|420:160|396:128,1,90,8|0,0:0|0:0,0:0:0:0:
212,96,231101,2,0,P|232:144|256:176,1,90
444,208,231393,2,0,P|452:160|432:120,1,90,8|0,0:0|0:0,0:0:0:0:
208,96,231686,2,0,P|200:143|220:184,1,90
448,208,231979,2,0,P|484:176|468:132,1,90,8|0,0:0|0:0,0:0:0:0:
203,96,232272,5,4,0:0:0:0:
96,164,232418,1,0,0:0:0:0:
96,164,232491,1,0,0:0:0:0:
96,164,232564,1,8,0:0:0:0:
324,192,232711,1,0,0:0:0:0:
324,192,232784,1,0,0:0:0:0:
324,192,232857,1,0,0:0:0:0:
256,312,233003,5,0,0:0:0:0:
344,212,233150,1,8,0:0:0:0:
316,80,233296,2,0,L|200:220,1,180,2|0,0:0|0:0,0:0:0:0:
184,224,233881,5,0,0:0:0:0:
176,224,234028,2,0,L|144:272,4,45,0|0|0|0|8,0:0|0:0|0:0|0:0|0:0,0:0:0:0:
132,144,234467,1,0,0:0:0:0:
236,320,234613,6,0,P|148:352|68:320,1,180,4|8,0:0|0:0,0:0:0:0:
151,261,235052,1,0,0:0:0:0:
76,216,235198,2,0,P|48:180|44:132,2,90,0|0|8,0:0|0:0|0:0,0:0:0:0:
216,204,235637,6,0,P|243:169|248:124,1,90
220,204,235930,2,0,P|272:184|300:128,1,107.999996704102,0|8,0:0|0:0,0:0:0:0:
224,204,236223,2,0,P|284:204|332:156,1,125.999996154785
348,72,236515,1,0,0:0:0:0:
412,132,236662,1,8,0:0:0:0:
492,92,236808,1,0,0:0:0:0:
404,220,236954,6,0,P|340:280|244:300,1,180,4|8,0:0|0:0,0:0:0:0:
168,268,237393,1,0,0:0:0:0:
88,312,237540,2,0,L|36:232,1,90
88,312,237833,1,8,0:0:0:0:
150,179,237979,6,0,L|168:268,1,90
150,179,238272,1,0,0:0:0:0:
84,120,238418,1,8,0:0:0:0:
124,40,238564,1,0,0:0:0:0:
212,64,238711,2,0,L|304:64,1,90
388,40,239003,1,8,0:0:0:0:
379,212,239150,6,0,B|328:192|324:148|324:148|336:104|302:64,1,180,4|0,0:0|0:0,0:0:0:0:
212,64,239589,1,8,0:0:0:0:
256,224,239735,1,0,0:0:0:0:
84,120,239881,1,0,0:0:0:0:
156,308,240028,1,0,0:0:0:0:
156,308,240101,1,0,0:0:0:0:
156,308,240174,1,8,0:0:0:0:
156,308,240320,6,0,P|228:352|328:340,1,180,4|0,0:0|0:0,0:0:0:0:
396,292,240759,1,8,0:0:0:0:
256,224,240906,1,0,0:0:0:0:
448,156,241052,1,0,0:0:0:0:
296,44,241198,1,0,0:0:0:0:
296,44,241272,1,0,0:0:0:0:
296,44,241345,1,8,0:0:0:0:
296,44,241491,6,0,B|296:88|264:112|264:112|208:108|172:152,1,180,4|0,0:0|0:0,0:0:0:0:
256,224,241930,1,8,0:0:0:0:
256,224,242076,2,0,L|332:280,1,90
420,288,242369,1,0,0:0:0:0:
388,204,242515,1,8,0:0:0:0:
288,352,242662,6,0,B|216:296|216:296|176:284|124:296,1,180,4|0,0:0|0:0,0:0:0:0:
40,320,243101,1,8,0:0:0:0:
64,232,243247,2,0,P|72:184|64:140,1,90
48,56,243540,1,0,0:0:0:0:
60,64,243613,1,0,0:0:0:0:
72,72,243686,1,8,0:0:0:0:
84,80,243759,1,0,0:0:0:0:
96,84,243833,1,0,0:0:0:0:
108,92,243906,1,0,0:0:0:0:
120,100,243979,6,0,B|148:72|184:68|184:68|212:116|276:116,1,180,4|8,0:0|0:0,0:0:0:0:
268,24,244418,1,0,0:0:0:0:
348,60,244564,2,0,P|384:80|416:136,2,90,0|0|8,0:0|0:0|0:0,0:0:0:0:
192,188,245003,6,0,P|217:225|256:248,1,90
192,192,245296,2,0,P|208:236|264:280,1,107.999996704102,0|8,0:0|0:0,0:0:0:0:
192,192,245589,2,0,P|196:256|232:304,1,125.999996154785
316,276,245881,1,0,0:0:0:0:
384,336,246028,1,8,0:0:0:0:
448,272,246174,1,0,0:0:0:0:
380,122,246320,6,0,L|380:212,1,90,4|0,0:0|0:0,0:0:0:0:
316,276,246613,2,0,L|292:188,1,90,8|0,0:0|0:0,0:0:0:0:
292,100,246906,1,0,0:0:0:0:
380,124,247052,1,0,0:0:0:0:
356,36,247198,1,8,0:0:0:0:
200,96,247345,6,0,B|171:94|171:94|158:156|85:171|85:171|79:209,1,180,4|0,0:0|0:0,0:0:0:0:
132,276,247784,1,8,0:0:0:0:
80,352,247930,2,0,P|176:360|220:292,1,180
132,276,248369,1,8,0:0:0:0:
196,212,248515,6,0,B|204:172|244:164|256:148|256:148|268:164|312:172|312:216,1,180,4|0,0:0|0:0,0:0:0:0:
256,284,248954,1,8,0:0:0:0:
392,248,249101,1,0,0:0:0:0:
308,348,249247,1,0,0:0:0:0:
312,212,249393,1,0,0:0:0:0:
312,212,249467,1,0,0:0:0:0:
312,212,249540,1,8,0:0:0:0:
312,212,249686,6,0,B|304:172|264:164|252:148|252:148|240:164|196:172|196:216,1,180,4|0,0:0|0:0,0:0:0:0:
256,284,250125,1,8,0:0:0:0:
116,248,250272,1,0,0:0:0:0:
204,348,250418,1,0,0:0:0:0:
196,212,250564,1,0,0:0:0:0:
196,212,250638,1,0,0:0:0:0:
196,212,250711,1,8,0:0:0:0:
256,56,250857,6,0,B|224:116|300:176|256:232,1,180,4|0,0:0|0:0,0:0:0:0:
260,320,251296,1,8,0:0:0:0:
340,280,251442,2,0,L|420:224,1,90
376,148,251735,1,0,0:0:0:0:
416,68,251881,1,8,0:0:0:0:
284,144,252028,6,0,P|192:124|168:40,1,180,4|0,0:0|0:0,0:0:0:0:
256,56,252467,1,8,0:0:0:0:
284,144,252613,1,0,0:0:0:0:
240,224,252759,1,0,0:0:0:0:
288,300,252906,1,0,0:0:0:0:
280,304,252979,1,0,0:0:0:0:
272,308,253052,1,8,0:0:0:0:
264,312,253125,1,0,0:0:0:0:
256,316,253198,1,0,0:0:0:0:
248,320,253272,1,0,0:0:0:0:
240,324,253345,6,0,P|160:288|148:196,1,180,4|8,0:0|0:0,0:0:0:0:
284,144,253784,2,0,L|348:216,1,90
240,224,254076,2,0,L|172:148,1,90,0|8,0:0|0:0,0:0:0:0:
284,48,254369,2,0,P|364:84|376:176,1,180,4|0,0:0|0:0,0:0:0:0:
284,144,254808,1,8,0:0:0:0:
378,168,254954,1,0,0:0:0:0:
460,112,255101,1,0,0:0:0:0:
404,184,255247,5,0,0:0:0:0:
464,252,255393,1,8,0:0:0:0:
412,328,255540,1,0,0:0:0:0:
320,184,255686,2,0,P|272:256|328:328,1,180,4|8,0:0|0:0,0:0:0:0:
464,252,256125,2,0,L|368:252,1,90
320,184,256418,2,0,P|364:168|408:172,1,90,0|8,0:0|0:0,0:0:0:0:
412,328,256711,6,0,P|320:348|232:328,1,180,4|0,0:0|0:0,0:0:0:0:
152,304,257150,2,0,L|104:328,3,45,8|0|0|0,0:0|0:0|0:0|0:0,0:0:0:0:
68,328,257442,1,0,0:0:0:0:
100,244,257589,5,0,0:0:0:0:
40,176,257735,1,8,0:0:0:0:
72,92,257881,1,0,0:0:0:0:
160,112,258028,2,0,L|256:72,1,90,4|0,0:0|0:0,0:0:0:0:
243,77,258247,1,0,0:0:0:0:
243,77,258320,1,8,0:0:0:0:
372,108,258467,2,0,L|416:88,2,45
280,200,258759,2,0,L|240:220,2,45,0|0|8,0:0|0:0|0:0,0:0:0:0:
408,240,259052,1,0,0:0:0:0:
408,240,260369,5,4,0:0:0:0:
