osu file format v14

[General]
AudioFilename: audio.mp3
AudioLeadIn: 0
PreviewTime: 19329
Countdown: 0
SampleSet: Soft
StackLeniency: 0.7
Mode: 0
LetterboxInBreaks: 0
WidescreenStoryboard: 1

[Editor]
DistanceSpacing: 1
BeatDivisor: 4
GridSize: 32
TimelineZoom: 1

[Metadata]
Title:Marry no Kakuu Sekai
TitleUnicode:マリーの架空世界
Artist:JIN
ArtistUnicode:じん
Creator:Trynna
Version:Normal
Source:カゲロウプロジェクト
Tags:Mary's Fictional World vocaloid Mekakucity City Actors Kagerou Days Daze Project IA Mary Marie Marry's Marie's
BeatmapID:2035011
BeatmapSetID:971970

[Difficulty]
HPDrainRate:3.5
CircleSize:4
OverallDifficulty:4
ApproachRate:5
SliderMultiplier:1.4
SliderTickRate:1

[Events]
//Background and Video events
0,0,"mmmary.jpg",0,0
//Break Periods
//Storyboard Layer 0 (Background)
//Storyboard Layer 1 (Fail)
//Storyboard Layer 2 (Pass)
//Storyboard Layer 3 (Foreground)
//Storyboard Layer 4 (Overlay)
//Storyboard Sound Samples

[TimingPoints]
19529,800,4,2,1,40,1,0
20929,-100,4,2,1,5,0,0
21129,-100,4,2,1,40,0,0
21929,-100,4,2,2,40,0,0
22529,-100,4,2,1,5,0,0
22729,-100,4,2,1,40,0,0
24329,-100,4,2,2,40,0,0
24929,-100,4,2,1,5,0,0
25129,-100,4,2,1,40,0,0
27529,-100,4,2,2,40,0,0
33129,-100,4,2,1,40,0,0
34729,-100,4,2,2,40,0,0
36329,-100,4,2,1,40,0,0
37929,-100,4,2,2,40,0,0
39529,-100,4,2,1,40,0,0
40129,-100,4,2,1,5,0,0
40329,-100,4,2,2,40,0,0
41929,-100,4,2,1,40,0,0
43529,-100,4,2,2,40,0,0
45129,-100,4,2,1,40,0,0
49929,-100,4,2,2,40,0,0
51529,-100,4,2,1,40,0,0
53129,-100,4,2,2,40,0,0
53529,-100,4,2,1,40,0,0
62729,-100,4,2,2,40,0,0
64329,-100,4,2,1,40,0,0
65929,-100,4,2,2,40,0,0
66329,-100,4,2,1,40,0,0
81929,-100,4,2,2,40,0,0
82329,-100,4,2,1,40,0,0
84129,-100,4,2,1,5,0,0
84329,-100,4,2,1,40,0,0
89929,-100,4,2,2,40,0,0
90329,-100,4,2,1,40,0,0
91529,-100,4,2,2,40,0,0
91929,-100,4,2,1,40,0,0
93129,-100,4,2,2,40,0,0
93529,-100,4,2,1,40,0,0
94729,-100,4,2,2,40,0,0
95129,-100,4,2,1,40,0,0
96329,-100,4,2,2,40,0,0
96729,-100,4,2,1,40,0,0
97929,800,4,2,1,60,1,0
97929,-100,4,2,1,60,0,0
98529,-100,4,2,1,5,0,0
98729,-100,4,2,1,60,0,0
103329,-100,4,2,1,5,0,0
103529,-100,4,2,2,60,0,0
103729,-100,4,2,1,60,0,0
103929,-100,4,2,2,60,0,0
104129,-100,4,2,1,60,0,0
104929,-100,4,2,1,5,0,0
105129,-100,4,2,1,60,0,0
109729,-100,4,2,1,5,0,0
109929,-100,4,2,2,60,0,0
110129,-100,4,2,1,60,0,0
110329,-100,4,2,2,60,0,0
110529,-100,4,2,1,60,0,0
111329,-100,4,2,1,5,0,0
111529,-100,4,2,1,60,0,0
116129,-100,4,2,1,5,0,0
116329,-100,4,2,2,60,0,0
116729,-100,4,2,2,60,0,0
116929,-100,4,2,1,60,0,0
122529,-100,4,2,1,5,0,0
122729,-100,4,2,1,60,0,0
128329,800,4,2,1,60,1,0
128329,-100,4,2,1,60,0,0
128929,-100,4,2,1,5,0,0
129129,-100,4,2,1,40,0,0
135329,-100,4,2,1,5,0,0
135529,-100,4,2,1,40,0,0
136129,-100,4,2,1,5,0,0
136329,-100,4,2,1,40,0,0
140929,-100,4,2,1,5,0,0
141129,-100,4,2,1,40,0,0
141729,-100,4,2,1,5,0,0
141929,-100,4,2,1,40,0,0
143329,-100,4,2,1,5,0,0
143529,-100,4,2,1,40,0,0
148129,-100,4,2,1,5,0,0
148329,-100,4,2,1,40,0,0
151329,-100,4,2,1,5,0,0
151529,-100,4,2,1,40,0,0
152929,-100,4,2,1,5,0,0
153129,-100,4,2,1,40,0,0
154529,-100,4,2,1,5,0,0
154729,-100,4,2,1,40,0,0
156129,-100,4,2,1,5,0,0
156329,-100,4,2,1,40,0,0
159329,-100,4,2,1,5,0,0
159529,-100,4,2,1,40,0,0
160129,-100,4,2,1,5,0,0
160329,-100,4,2,1,40,0,0
162529,-100,4,2,1,5,0,0
162729,-100,4,2,1,40,0,0
164129,-100,4,2,1,5,0,0
164329,-100,4,2,1,40,0,0
165729,-100,4,2,1,5,0,0
165929,-100,4,2,1,40,0,0
167329,-100,4,2,1,5,0,0
167529,-100,4,2,1,40,0,0

[Colours]
Combo1 : 160,227,250
Combo2 : 150,200,250
Combo3 : 208,171,250
Combo4 : 247,159,199

[HitObjects]
59,127,19529,6,0,P|90:109|123:98,1,70,0|0,0:0|0:0,0:0:0:0:
163,24,20329,1,2,0:0:0:0:
231,177,21129,2,0,P|261:194|294:205,1,70
379,192,21929,2,0,P|417:158|469:151,1,105,2|0,0:0|0:0,0:0:0:0:
509,164,22729,5,0,0:0:0:0:
462,233,23129,1,0,0:0:0:0:
511,301,23529,1,2,0:0:0:0:
343,283,24329,2,0,P|300:300|273:337,1,70,2|0,0:0|0:0,0:0:0:0:
215,365,25129,2,0,P|172:348|145:311,1,70,2|2,0:0|0:0,0:0:0:0:
106,263,25929,6,0,L|108:193,1,70,0|0,0:0|0:0,0:0:0:0:
90,154,26529,1,0,0:0:0:0:
90,154,26729,1,2,0:0:0:0:
197,25,27529,2,0,B|276:18|258:55|332:50,1,140,2|0,0:0|0:0,0:0:0:0:
388,113,28729,1,0,0:0:0:0:
331,175,29129,6,0,L|244:163,1,70,2|2,0:0|0:0,0:0:0:0:
248,248,29929,2,0,L|317:257,1,70,0|2,0:0|0:0,0:0:0:0:
395,223,30729,2,0,P|429:225|458:244,1,70,2|0,0:0|0:0,0:0:0:0:
496,264,31329,1,0,0:0:0:0:
496,264,31529,1,2,0:0:0:0:
460,339,31929,1,2,0:0:0:0:
377,354,32329,6,0,L|296:362,1,70,0|0,0:0|0:0,0:0:0:0:
242,308,33129,1,2,0:0:0:0:
173,154,33929,2,0,L|92:146,1,70,0|0,0:0|0:0,0:0:0:0:
69,171,34529,1,0,0:0:0:0:
69,171,34729,1,2,0:0:0:0:
46,90,35129,1,2,0:0:0:0:
87,16,35529,6,0,L|168:7,1,70,0|0,0:0|0:0,0:0:0:0:
217,66,36329,2,0,L|360:78,1,140,2|0,0:0|0:0,0:0:0:0:
432,42,37529,1,0,0:0:0:0:
466,118,37929,1,2,0:0:0:0:
421,189,38329,1,2,0:0:0:0:
338,206,38729,6,0,L|259:196,1,70,0|0,0:0|0:0,0:0:0:0:
223,268,39529,2,0,P|189:228|182:176,1,105,2|0,0:0|0:0,0:0:0:0:
157,143,40329,1,2,0:0:0:0:
109,73,40729,2,0,P|76:61|42:54,2,70,2|0|0,0:0|0:0|0:0,0:0:0:0:
54,137,41929,6,0,P|41:209|39:239,1,70,2|0,0:0|0:0,0:0:0:0:
92,272,42729,2,0,P|105:344|107:374,1,70,2|0,0:0|0:0,0:0:0:0:
183,370,43529,2,0,P|227:342|328:354,1,140,2|0,0:0|0:0,0:0:0:0:
386,194,45129,5,4,0:0:0:0:
318,144,45529,2,0,L|277:152,1,35,2|0,0:0|0:0,0:0:0:0:
254,180,45929,2,0,L|159:167,1,70,2|2,0:0|0:0,0:0:0:0:
109,207,46729,1,2,0:0:0:0:
77,129,47129,1,2,0:0:0:0:
131,64,47529,1,8,0:0:0:0:
296,90,48329,6,0,L|386:72,2,70,2|2|2,0:0|0:0|0:0,0:0:0:0:
247,158,49529,2,0,L|251:193,1,35,2|2,0:0|0:0,0:0:0:0:
273,228,49929,2,0,P|228:253|210:347,1,140,2|2,0:0|0:0,0:0:0:0:
288,312,51129,1,2,0:0:0:0:
370,330,51529,6,0,B|420:330|420:330|461:348|461:348|509:346,1,140,4|2,0:0|0:0,0:0:0:0:
481,266,52729,1,2,0:0:0:0:
499,183,53129,2,0,P|506:146|495:102,1,70,2|2,0:0|0:0,0:0:0:0:
478,78,53729,1,2,0:0:0:0:
478,78,53929,1,2,0:0:0:0:
423,141,54329,1,2,0:0:0:0:
345,108,54729,6,0,L|261:110,1,70,10|2,0:0|0:0,0:0:0:0:
208,58,55529,2,0,L|124:60,1,70,10|2,0:0|0:0,0:0:0:0:
58,32,56329,2,0,B|48:111|87:95|77:168,1,140,10|0,0:0|0:0,0:0:0:0:
161,313,57929,5,4,0:0:0:0:
109,379,58329,1,2,0:0:0:0:
29,350,58729,2,0,P|19:309|27:267,1,70,2|2,0:0|0:0,0:0:0:0:
52,202,59529,2,0,L|127:187,1,70,2|2,0:0|0:0,0:0:0:0:
147,156,60129,1,0,0:0:0:0:
147,156,60329,1,8,0:0:0:0:
222,193,60729,1,2,0:0:0:0:
294,149,61129,6,0,L|303:76,1,70,2|2,0:0|0:0,0:0:0:0:
378,43,61929,2,0,L|433:85,1,70,2|2,0:0|0:0,0:0:0:0:
475,89,62529,1,2,0:0:0:0:
475,89,62729,2,0,P|479:124|469:158,1,70,2|0,0:0|0:0,0:0:0:0:
425,229,63529,1,2,0:0:0:0:
469,299,63929,1,2,0:0:0:0:
405,354,64329,6,0,B|326:359|341:316|271:325,1,140,2|2,0:0|0:0,0:0:0:0:
201,278,65529,1,2,0:0:0:0:
129,321,65929,2,0,P|118:283|120:248,1,70,2|2,0:0|0:0,0:0:0:0:
101,214,66529,1,2,0:0:0:0:
101,214,66729,1,2,0:0:0:0:
145,142,67129,1,2,0:0:0:0:
110,65,67529,6,0,P|68:76|17:85,1,70,10|2,0:0|0:0,0:0:0:0:
7,157,68329,2,0,L|11:231,1,70,10|2,0:0|0:0,0:0:0:0:
3,310,69129,2,0,P|56:315|108:392,1,140,10|0,0:0|0:0,0:0:0:0:
256,304,70729,6,0,P|269:235|255:164,1,140,4|0,0:0|0:0,0:0:0:0:
204,101,71929,2,0,P|200:84|204:66,1,35,2|2,0:0|0:0,0:0:0:0:
222,28,72329,1,8,0:0:0:0:
465,93,73529,2,0,L|421:109,1,35,2|2,0:0|0:0,0:0:0:0:
410,141,73929,6,0,P|464:195|479:274,1,140,4|0,0:0|0:0,0:0:0:0:
435,326,75129,2,0,L|395:318,1,35,2|2,0:0|0:0,0:0:0:0:
359,327,75529,1,8,0:0:0:0:
107,347,76729,2,0,L|104:312,1,35,2|2,0:0|0:0,0:0:0:0:
82,275,77129,6,0,B|77:240|77:240|80:205,1,70,2|2,0:0|0:0,0:0:0:0:
139,146,77929,2,0,B|144:111|144:111|140:76,1,70,2|2,0:0|0:0,0:0:0:0:
75,23,78729,2,0,L|6:35,2,70,10|2|10,0:0|0:0|0:0,0:0:0:0:
226,94,80329,6,0,P|292:85|351:22,2,140,4|0|2,0:0|0:0|0:0,0:0:0:0:
180,165,82329,1,2,0:0:0:0:
222,237,82729,1,2,0:0:0:0:
184,311,83129,1,2,0:0:0:0:
251,360,83529,6,0,P|336:349|381:291,1,140,4|0,0:0|0:0,0:0:0:0:
438,261,84729,2,0,P|430:222|426:206,1,35,2|2,0:0|0:0,0:0:0:0:
445,186,85129,1,2,0:0:0:0:
251,24,86329,2,0,L|258:65,1,35,2|2,0:0|0:0,0:0:0:0:
281,92,86729,6,0,P|246:97|215:113,1,70,2|2,0:0|0:0,0:0:0:0:
147,162,87529,2,0,P|112:156|81:140,2,70,2|2|2,0:0|0:0|0:0,0:0:0:0:
255,290,89129,2,0,L|257:360,1,70,2|2,0:0|0:0,0:0:0:0:
218,377,89729,1,2,0:0:0:0:
218,377,89929,6,0,P|186:362|163:336,1,70,2|2,0:0|0:0,0:0:0:0:
85,306,90729,2,0,P|82:271|93:238,1,70,2|2,0:0|0:0,0:0:0:0:
79,155,91529,2,0,P|107:135|141:128,2,70,2|2|2,0:0|0:0|0:0,0:0:0:0:
4,115,92729,1,2,0:0:0:0:
68,61,93129,6,0,P|100:46|136:38,1,70,2|2,0:0|0:0,0:0:0:0:
201,88,93929,2,0,P|233:103|269:111,1,70,2|2,0:0|0:0,0:0:0:0:
326,169,94729,2,0,P|373:168|409:86,2,140,2|0|2,0:0|0:0|0:0,0:0:0:0:
167,226,97129,6,0,L|167:156,1,70,2|2,0:0|0:0,0:0:0:0:
202,79,97929,6,0,P|150:71|103:95,1,105,4|0,0:3|0:0,0:0:0:0:
74,124,98729,1,2,0:0:0:0:
53,207,99129,1,2,0:0:0:0:
95,279,99529,2,0,L|172:269,1,70,10|2,0:0|0:0,0:0:0:0:
218,206,100329,2,0,L|297:218,1,70,2|2,0:0|0:0,0:0:0:0:
346,276,101129,5,10,0:0:0:0:
408,219,101529,1,2,0:0:0:0:
349,158,101929,2,0,P|342:123|344:88,1,70,2|2,0:0|0:0,0:0:0:0:
318,55,102529,1,0,0:0:0:0:
318,55,102729,2,0,P|268:42|217:52,1,105,10|0,0:0|0:0,0:0:0:0:
175,45,103529,1,2,0:0:0:0:
182,128,103929,1,2,0:0:0:0:
150,206,104329,6,0,B|165:256|165:256|153:308,1,105,4|0,0:3|0:0,0:0:0:0:
139,347,105129,1,2,0:0:0:0:
65,306,105529,1,2,0:0:0:0:
0,253,105929,2,0,L|19:172,1,70,10|2,0:0|0:0,0:0:0:0:
8,143,106529,1,2,0:0:0:0:
8,143,106729,2,0,L|27:62,1,70,2|2,0:0|0:0,0:0:0:0:
96,36,107529,6,0,P|131:42|159:62,1,70,10|2,0:0|0:0,0:0:0:0:
232,106,108329,2,0,P|266:99|294:79,1,70,2|2,0:0|0:0,0:0:0:0:
361,129,109129,2,0,P|357:181|357:233,1,105,10|0,0:0|0:0,0:0:0:0:
377,270,109929,1,2,0:0:0:0:
455,241,110329,1,2,0:0:0:0:
492,166,110729,6,0,P|493:118|423:37,1,140,4|2,0:3|0:0,0:0:0:0:
358,58,111929,1,2,0:0:0:0:
278,30,112329,2,0,P|241:35|199:38,1,70,10|2,0:0|0:0,0:0:0:0:
171,113,113129,2,0,P|175:163|175:194,1,70,2|2,0:0|0:0,0:0:0:0:
244,231,113929,5,10,0:0:0:0:
190,296,114329,1,2,0:0:0:0:
119,250,114729,2,0,P|78:245|47:253,1,70,2|2,0:0|0:0,0:0:0:0:
6,179,115529,2,0,L|-3:92,1,70,10|0,0:0|0:0,0:0:0:0:
54,46,116329,1,2,0:0:0:0:
126,88,116729,1,2,0:0:0:0:
193,38,117129,6,0,L|278:27,1,70,4|2,0:3|0:0,0:0:0:0:
321,89,117929,2,0,L|400:80,1,70,2|2,0:0|0:0,0:0:0:0:
459,33,118729,1,10,0:0:0:0:
505,103,119129,1,2,0:0:0:0:
459,173,119529,2,0,L|463:249,1,70,2|2,0:0|0:0,0:0:0:0:
420,315,120329,6,0,P|378:293|348:293,1,70,10|2,0:0|0:0,0:0:0:0:
293,236,121129,2,0,P|258:240|229:259,1,70,2|2,0:0|0:0,0:0:0:0:
153,221,121929,2,0,P|159:167|154:116,1,105,10|0,0:0|0:0,0:0:0:0:
128,83,122729,1,2,0:0:0:0:
208,58,123129,1,2,0:0:0:0:
288,34,123529,6,0,P|325:48|373:54,1,70,4|2,0:3|0:0,0:0:0:0:
373,135,124329,2,0,P|340:147|306:154,1,70,2|2,0:0|0:0,0:0:0:0:
242,209,125129,2,0,L|250:286,1,70,10|2,0:0|0:0,0:0:0:0:
310,336,125929,2,0,L|357:337,2,35,2|2|2,0:0|0:0|0:0,0:0:0:0:
238,379,126729,6,0,P|203:376|170:364,1,70,10|2,0:0|0:0,0:0:0:0:
88,346,127529,2,0,P|90:311|102:278,1,70,2|2,0:0|0:0,0:0:0:0:
67,201,128329,6,0,P|74:151|44:109,1,105,4|0,0:3|0:0,0:0:0:0:
14,80,129129,2,0,P|57:61|83:54,1,70,2|0,0:0|0:0,0:0:0:0:
152,97,129929,2,0,P|216:85|292:84,1,140,2|0,0:0|0:0,0:0:0:0:
370,111,131129,1,2,0:0:0:0:
452,129,131529,6,0,P|474:97|438:7,1,140,2|0,0:0|0:0,0:0:0:0:
362,37,132729,2,0,L|366:71,1,35,2|2,0:0|0:0,0:0:0:0:
370,111,133129,2,0,L|377:181,1,70,2|0,0:0|0:0,0:0:0:0:
429,242,133929,2,0,L|425:311,1,70,2|0,0:0|0:0,0:0:0:0:
353,355,134729,6,0,P|312:325|260:315,1,105,4|0,0:3|0:0,0:0:0:0:
227,341,135529,2,0,B|155:323|169:368|90:351,1,140,2|2,0:0|0:0,0:0:0:0:
35,287,136729,1,2,0:0:0:0:
82,217,137129,2,0,P|94:175|88:129,1,70,0|2,0:0|0:0,0:0:0:0:
58,72,137929,6,0,P|121:47|185:73,1,140,2|2,0:0|0:0,0:0:0:0:
255,119,139129,1,2,0:0:0:0:
328,79,139529,2,0,B|402:78|375:37|460:44,1,140,2|2,0:0|0:0,0:0:0:0:
481,211,141129,6,0,P|431:194|379:197,1,105,4|0,0:3|0:0,0:0:0:0:
353,231,141929,2,0,P|359:265|365:299,1,70,2|0,0:0|0:0,0:0:0:0:
299,352,142729,2,0,P|256:320|158:308,1,140,2|0,0:0|0:0,0:0:0:0:
96,342,143929,1,2,0:0:0:0:
31,288,144329,6,0,P|42:235|41:130,1,140,2|0,0:0|0:0,0:0:0:0:
97,85,145529,2,0,P|122:99|133:109,1,35,2|2,0:0|0:0,0:0:0:0:
145,141,145929,2,0,L|224:153,1,70,2|0,0:0|0:0,0:0:0:0:
259,222,146729,2,0,L|328:211,1,70,2|0,0:0|0:0,0:0:0:0:
406,241,147529,6,0,P|431:197|421:146,1,105,4|0,0:3|0:0,0:0:0:0:
447,113,148329,2,0,P|402:83|320:25,1,140,2|2,0:0|0:0,0:0:0:0:
263,82,149529,1,2,0:0:0:0:
186,47,149929,2,0,L|112:38,1,70,0|2,0:0|0:0,0:0:0:0:
57,98,150729,6,0,P|94:151|50:229,1,140,2|2,0:0|0:0,0:0:0:0:
11,277,151929,1,2,0:0:0:0:
77,328,152329,2,0,P|161:323|201:345,1,105,4|0,0:3|0:0,0:0:0:0:
205,362,153129,2,0,L|288:349,1,70,2|0,0:0|0:0,0:0:0:0:
357,361,153929,6,0,B|356:307|356:307|341:271|341:271|339:222,1,140,2|0,0:0|0:0,0:0:0:0:
414,186,155129,1,2,0:0:0:0:
465,119,155529,2,0,P|451:78|348:52,1,140,2|0,0:0|0:0,0:0:0:0:
302,99,156729,2,0,L|243:83,1,35,2|2,0:0|0:0,0:0:0:0:
241,57,157129,6,0,L|158:71,1,70,2|2,0:0|0:0,0:0:0:0:
104,118,157929,2,0,L|34:106,1,70,2|2,0:0|0:0,0:0:0:0:
5,184,158729,2,0,L|108:201,1,105,2|0,0:0|0:0,0:0:0:0:
133,234,159529,2,0,P|141:289|119:338,1,105,2|0,0:0|0:0,0:0:0:0:
143,370,160329,5,4,0:3:0:0:
223,346,160729,1,2,0:0:0:0:
303,369,161129,2,0,L|379:361,1,70,0|2,0:0|0:0,0:0:0:0:
411,287,161929,2,0,P|371:253|320:248,1,105,2|0,0:0|0:0,0:0:0:0:
284,271,162729,2,0,L|277:193,1,70,2|2,0:0|0:0,0:0:0:0:
216,143,163529,6,0,P|171:166|74:177,1,140,2|2,0:0|0:0,0:0:0:0:
194,52,165129,2,0,P|251:56|292:100,1,105,2|0,0:0|0:0,0:0:0:0:
325,98,165929,2,0,P|374:81|415:87,1,70,2|0,0:0|0:0,0:0:0:0:
467,45,166729,6,0,L|466:184,1,140,4|0,0:3|0:0,0:0:0:0:
493,264,167929,1,2,0:0:0:0:
436,325,168329,2,0,P|364:304|314:253,1,140,2|0,0:0|0:0,0:0:0:0:
244,220,169529,2,0,L|192:223,1,35,2|2,0:0|0:0,0:0:0:0:
175,247,169929,6,0,L|164:154,1,70,2|2,0:0|0:0,0:0:0:0:
106,118,170729,2,0,L|36:126,1,70,2|2,0:0|0:0,0:0:0:0:
4,203,171529,2,0,P|38:229|56:325,1,140,2|2,0:0|0:0,0:0:0:0:
130,362,172729,1,0,0:0:0:0:
203,321,173129,6,0,L|297:310,1,70,4|2,0:3|0:0,0:0:0:0:
343,357,173929,1,2,0:0:0:0:
393,289,174329,1,2,0:0:0:0:
326,237,174729,6,0,P|312:168|317:99,2,140,2|2|4,0:0|0:0|0:0,0:0:0:0:
