osu file format v14

[General]
AudioFilename: audio.mp3
AudioLeadIn: 0
PreviewTime: 19329
Countdown: 0
SampleSet: Soft
StackLeniency: 0.7
Mode: 0
LetterboxInBreaks: 0
WidescreenStoryboard: 0

[Editor]
DistanceSpacing: 1
BeatDivisor: 4
GridSize: 32
TimelineZoom: 1

[Metadata]
Title:Marry no Kakuu Sekai
TitleUnicode:マリーの架空世界
Artist:JIN
ArtistUnicode:じん
Creator:Trynna
Version:Dearest
Source:カゲロウプロジェクト
Tags:Mary's Fictional World vocaloid Mekakucity City Actors Kagerou Days Daze Project IA Mary Marie Marry's Marie's
BeatmapID:2035010
BeatmapSetID:971970

[Difficulty]
HPDrainRate:4.5
CircleSize:5
OverallDifficulty:6
ApproachRate:7
SliderMultiplier:1.8
SliderTickRate:1

[Events]
//Background and Video events
0,0,"mmmary.jpg",0,0
//Break Periods
//Storyboard Layer 0 (Background)
//Storyboard Layer 1 (Fail)
//Storyboard Layer 2 (Pass)
//Storyboard Layer 3 (Foreground)
//Storyboard Layer 4 (Overlay)
//Storyboard Sound Samples

[TimingPoints]
19529,800,4,2,1,40,1,0
20929,-100,4,2,1,5,0,0
21129,-100,4,2,1,40,0,0
21929,-100,4,2,2,40,0,0
22529,-100,4,2,1,5,0,0
22729,-100,4,2,1,40,0,0
24329,-100,4,2,2,40,0,0
24929,-100,4,2,1,5,0,0
25129,-100,4,2,1,40,0,0
27529,-100,4,2,2,40,0,0
33129,-100,4,2,1,40,0,0
34729,-100,4,2,2,40,0,0
36329,-100,4,2,1,40,0,0
37929,-100,4,2,2,40,0,0
39529,-100,4,2,1,40,0,0
40129,-100,4,2,1,5,0,0
40329,-100,4,2,2,40,0,0
41929,-100,4,2,1,40,0,0
43529,-100,4,2,2,40,0,0
45129,-100,4,2,1,40,0,0
49929,-100,4,2,2,40,0,0
51529,-100,4,2,1,40,0,0
52129,-100,4,2,1,5,0,0
52329,-100,4,2,1,40,0,0
53129,-100,4,2,2,40,0,0
53529,-100,4,2,1,40,0,0
62729,-100,4,2,2,40,0,0
64329,-100,4,2,1,40,0,0
64929,-100,4,2,1,5,0,0
65129,-100,4,2,1,40,0,0
65929,-100,4,2,2,40,0,0
66329,-100,4,2,1,40,0,0
81929,-100,4,2,2,40,0,0
82329,-100,4,2,1,40,0,0
84129,-100,4,2,1,5,0,0
84329,-100,4,2,1,40,0,0
89929,-100,4,2,2,40,0,0
90329,-100,4,2,1,40,0,0
91529,-100,4,2,2,40,0,0
91929,-100,4,2,1,40,0,0
93129,-100,4,2,2,40,0,0
93529,-100,4,2,1,40,0,0
94729,-100,4,2,2,40,0,0
95129,-100,4,2,1,40,0,0
96329,-100,4,2,2,40,0,0
96729,-100,4,2,1,40,0,0
97929,800,4,2,1,60,1,0
97929,-83.3333333333333,4,2,1,60,0,0
103529,-83.3333333333333,4,2,2,60,0,0
103729,-83.3333333333333,4,2,1,60,0,0
103929,-83.3333333333333,4,2,2,60,0,0
104129,-83.3333333333333,4,2,1,60,0,0
104929,-83.3333333333333,4,2,1,5,0,0
105129,-83.3333333333333,4,2,1,60,0,0
109729,-83.3333333333333,4,2,1,5,0,0
109929,-83.3333333333333,4,2,2,60,0,0
110129,-83.3333333333333,4,2,1,60,0,0
110329,-83.3333333333333,4,2,2,60,0,0
110529,-83.3333333333333,4,2,1,60,0,0
111329,-83.3333333333333,4,2,1,5,0,0
111529,-83.3333333333333,4,2,1,60,0,0
116129,-83.3333333333333,4,2,1,5,0,0
116329,-83.3333333333333,4,2,2,60,0,0
116729,-83.3333333333333,4,2,2,60,0,0
116929,-83.3333333333333,4,2,1,60,0,0
122529,-83.3333333333333,4,2,1,5,0,0
122729,-83.3333333333333,4,2,1,60,0,0
128329,800,4,2,1,60,1,0
128329,-83.3333333333333,4,2,1,60,0,0
128929,-83.3333333333333,4,2,1,5,0,0
129129,-83.3333333333333,4,2,1,40,0,0
136129,-83.3333333333333,4,2,1,5,0,0
136329,-83.3333333333333,4,2,1,40,0,0
140929,-83.3333333333333,4,2,1,5,0,0
141129,-83.3333333333333,4,2,1,40,0,0
143329,-83.3333333333333,4,2,1,5,0,0
143529,-83.3333333333333,4,2,1,40,0,0
151329,-83.3333333333333,4,2,1,5,0,0
151529,-83.3333333333333,4,2,1,40,0,0
154529,-83.3333333333333,4,2,1,5,0,0
154729,-83.3333333333333,4,2,1,40,0,0
156129,-83.3333333333333,4,2,1,5,0,0
156329,-83.3333333333333,4,2,1,40,0,0
159329,-83.3333333333333,4,2,1,5,0,0
159529,-83.3333333333333,4,2,1,40,0,0
164129,-83.3333333333333,4,2,1,5,0,0
164329,-83.3333333333333,4,2,1,40,0,0
165729,-83.3333333333333,4,2,1,5,0,0
165929,-83.3333333333333,4,2,1,40,0,0
167329,-83.3333333333333,4,2,1,5,0,0
167529,-83.3333333333333,4,2,1,40,0,0

[Colours]
Combo1 : 160,227,250
Combo2 : 150,200,250
Combo3 : 208,171,250
Combo4 : 247,159,199

[HitObjects]
41,38,19529,6,0,P|85:39|124:64,1,90
200,62,20329,2,0,P|137:85|100:139,1,135,2|0,0:0|0:0,0:0:0:0:
100,161,21129,1,0,0:0:0:0:
164,232,21529,1,0,0:0:0:0:
102,304,21929,2,0,P|162:330|224:309,1,135,2|0,0:0|0:0,0:0:0:0:
241,293,22729,5,0,0:0:0:0:
359,350,23129,2,0,L|356:290,1,45
395,236,23529,1,2,0:0:0:0:
465,57,24329,2,0,B|386:45|416:93|336:81,1,135,2|0,0:0|0:0,0:0:0:0:
319,98,25129,2,0,P|278:64|228:57,1,90,2|2,0:0|0:0,0:0:0:0:
151,22,25929,5,0,0:0:0:0:
184,145,26329,2,0,L|197:195,1,45
99,100,26729,1,2,0:0:0:0:
84,87,27529,2,0,P|40:81|38:203,1,180,2|0,0:0|0:0,0:0:0:0:
10,187,28729,1,0,0:0:0:0:
58,267,29129,6,0,L|45:360,1,90,2|2,0:0|0:0,0:0:0:0:
127,208,29929,1,0,0:0:0:0:
146,314,30329,1,2,0:0:0:0:
215,243,30729,2,0,L|280:313,1,90,2|0,0:0|0:0,0:0:0:0:
283,384,31329,1,0,0:0:0:0:
283,384,31529,2,0,P|334:366|345:311,1,90,2|2,0:0|0:0,0:0:0:0:
443,325,32329,5,0,0:0:0:0:
354,237,32729,1,0,0:0:0:0:
480,204,33129,1,2,0:0:0:0:
463,189,33929,2,0,L|440:97,1,90
357,98,34529,1,0,0:0:0:0:
357,98,34729,2,0,P|367:56|419:22,1,90,2|2,0:0|0:0,0:0:0:0:
356,208,35529,5,0,0:0:0:0:
257,131,35929,1,0,0:0:0:0:
151,195,36329,1,2,0:0:0:0:
138,178,37129,2,0,P|144:123|140:73,1,90
4,85,37929,2,0,P|-2:140|2:190,1,90,2|2,0:0|0:0,0:0:0:0:
69,236,38729,5,0,0:0:0:0:
71,134,39129,1,0,0:0:0:0:
52,260,39529,2,0,B|125:255|107:309|181:297,1,135,2|0,0:0|0:0,0:0:0:0:
184,281,40329,2,0,P|130:299|106:329,1,90,2|2,0:0|0:0,0:0:0:0:
258,339,41129,1,0,0:0:0:0:
243,215,41529,1,0,0:0:0:0:
353,230,41929,6,0,L|263:239,1,90,2|0,0:0|0:0,0:0:0:0:
442,221,42729,2,0,L|352:230,1,90,2|0,0:0|0:0,0:0:0:0:
421,103,43529,2,0,P|484:143|428:222,1,180,2|0,0:0|0:0,0:0:0:0:
253,48,45129,5,4,0:0:0:0:
156,98,45529,2,0,L|102:91,1,45,2|0,0:0|0:0,0:0:0:0:
48,133,45929,2,0,B|34:92|34:92|47:47,1,90,2|2,0:0|0:0,0:0:0:0:
123,175,46729,1,2,0:0:0:0:
0,246,47129,1,2,0:0:0:0:
128,328,47529,1,8,0:0:0:0:
84,251,47929,1,2,0:0:0:0:
213,305,48329,6,0,L|306:291,2,90,2|2|2,0:0|0:0|0:0,0:0:0:0:
288,221,49529,1,2,0:0:0:0:
319,219,49729,1,2,0:0:0:0:
346,234,49929,5,2,0:0:0:0:
196,159,50329,1,0,0:0:0:0:
177,167,50729,5,2,0:0:0:0:
299,55,51129,1,2,0:0:0:0:
409,9,51529,6,0,L|392:148,1,135,4|0,0:0|0:0,0:0:0:0:
378,164,52329,2,0,P|422:159|463:177,1,90,2|2,0:0|0:0,0:0:0:0:
512,283,53129,2,0,L|422:294,1,90,2|2,0:0|0:0,0:0:0:0:
374,349,53729,1,2,0:0:0:0:
374,349,53929,2,0,L|284:360,1,90,2|2,0:0|0:0,0:0:0:0:
206,273,54729,5,10,0:0:0:0:
233,133,55129,1,2,0:0:0:0:
93,110,55529,1,10,0:0:0:0:
66,250,55929,1,2,0:0:0:0:
151,200,56329,2,0,B|164:93|116:126|136:20,1,180,10|0,0:0|0:0,0:0:0:0:
135,23,57929,5,4,0:0:0:0:
228,70,58329,1,2,0:0:0:0:
321,19,58729,2,0,L|413:15,1,90,2|2,0:0|0:0,0:0:0:0:
467,106,59529,1,2,0:0:0:0:
371,97,59929,2,0,L|378:162,1,45,2|0,0:0|0:0,0:0:0:0:
332,220,60329,2,0,P|296:193|252:189,1,90,8|2,0:0|0:0,0:0:0:0:
159,154,61129,6,0,L|168:243,1,90,2|2,0:0|0:0,0:0:0:0:
227,299,61929,2,0,P|192:325|148:323,1,90,2|2,0:0|0:0,0:0:0:0:
126,332,62529,1,2,0:0:0:0:
126,332,62729,1,2,0:0:0:0:
8,273,63129,1,0,0:0:0:0:
23,165,63529,2,0,L|27:255,1,90,2|2,0:0|0:0,0:0:0:0:
108,128,64329,6,0,P|84:85|-1:73,1,135,2|0,0:0|0:0,0:0:0:0:
11,89,65129,2,0,P|34:32|31:3,1,90,2|2,0:0|0:0,0:0:0:0:
166,46,65929,2,0,L|279:39,1,90,2|2,0:0|0:0,0:0:0:0:
324,84,66529,1,2,0:0:0:0:
324,84,66729,2,0,P|335:40|315:-5,1,90,2|2,0:0|0:0,0:0:0:0:
307,175,67529,6,0,P|367:159|420:157,1,90,10|2,0:0|0:0,0:0:0:0:
270,265,68329,2,0,P|225:259|182:246,1,90,10|2,0:0|0:0,0:0:0:0:
350,326,69129,2,0,P|397:296|472:371,1,180,10|0,0:0|0:0,0:0:0:0:
213,340,70729,6,0,B|155:335|155:335|95:350|95:350|34:343,1,180,4|0,0:0|0:0,0:0:0:0:
85,267,71929,2,0,P|73:247|64:227,1,45,2|2,0:0|0:0,0:0:0:0:
84,147,72329,1,10,0:0:0:0:
336,47,73529,5,2,0:0:0:0:
336,47,73729,1,2,0:0:0:0:
336,47,73929,2,0,L|357:156,2,90,4|0|0,0:0|0:0|0:0,0:0:0:0:
431,83,75129,2,0,L|484:79,1,45,2|2,0:0|0:0,0:0:0:0:
358,163,75529,1,10,0:0:0:0:
454,314,76729,5,2,0:0:0:0:
441,306,76929,1,2,0:0:0:0:
424,301,77129,2,0,P|377:313|341:347,1,90,2|2,0:0|0:0,0:0:0:0:
285,264,77929,2,0,P|250:235|207:225,1,90,2|2,0:0|0:0,0:0:0:0:
214,313,78729,1,10,0:0:0:0:
292,158,79129,1,2,0:0:0:0:
132,193,79529,1,10,0:0:0:0:
44,213,79929,2,0,L|0:203,1,45,2|0,0:0|0:0,0:0:0:0:
75,138,80329,6,0,P|30:64|72:-10,1,180,4|0,0:0|0:0,0:0:0:0:
228,44,81529,1,0,0:0:0:0:
127,74,81929,2,0,L|254:65,1,90,2|2,0:0|0:0,0:0:0:0:
272,173,82729,2,0,L|145:164,1,90,2|2,0:0|0:0,0:0:0:0:
307,86,83529,6,0,P|356:120|356:205,1,135,4|0,0:0|0:0,0:0:0:0:
353,209,84329,1,0,0:0:0:0:
434,300,84729,2,0,L|443:369,1,45,2|2,0:0|0:0,0:0:0:0:
488,232,85129,1,2,0:0:0:0:
330,303,85529,1,0,0:0:0:0:
250,269,85929,1,0,0:0:0:0:
154,311,86329,2,0,L|84:306,1,45,2|2,0:0|0:0,0:0:0:0:
46,354,86729,5,2,0:0:0:0:
68,205,87129,1,2,0:0:0:0:
1,274,87529,1,2,0:0:0:0:
15,122,87929,1,2,0:0:0:0:
93,55,88329,2,0,B|189:38|157:113|260:98,1,180,2|2,0:0|0:0,0:0:0:0:
281,5,89529,2,0,P|260:14|239:21,1,45,2|2,0:0|0:0,0:0:0:0:
252,121,89929,6,0,P|232:161|226:205,1,90,2|2,0:0|0:0,0:0:0:0:
373,250,90729,2,0,P|392:209|398:165,1,90,2|2,0:0|0:0,0:0:0:0:
338,76,91529,1,2,0:0:0:0:
313,186,91929,1,2,0:0:0:0:
288,296,92329,1,2,0:0:0:0:
373,250,92729,1,2,0:0:0:0:
264,308,93129,6,0,P|220:282|176:269,1,90,2|2,0:0|0:0,0:0:0:0:
31,247,93929,2,0,P|73:232|111:209,1,90,2|2,0:0|0:0,0:0:0:0:
194,159,94729,2,0,L|195:248,2,90,2|0|0,0:0|0:0|0:0,0:0:0:0:
135,94,95929,1,0,0:0:0:0:
257,32,96329,5,2,0:0:0:0:
257,194,97129,1,2,0:0:0:0:
257,194,97529,1,2,0:0:0:0:
297,92,97929,6,0,B|372:96|372:96|426:132|426:132|508:134,1,215.999993408203,4|2,0:3|0:0,0:0:0:0:
346,177,99129,1,2,0:0:0:0:
429,242,99529,2,0,P|442:301|449:352,1,107.999996704102,10|2,0:0|0:0,0:0:0:0:
309,372,100329,2,0,P|296:313|289:262,1,107.999996704102,2|2,0:0|0:0,0:0:0:0:
208,188,101129,5,10,0:0:0:0:
186,283,101529,1,2,0:0:0:0:
51,352,101929,5,2,0:0:0:0:
20,224,102329,1,2,0:0:0:0:
56,124,102729,2,0,L|34:-1,1,107.999996704102,10|0,0:0|0:0,0:0:0:0:
168,107,103529,1,2,0:0:0:0:
110,215,103929,1,2,0:0:0:0:
234,181,104329,6,0,P|267:109|237:36,1,161.999995056153,4|0,0:3|0:0,0:0:0:0:
221,55,105129,2,0,L|348:48,1,107.999996704102,2|2,0:0|0:0,0:0:0:0:
490,9,105929,1,10,0:0:0:0:
393,0,106329,1,2,0:0:0:0:
407,22,106529,1,2,0:0:0:0:
413,48,106729,1,2,0:0:0:0:
394,215,107129,1,2,0:0:0:0:
455,140,107529,6,0,L|348:125,1,107.999996704102,10|2,0:0|0:0,0:0:0:0:
269,250,108329,2,0,L|375:235,1,107.999996704102,2|2,0:0|0:0,0:0:0:0:
230,155,109129,2,0,P|181:191|171:297,1,161.999995056153,10|0,0:0|0:0,0:0:0:0:
181,309,109929,2,0,L|55:304,1,107.999996704102,2|2,0:0|0:0,0:0:0:0:
256,354,110729,6,0,P|313:325|397:365,1,161.999995056153,4|0,0:3|0:0,0:0:0:0:
409,350,111529,2,0,L|400:242,1,107.999996704102,2|2,0:0|0:0,0:0:0:0:
446,156,112329,5,10,0:0:0:0:
423,259,112729,1,2,0:0:0:0:
296,173,113129,5,2,0:0:0:0:
273,47,113529,1,2,0:0:0:0:
213,127,113929,6,0,L|97:144,1,107.999996704102,10|2,0:0|0:0,0:0:0:0:
0,158,114729,2,0,L|106:142,1,107.999996704102,2|2,0:0|0:0,0:0:0:0:
98,63,115529,2,0,L|118:246,1,161.999995056153,10|0,0:0|0:0,0:0:0:0:
106,244,116329,1,2,0:0:0:0:
216,193,116729,1,2,0:0:0:0:
253,320,117129,6,0,P|239:268|230:215,1,107.999996704102,4|2,0:3|0:0,0:0:0:0:
358,275,117929,2,0,P|371:222|380:169,1,107.999996704102,2|2,0:0|0:0,0:0:0:0:
349,62,118729,2,0,L|479:42,2,107.999996704102,10|2|2,0:0|0:0|0:0,0:0:0:0:
242,80,119929,1,2,0:0:0:0:
242,80,120329,6,0,P|188:42|121:44,1,107.999996704102,10|2,0:0|0:0,0:0:0:0:
163,129,121129,2,0,P|97:140|51:189,1,107.999996704102,2|2,0:0|0:0,0:0:0:0:
139,223,121929,2,0,L|124:395,1,161.999995056153,10|0,0:0|0:0,0:0:0:0:
107,369,122729,1,2,0:0:0:0:
251,314,123129,1,2,0:0:0:0:
324,232,123529,6,0,P|270:223|218:210,1,107.999996704102,4|2,0:3|0:0,0:0:0:0:
372,152,124329,2,0,P|412:185|419:237,1,107.999996704102,2|2,0:0|0:0,0:0:0:0:
283,121,125129,2,0,P|300:64|310:16,1,107.999996704102,10|2,0:0|0:0,0:0:0:0:
203,52,125929,1,2,0:0:0:0:
203,52,126129,1,2,0:0:0:0:
203,52,126329,1,2,0:0:0:0:
405,41,126729,6,0,L|516:34,1,107.999996704102,10|2,0:0|0:0,0:0:0:0:
471,140,127529,2,0,L|363:146,1,107.999996704102,2|2,0:0|0:0,0:0:0:0:
225,190,128329,6,0,P|287:203|330:298,1,161.999995056153,4|0,0:3|0:0,0:0:0:0:
353,302,129129,2,0,L|231:335,1,107.999996704102,2|0,0:0|0:0,0:0:0:0:
140,383,129929,2,0,B|141:252|86:305|87:177,1,215.999993408203,2|0,0:0|0:0,0:0:0:0:
159,85,131129,1,2,0:0:0:0:
179,211,131529,6,0,P|183:146|165:95,1,107.999996704102,2|0,0:0|0:0,0:0:0:0:
87,20,132329,2,0,P|143:14|193:3,1,107.999996704102,0|2,0:0|0:0,0:0:0:0:
251,67,132929,1,2,0:0:0:0:
251,67,133129,2,0,P|307:72|357:83,1,107.999996704102,2|0,0:0|0:0,0:0:0:0:
486,148,133929,2,0,B|468:97|468:97|478:40,1,107.999996704102,2|0,0:0|0:0,0:0:0:0:
395,172,134729,6,0,P|402:247|399:302,1,107.999996704102,4|0,0:3|0:0,0:0:0:0:
452,349,135529,2,0,B|399:318|399:318|299:334,1,161.999995056153,2|0,0:0|0:0,0:0:0:0:
304,358,136329,2,0,L|194:343,1,107.999996704102,2|2,0:0|0:0,0:0:0:0:
110,329,137129,1,0,0:0:0:0:
223,259,137529,1,2,0:0:0:0:
90,199,137929,6,0,L|97:314,1,107.999996704102,2|0,0:0|0:0,0:0:0:0:
135,119,138729,2,0,P|84:104|35:124,1,107.999996704102,2|2,0:0|0:0,0:0:0:0:
208,233,139529,2,0,P|260:216|313:205,1,107.999996704102,2|0,0:0|0:0,0:0:0:0:
408,202,140329,2,0,P|352:189|287:100,1,161.999995056153,2|0,0:0|0:0,0:0:0:0:
270,124,141129,6,0,L|276:12,1,107.999996704102,4|0,0:3|0:0,0:0:0:0:
169,63,141929,2,0,B|117:47|117:47|61:55,1,107.999996704102,2|0,0:0|0:0,0:0:0:0:
113,144,142729,2,0,L|99:346,1,161.999995056153,2|0,0:0|0:0,0:0:0:0:
81,323,143529,1,0,0:0:0:0:
19,218,143929,1,2,0:0:0:0:
197,284,144329,6,0,P|260:276|323:276,1,107.999996704102,2|0,0:0|0:0,0:0:0:0:
382,186,145129,2,0,P|328:184|274:177,1,107.999996704102,0|2,0:0|0:0,0:0:0:0:
200,217,145729,1,2,0:0:0:0:
200,217,145929,2,0,B|187:163|187:163|213:109,1,107.999996704102,2|0,0:0|0:0,0:0:0:0:
246,13,146729,2,0,P|193:23|139:31,1,107.999996704102,2|0,0:0|0:0,0:0:0:0:
299,125,147529,6,0,B|415:163|392:82|508:116,1,215.999993408203,4|2,0:3|0:0,0:0:0:0:
354,52,148729,1,0,0:0:0:0:
412,155,149129,2,0,P|389:217|380:276,1,107.999996704102,2|2,0:0|0:0,0:0:0:0:
425,357,149929,2,0,B|374:338|374:338|318:339,1,107.999996704102,0|2,0:0|0:0,0:0:0:0:
170,351,150729,6,0,P|192:292|119:304,1,161.999995056153,2|0,0:0|0:0,0:0:0:0:
103,311,151529,2,0,P|102:252|86:203,1,107.999996704102,2|2,0:0|0:0,0:0:0:0:
47,106,152329,2,0,B|169:74|129:165|251:139,1,215.999993408203,4|2,0:3|0:0,0:0:0:0:
300,68,153529,1,0,0:0:0:0:
215,42,153929,6,0,L|395:31,1,161.999995056153,2|0,0:0|0:0,0:0:0:0:
395,12,154729,2,0,P|415:63|407:119,1,107.999996704102,0|2,0:0|0:0,0:0:0:0:
483,237,155529,2,0,B|440:233|409:204|409:204|376:228|334:225,1,161.999995056153,2|0,0:0|0:0,0:0:0:0:
321,242,156329,1,0,0:0:0:0:
404,315,156729,2,0,L|398:371,1,53.9999983520508,2|2,0:0|0:0,0:0:0:0:
281,325,157129,6,0,P|220:325|159:358,1,107.999996704102,2|2,0:0|0:0,0:0:0:0:
46,369,157929,2,0,P|76:316|78:246,1,107.999996704102,2|2,0:0|0:0,0:0:0:0:
111,112,158729,2,0,P|155:195|214:232,1,161.999995056153,2|0,0:0|0:0,0:0:0:0:
207,254,159529,2,0,P|262:226|321:224,1,107.999996704102,2|0,0:0|0:0,0:0:0:0:
408,160,160329,6,0,P|349:140|298:94,2,107.999996704102,4|2|0,0:3|0:0|0:0,0:0:0:0:
358,55,161529,1,2,0:0:0:0:
358,55,161929,2,0,L|233:82,1,107.999996704102,2|0,0:0|0:0,0:0:0:0:
154,48,162729,2,0,L|29:75,1,107.999996704102,2|2,0:0|0:0,0:0:0:0:
18,176,163529,6,0,P|102:187|126:275,1,161.999995056153,2|0,0:0|0:0,0:0:0:0:
116,269,164329,2,0,L|112:387,1,107.999996704102,2|0,0:0|0:0,0:0:0:0:
205,287,165129,2,0,B|290:285|270:345|353:341,1,161.999995056153,2|0,0:0|0:0,0:0:0:0:
376,358,165929,1,2,0:0:0:0:
418,221,166329,1,0,0:0:0:0:
321,130,166729,6,0,P|259:138|139:149,1,161.999995056153,4|0,0:3|0:0,0:0:0:0:
144,162,167529,2,0,P|120:117|127:55,1,107.999996704102,0|2,0:0|0:0,0:0:0:0:
228,35,168329,2,0,B|241:129|241:129|232:156|232:156|248:253,1,215.999993408203,2|0,0:0|0:0,0:0:0:0:
198,331,169529,2,0,L|133:320,1,53.9999983520508,2|2,0:0|0:0,0:0:0:0:
320,304,169929,6,0,L|440:284,1,107.999996704102,2|2,0:0|0:0,0:0:0:0:
512,208,170729,2,0,P|463:187|425:133,1,107.999996704102,2|2,0:0|0:0,0:0:0:0:
336,67,171529,2,0,L|333:174,2,107.999996704102,2|0|2,0:0|0:0|0:0,0:0:0:0:
231,118,172729,1,0,0:0:0:0:
155,53,173129,6,0,P|204:72|231:117,1,107.999996704102,4|2,0:3|0:0,0:0:0:0:
138,151,173929,2,0,P|88:170|61:215,1,107.999996704102,2|2,0:0|0:0,0:0:0:0:
151,314,174729,2,0,P|184:278|150:243,1,107.999996704102,2|0,0:0|0:0,0:0:0:0:
44,338,175529,2,0,P|119:336|181:358,1,107.999996704102,2|2,0:0|0:0,0:0:0:0:
259,346,176329,6,0,P|281:282|170:173,1,215.999993408203,4|8,0:0|0:0,0:0:0:0:
