osu file format v14

[General]
AudioFilename: audio.mp3
AudioLeadIn: 0
PreviewTime: 80324
Countdown: 0
SampleSet: Soft
StackLeniency: 0.7
Mode: 0
LetterboxInBreaks: 0
WidescreenStoryboard: 1

[Editor]
Bookmarks: 28800,29100,33900,42449,50850,52050,61650,68400,80999,90599,90975,100199,109799,119400,127950,138600,157199,168599,187799,192600,206399
DistanceSpacing: 1
BeatDivisor: 4
GridSize: 16
TimelineZoom: 3.700005

[Metadata]
Title:Additional Memory
TitleUnicode:Additional Memory
Artist:Jin
ArtistUnicode:Jin
Creator:ZBoogie12
Version:Normal
Source:
Tags:
BeatmapID:4580894
BeatmapSetID:2102259

[Difficulty]
HPDrainRate:3
CircleSize:3
OverallDifficulty:3
ApproachRate:5.3
SliderMultiplier:1.1
SliderTickRate:1

[Events]
//Background and Video events
0,0,"Additional_Memory_promo.jpg",0,0
Video,0,"JIN _ Additional Memory.mp4"
//Break Periods
2,119000,126796
2,138800,146596
//Storyboard Layer 0 (Background)
//Storyboard Layer 1 (Fail)
//Storyboard Layer 2 (Pass)
//Storyboard Layer 3 (Foreground)
//Storyboard Layer 4 (Overlay)
//Storyboard Sound Samples

[TimingPoints]
12600,300,4,2,2,100,1,0
13799,-142.857142857143,4,2,1,49,0,0
22050,-142.857142857143,4,2,1,71,0,0
22800,-142.857142857143,4,2,1,80,0,0
23400,-90.9090909090909,4,2,1,80,0,0
28200,-90.9090909090909,4,2,2,100,0,0
28275,-90.9090909090909,4,2,1,100,0,0
32400,-90.9090909090909,4,2,2,100,0,0
32700,-90.9090909090909,4,2,1,100,0,0
33000,-90.9090909090909,4,2,2,100,0,0
33075,-90.9090909090909,4,2,1,100,0,0
37500,-90.9090909090909,4,2,2,100,0,0
37800,-90.9090909090909,4,2,2,100,0,0
37875,-90.9090909090909,4,2,1,100,0,0
40200,-86.9565217391304,4,2,1,100,0,0
42450,-133.333333333333,4,2,1,60,0,0
47250,-133.333333333333,4,2,2,60,0,0
47325,-133.333333333333,4,2,1,60,0,0
50850,-133.333333333333,4,2,1,100,0,0
52050,-117.647058823529,4,2,1,100,0,0
52125,-117.647058823529,4,2,1,75,0,0
56850,-105.263157894737,4,2,2,75,0,0
56925,-105.263157894737,4,2,1,75,0,0
58050,-117.647058823529,4,2,2,75,0,0
58125,-117.647058823529,4,2,1,75,0,0
58350,-117.647058823529,4,2,1,75,0,0
59250,-117.647058823529,4,2,2,75,0,0
59325,-117.647058823529,4,2,1,75,0,0
60600,-76.9230769230769,4,2,1,90,0,0
61650,-166.666666666667,4,2,1,69,0,0
64200,-166.666666666667,4,2,2,69,0,0
64275,-166.666666666667,4,2,1,55,0,0
64799,-166.666666666667,4,2,2,55,0,0
65100,-166.666666666667,4,2,1,55,0,0
66600,-166.666666666667,4,2,2,55,0,0
66675,-166.666666666667,4,2,1,55,0,0
71400,-166.666666666667,4,2,2,55,0,0
71475,-166.666666666667,4,2,1,55,0,0
75600,-200,4,2,1,55,0,0
76200,-133.333333333333,4,2,1,90,0,0
77400,-125,4,2,1,100,0,0
78600,-111.111111111111,4,2,1,70,0,0
79050,-111.111111111111,4,2,1,75,0,0
79500,-111.111111111111,4,2,1,80,0,0
79950,-111.111111111111,4,2,1,85,0,0
80400,-133.333333333333,4,2,3,100,0,0
81000,-83.3333333333333,4,2,1,75,0,1
81600,-83.3333333333333,4,2,1,75,0,1
82050,-83.3333333333333,4,2,1,75,0,1
82650,-83.3333333333333,4,2,1,75,0,1
83400,-100,4,2,2,75,0,1
83475,-100,4,2,1,75,0,1
85800,-100,4,2,2,75,0,1
85875,-100,4,2,1,75,0,1
90000,-100,4,2,1,75,0,1
90075,-100,4,2,2,75,0,1
90300,-100,4,2,1,75,0,1
90375,-100,4,2,2,75,0,0
90600,-83.3333333333333,4,2,1,75,0,1
91200,-83.3333333333333,4,2,1,75,0,1
91650,-83.3333333333333,4,2,1,75,0,1
92250,-83.3333333333333,4,2,1,75,0,1
93000,-100,4,2,1,75,0,1
95400,-100,4,2,2,75,0,1
95475,-100,4,2,1,75,0,1
100200,-111.111111111111,4,2,1,82,0,0
100650,-111.111111111111,4,2,2,82,0,0
100725,-111.111111111111,4,2,1,82,0,0
101250,-111.111111111111,4,2,2,82,0,0
101325,-111.111111111111,4,2,1,82,0,0
102600,-111.111111111111,4,2,1,85,0,0
103050,-111.111111111111,4,2,2,85,0,0
103125,-111.111111111111,4,2,1,85,0,0
103650,-111.111111111111,4,2,2,85,0,0
103725,-111.111111111111,4,2,1,85,0,0
104550,-111.111111111111,4,2,2,85,0,0
104700,-111.111111111111,4,2,1,85,0,0
105000,-111.111111111111,4,2,1,88,0,0
105450,-111.111111111111,4,2,2,88,0,0
105525,-111.111111111111,4,2,1,88,0,0
106050,-111.111111111111,4,2,2,88,0,0
106125,-111.111111111111,4,2,1,88,0,0
107400,-111.111111111111,4,2,1,90,0,0
107850,-111.111111111111,4,2,2,90,0,0
107925,-111.111111111111,4,2,1,90,0,0
108450,-111.111111111111,4,2,2,90,0,0
108525,-111.111111111111,4,2,1,90,0,0
109800,-83.3333333333333,4,2,1,92,0,1
112200,-83.3333333333333,4,2,1,95,0,1
114375,-83.3333333333333,4,2,2,92,0,1
114600,-83.3333333333333,4,2,1,98,0,1
117150,-83.3333333333333,4,2,2,100,0,1
117300,-83.3333333333333,4,2,1,100,0,1
118050,-83.3333333333333,4,2,1,100,0,1
118800,-333.333333333333,4,2,1,100,0,0
127950,-133.333333333333,4,2,1,60,0,0
129300,-133.333333333333,4,2,1,60,0,0
137400,-142.857142857143,4,1,1,40,0,0
138600,-133.333333333333,4,1,1,55,0,0
147750,-133.333333333333,4,2,1,55,0,0
155100,-125,4,2,1,30,0,0
155400,-117.647058823529,4,2,1,40,0,0
155700,-111.111111111111,4,2,1,50,0,0
156000,-105.263157894737,4,2,1,60,0,0
156300,-100,4,2,1,70,0,0
156600,-95.2380952380952,4,2,1,80,0,0
156900,-90.9090909090909,4,2,1,90,0,0
157200,-83.3333333333333,4,2,1,100,0,0
157650,-83.3333333333333,4,2,1,100,0,1
166800,-83.3333333333333,4,1,1,100,0,0
167400,-125,4,2,1,100,0,0
168600,-83.3333333333333,4,2,1,80,0,1
169200,-83.3333333333333,4,2,1,80,0,1
169650,-83.3333333333333,4,2,1,80,0,1
170250,-83.3333333333333,4,2,1,80,0,1
171000,-100,4,2,1,80,0,1
173400,-100,4,2,2,80,0,1
173475,-100,4,2,1,80,0,1
177675,-100,4,2,2,80,0,1
177900,-100,4,2,1,80,0,1
177975,-100,4,2,2,80,0,0
178200,-83.3333333333333,4,2,1,80,0,1
178800,-83.3333333333333,4,2,1,80,0,1
179250,-83.3333333333333,4,2,1,80,0,1
179850,-83.3333333333333,4,2,1,80,0,1
180600,-100,4,2,1,80,0,1
183000,-100,4,2,2,80,0,1
183075,-100,4,2,1,80,0,1
187200,-100,4,2,1,85,0,1
187275,-100,4,2,2,85,0,1
187500,-100,4,2,1,85,0,1
187575,-100,4,2,2,85,0,0
187800,-98.0392156862745,4,2,1,90,0,1
188250,-98.0392156862745,4,2,2,90,0,1
188325,-98.0392156862745,4,2,1,90,0,1
188850,-98.0392156862745,4,2,2,90,0,1
188925,-98.0392156862745,4,2,1,90,0,1
190200,-95.2380952380952,4,2,1,90,0,1
190650,-95.2380952380952,4,2,2,90,0,1
190725,-95.2380952380952,4,2,1,90,0,1
190936,-95.2380952380952,4,2,2,90,0,1
190950,-95.2380952380952,4,2,1,90,0,1
191100,-95.2380952380952,4,2,1,90,0,1
191250,-95.2380952380952,4,2,2,90,0,1
191325,-95.2380952380952,4,2,1,90,0,1
191536,-95.2380952380952,4,2,2,90,0,1
191550,-95.2380952380952,4,2,1,90,0,1
191700,-95.2380952380952,4,2,1,90,0,1
192600,-93.4579439252336,4,2,1,90,0,1
193050,-93.4579439252336,4,2,2,90,0,1
193125,-93.4579439252336,4,2,1,90,0,1
193650,-93.4579439252336,4,2,2,90,0,1
193725,-93.4579439252336,4,2,1,90,0,1
195000,-90.9090909090909,4,2,1,100,0,1
195450,-90.9090909090909,4,2,2,100,0,1
195525,-90.9090909090909,4,2,1,100,0,1
195737,-90.9090909090909,4,2,2,100,0,1
195749,-90.9090909090909,4,2,1,100,0,1
195900,-90.9090909090909,4,2,1,100,0,1
196050,-90.9090909090909,4,2,2,100,0,1
196125,-90.9090909090909,4,2,1,100,0,1
197250,-90.9090909090909,4,2,1,100,0,0
197400,-89.2857142857143,4,2,1,95,0,1
199800,-86.9565217391304,4,2,1,96,0,1
201975,-86.9565217391304,4,2,2,96,0,1
202200,-85.4700854700855,4,2,1,98,0,1
204750,-83.3333333333333,4,2,1,100,0,1
206400,-200,4,2,1,100,0,0

[Colours]
Combo1 : 146,7,60
Combo2 : 192,192,192
Combo3 : 90,90,90
Combo4 : 183,0,0
Combo5 : 0,215,215
Combo6 : 3,45,186
Combo7 : 255,0,0
Combo8 : 101,10,112

[HitObjects]
117,162,13800,54,0,P|156:136|197:146,1,76.9999976501465,6|2,0:0|0:0,0:0:0:0:
234,201,14400,2,0,L|277:191,1,38.4999988250733,2|2,0:0|0:0,0:0:0:0:
357,184,14850,2,0,P|363:137|309:77,1,115.49999647522,2|2,0:0|0:0,0:0:0:0:
232,82,15600,2,0,L|241:136,1,38.4999988250733,2|2,0:0|0:0,0:0:0:0:
239,206,16050,6,0,P|199:231|127:207,1,115.49999647522,2|2,0:0|0:0,0:0:0:0:
56,171,16800,2,0,L|58:116,1,38.4999988250733,2|2,0:0|0:0,0:0:0:0:
94,65,17250,2,0,P|135:42|178:57,1,76.9999976501466,2|2,0:0|0:0,0:0:0:0:
245,31,17850,2,0,P|287:11|326:30,1,76.9999976501466,2|2,0:0|0:0,0:0:0:0:
353,40,18300,5,0,0:0:0:0:
353,40,18450,1,2,0:0:0:0:
323,114,18750,86,0,L|282:125,1,38.4999988250733,2|2,0:0|0:0,0:0:0:0:
211,141,19200,2,0,L|173:151,1,38.4999988250733,2|2,0:0|2:0,0:0:0:0:
227,216,19650,2,0,L|354:183,1,115.49999647522,2|2,0:0|0:0,0:0:0:0:
419,168,20400,1,2,0:0:0:0:
419,168,20550,1,2,0:0:0:0:
441,260,20850,6,0,P|406:283|323:276,1,115.49999647522,2|2,0:0|0:0,0:0:0:0:
248,247,21600,1,2,0:0:0:0:
248,247,21750,2,0,L|250:194,1,38.4999988250733,2|0,0:0|0:0,0:0:0:0:
253,163,22050,1,14,0:2:0:0:
313,96,22350,1,8,0:3:0:0:
349,98,22500,2,0,L|399:103,1,38.4999988250733,4|4,3:0|3:0,0:0:0:0:
425,109,22800,5,10,0:2:0:0:
425,109,22950,1,10,0:2:0:0:
379,284,23400,37,12,0:2:0:0:
262,292,23700,1,10,0:0:0:0:
262,292,23850,2,0,L|254:231,2,60.5000018463135,2|10|0,3:2|0:0|3:0,0:0:0:0:
205,314,24301,2,0,L|197:253,1,60.5000018463135,10|2,0:0|3:2,0:0:0:0:
191,194,24600,1,10,0:0:0:0:
242,83,24900,6,0,L|304:85,1,60.5000018463135,8|0,0:0|3:0,0:0:0:0:
328,140,25200,2,0,L|390:135,1,60.5000018463135,8|0,0:0|3:0,0:0:0:0:
405,77,25500,2,0,L|468:81,1,60.5000018463135,8|0,0:0|3:0,0:0:0:0:
501,129,25800,1,8,0:0:0:0:
443,213,26100,101,10,0:0:0:0:
443,213,26250,2,0,L|505:224,2,60.5000018463135,2|10|0,3:2|0:0|3:0,0:0:0:0:
405,278,26700,2,0,L|464:288,1,60.5000018463135,10|2,0:0|3:2,0:0:0:0:
512,297,27000,1,10,0:0:0:0:
387,348,27300,6,0,L|325:339,1,60.5000018463135,8|0,0:0|3:0,0:0:0:0:
266,332,27600,2,0,L|247:249,1,60.5000018463135,8|0,0:0|3:0,0:0:0:0:
255,220,27900,1,8,0:0:0:0:
255,220,28050,1,0,0:0:0:0:
255,220,28200,1,4,0:0:0:0:
187,119,28500,102,0,L|114:135,1,60.5000018463135,10|2,0:0|3:2,0:0:0:0:
78,167,28800,2,0,L|18:230,1,60.5000018463135,10|0,0:0|3:0,0:0:0:0:
40,271,29100,2,0,L|45:353,1,60.5000018463135,10|2,0:0|3:2,0:0:0:0:
74,383,29400,1,10,0:0:0:0:
201,371,29700,5,8,0:0:0:0:
201,371,29850,1,0,3:0:0:0:
201,371,30000,2,0,L|249:320,1,60.5000018463135,8|0,0:0|3:0,0:0:0:0:
301,312,30300,2,0,L|377:302,1,60.5000018463135,10|2,2:0|3:2,0:0:0:0:
420,314,30600,101,10,0:0:0:0:
445,195,30900,1,10,0:0:0:0:
397,83,31200,2,0,P|316:76|263:104,1,121.000003692627,10|10,0:0|0:0,0:0:0:0:
217,194,31800,6,0,L|290:185,1,60.5000018463135,10|2,0:2|3:2,0:0:0:0:
307,239,32100,2,0,L|390:251,1,60.5000018463135,10|2,0:2|3:2,0:0:0:0:
431,277,32400,1,10,0:2:0:0:
431,277,32550,1,8,3:2:0:0:
431,277,32700,1,2,3:2:0:0:
479,147,33000,1,4,0:2:0:0:
395,59,33300,102,0,L|322:56,1,60.5000018463135,10|2,0:0|3:2,0:0:0:0:
291,99,33600,2,0,L|219:102,1,60.5000018463135,10|0,0:0|3:0,0:0:0:0:
197,152,33900,2,0,L|118:178,1,60.5000018463135,10|2,0:0|3:2,0:0:0:0:
101,218,34200,1,10,0:0:0:0:
133,342,34500,6,0,L|205:351,1,60.5000018463135,8|0,0:0|3:0,0:0:0:0:
246,320,34800,2,0,L|310:310,1,60.5000018463135,8|0,0:0|3:0,0:0:0:0:
360,336,35100,1,8,0:0:0:0:
417,229,35400,101,10,0:0:0:0:
381,113,35700,1,10,0:0:0:0:
264,110,36000,1,10,0:0:0:0:
264,110,36150,1,2,3:2:0:0:
264,110,36300,2,0,P|218:121|199:148,1,60.5000018463135,10|0,0:0|3:0,0:0:0:0:
174,179,36600,5,10,0:2:0:0:
55,202,36900,1,10,0:2:0:0:
81,320,37200,1,10,0:2:0:0:
207,303,37500,1,8,0:0:0:0:
207,303,37650,1,8,0:0:0:0:
207,303,37800,1,4,0:0:0:0:
272,190,38100,101,10,0:0:0:0:
272,190,38250,2,0,L|340:184,2,60.5000018463135,2|10|0,3:2|0:0|3:0,0:0:0:0:
275,265,38700,2,0,L|336:259,1,60.5000018463135,10|2,0:0|3:2,0:0:0:0:
395,253,39000,1,10,0:0:0:0:
453,346,39300,6,0,L|372:364,1,60.5000018463135,8|0,0:0|3:0,0:0:0:0:
330,357,39600,2,0,L|262:353,1,60.5000018463135,10|2,0:0|3:2,0:0:0:0:
215,325,39900,2,0,L|146:288,1,60.5000018463135,10|2,0:0|3:2,0:0:0:0:
130,240,40200,6,0,L|133:168,2,63.250001206398,10|0|2,0:0|3:0|3:2,0:0:0:0:
66,245,40650,2,0,L|64:173,2,63.250001206398,10|0|2,0:0|3:0|3:2,0:0:0:0:
2,247,41100,1,10,0:0:0:0:
88,339,41400,69,10,0:0:0:0:
188,262,41700,1,10,3:2:0:0:
158,144,42000,85,10,3:2:0:0:
158,144,42150,1,10,3:2:0:0:
97,83,42450,38,0,P|160:61|222:93,1,123.750004720688,6|8,3:2|0:2,0:0:0:0:
274,136,43200,1,0,3:0:0:0:
274,136,43350,2,0,L|273:186,2,41.2500015735627,0|8|2,3:0|0:2|3:3,0:0:0:0:
353,97,43950,5,2,3:2:0:0:
353,97,44100,1,10,0:0:0:0:
420,140,44400,2,0,L|436:190,1,41.2500015735627,2|2,3:2|3:2,0:0:0:0:
441,219,44700,2,0,L|440:270,1,41.2500015735627,10|2,0:2|3:3,0:0:0:0:
428,300,45000,1,2,0:2:0:0:
345,291,45300,102,0,L|288:289,1,41.2500015735627,10|0,0:2|0:0,0:0:0:0:
268,311,45600,2,0,L|210:316,1,41.2500015735627,2|0,3:2|3:0,0:0:0:0:
192,303,45900,1,10,0:2:0:0:
192,303,46050,1,2,3:3:0:0:
167,224,46350,6,0,L|163:168,1,41.2500015735627,0|8,3:0|0:2,0:0:0:0:
224,125,46800,2,0,L|225:76,1,41.2500015735627,2|2,3:2|3:2,0:0:0:0:
180,13,47250,102,0,P|147:10|60:53,1,123.750004720688,6|8,3:2|0:0,0:0:0:0:
57,128,48000,2,0,L|10:137,2,41.2500015735627,0|0|8,3:0|3:0|0:2,0:0:0:0:
55,169,48450,1,2,3:3:0:0:
140,175,48750,5,2,3:2:0:0:
140,175,48900,1,10,0:2:0:0:
220,155,49200,2,0,L|268:157,1,41.2500015735627,2|0,3:2|3:0,0:0:0:0:
299,173,49500,2,0,L|353:186,1,41.2500015735627,10|2,0:2|3:3,0:0:0:0:
362,216,49800,2,0,P|363:249|340:308,1,82.5000031471254,2|10,0:2|0:2,0:0:0:0:
275,335,50400,2,0,P|230:329|190:308,1,82.5000031471254,2|10,3:2|3:2,0:0:0:0:
180,274,50850,5,10,0:2:0:0:
209,196,51150,1,10,0:2:0:0:
133,163,51450,1,10,0:2:0:0:
162,86,51750,1,10,0:2:0:0:
70,66,52050,86,0,P|50:93|40:162,1,93.500001783371,14|0,3:2|0:0,0:0:0:0:
40,197,52500,1,8,0:2:0:0:
87,283,52800,1,0,3:0:0:0:
87,283,52950,2,0,L|148:284,1,46.7500008916855,0|8,3:0|0:2,0:0:0:0:
180,286,53250,1,0,3:2:0:0:
254,228,53550,5,2,3:2:0:0:
254,228,53700,1,10,0:2:0:0:
236,139,54000,2,0,L|220:80,1,46.7500008916855,2|2,3:2|3:2,0:0:0:0:
246,59,54300,2,0,L|271:0,1,46.7500008916855,10|2,0:2|3:0,0:0:0:0:
317,5,54600,2,0,L|422:11,1,93.500001783371,2|10,0:2|0:2,0:0:0:0:
438,99,55200,102,0,L|431:158,2,46.7500008916855,2|2|10,3:2|3:2|0:2,0:0:0:0:
391,95,55650,2,0,P|358:88|293:102,1,93.500001783371,2|2,3:2|3:2,0:0:0:0:
260,123,56100,1,8,0:2:0:0:
206,199,56400,2,0,L|211:267,1,46.7500008916855,2|2,3:2|3:2,0:0:0:0:
211,292,56700,1,10,0:2:0:0:
263,293,56850,70,0,P|294:270|424:263,1,156.749995814324,14|10,3:2|0:0,0:0:0:0:
456,277,57450,37,2,0:2:0:0:
501,183,57750,1,2,3:2:0:0:
432,118,58050,2,0,P|384:107|325:131,1,93.500001783371,14|2,3:2|0:2,0:0:0:0:
300,141,58500,1,8,0:2:0:0:
281,232,58800,5,2,3:2:0:0:
279,278,58950,2,0,L|275:333,1,46.7500008916855,2|10,3:2|0:2,0:0:0:0:
235,348,59250,2,0,P|190:367|98:335,1,140.250002675056,14|8,3:2|0:2,0:0:0:0:
82,301,59850,1,2,0:2:0:0:
90,255,60000,2,0,P|131:229|191:234,1,93.500001783371,2|8,3:2|0:2,0:0:0:0:
282,255,60600,5,0,3:0:0:0:
282,255,60750,1,8,0:2:0:0:
346,166,61050,1,8,0:2:0:0:
261,113,61350,1,8,0:2:0:0:
199,206,61650,86,0,P|151:195|101:216,1,98.9999969787598,4|8,0:0|0:0,0:0:0:0:
27,268,62400,2,0,P|12:216|31:168,1,98.9999969787598,2|8,3:2|0:0,0:0:0:0:
50,153,63000,2,0,P|64:105|47:48,1,98.9999969787598,2|0,0:0|0:0,0:0:0:0:
62,26,63600,2,0,P|110:8|133:11,1,65.9999979858399,2|8,3:2|0:2,0:0:0:0:
186,67,64200,6,0,P|234:93|317:68,1,131.99999597168,6|0,3:2|0:0,0:0:0:0:
379,33,65100,2,0,L|419:38,1,32.9999989929199,10|2,3:2|0:0,0:0:0:0:
444,43,65400,1,2,3:2:0:0:
472,126,65700,101,8,3:3:0:0:
472,126,65850,1,8,0:3:0:0:
472,126,66000,2,0,L|469:159,1,32.9999989929199,8|8,3:3|0:3,0:0:0:0:
459,190,66300,2,4,L|457:226,1,32.9999989929199,2|0,3:2|0:3,0:3:0:0:
445,254,66600,6,4,P|395:261|345:236,1,98.9999969787598,6|8,3:2|0:0,0:0:0:0:
322,225,67200,1,0,3:0:0:0:
388,166,67500,2,0,L|385:127,1,32.9999989929199,10|2,3:2|0:0,0:0:0:0:
382,94,67800,1,2,3:2:0:0:
325,38,68100,1,2,3:2:0:0:
293,114,68400,1,10,3:2:0:0:
241,56,68700,1,2,3:2:0:0:
177,106,69000,102,4,P|128:96|106:107,1,65.9999979858399,10|0,3:2|3:0,0:0:0:0:
94,127,69450,2,4,P|77:174|85:196,1,65.9999979858399,10|0,0:2|0:0,0:0:0:0:
100,226,69900,1,10,3:2:0:0:
100,226,70050,1,2,0:0:0:0:
100,226,70200,2,0,L|172:223,1,65.9999979858399,2|0,3:2|3:2,0:0:0:0:
244,218,70800,5,2,3:2:0:0:
236,140,71100,1,2,3:2:0:0:
226,62,71400,2,4,P|272:46|300:53,1,65.9999979858399,6|0,3:2|3:3,0:0:0:0:
310,124,72000,1,2,3:2:0:0:
317,204,72300,1,2,3:2:0:0:
327,283,72600,2,0,P|376:283|402:266,1,65.9999979858399,2|0,3:2|3:2,0:0:0:0:
433,203,73200,101,2,3:2:0:0:
435,124,73500,1,2,3:2:0:0:
382,63,73800,1,10,3:2:0:0:
334,127,74100,1,2,3:2:0:0:
317,204,74400,2,0,L|316:243,2,32.9999989929199,2|2|10,3:2|0:0|3:2,0:0:0:0:
397,252,75000,2,0,P|443:269|471:263,1,65.9999979858399,2|4,3:0|0:3,0:0:0:0:
472,182,75600,6,0,L|473:146,1,27.5,2|0,3:2|3:0,3:0:0:0:
474,119,75900,1,10,0:2:0:0:
386,96,76200,102,0,P|353:81|302:92,1,82.5000031471254,6|4,0:0|3:3,0:0:0:0:
246,149,76800,2,0,P|266:178|266:226,1,82.5000031471254,4|4,3:3|3:3,0:0:0:0:
238,254,77250,2,0,P|229:288|243:331,1,82.5000031471254,4|4,0:3|0:3,0:0:0:0:
335,331,77850,1,4,0:3:0:0:
335,331,78000,2,0,L|387:327,1,44,4|4,3:3|0:3,0:0:0:0:
386,284,78300,2,0,L|378:222,1,44,4|4,3:3|0:3,0:0:0:0:
351,200,78600,70,0,P|398:172|503:191,1,148.49999546814,14|14,0:2|0:0,0:0:0:0:
483,329,79500,2,0,P|433:353|328:335,1,148.49999546814,14|14,0:0|0:0,0:0:0:0:
252,238,80400,38,0,L|252:98,1,123.750004720688,4|0,2:2|0:0,3:0:0:0:
215,58,81000,70,0,P|139:31|74:49,1,131.99999597168,6|10,3:2|0:2,0:0:0:0:
80,172,81600,54,0,L|235:199,1,131.99999597168,2|8,3:2|0:0,0:0:0:0:
275,200,82050,6,0,P|350:173|418:189,1,131.99999597168,2|2,3:2|3:2,0:0:0:0:
428,309,82650,102,0,L|273:336,1,131.99999597168,2|0,0:0|3:0,0:0:0:0:
231,332,83100,1,10,0:2:0:0:
162,225,83400,102,0,P|156:146|183:102,1,110,6|10,3:2|0:2,0:0:0:0:
270,134,84000,2,0,P|279:193|259:244,1,110,2|10,3:2|0:2,0:0:0:0:
225,288,84450,2,0,P|156:308|70:253,1,165,2|8,3:2|0:2,0:0:0:0:
112,161,85200,5,2,3:2:0:0:
31,85,85500,2,0,L|37:27,1,55,10|2,0:2|0:2,0:0:0:0:
88,12,85800,102,0,P|145:-6|201:15,1,110,6|10,3:2|0:2,0:0:0:0:
270,84,86400,2,0,L|255:202,1,110,2|10,3:2|0:2,0:0:0:0:
220,252,86850,2,0,L|233:367,1,110,0|2,3:0|3:2,0:0:0:0:
342,369,87450,1,2,0:2:0:0:
389,269,87750,6,0,L|394:214,2,55,2|10|2,3:2|0:2|0:2,0:0:0:0:
333,264,88200,2,0,P|274:275|220:249,1,110,2|10,3:2|0:2,0:0:0:0:
160,170,88800,2,0,P|106:144|49:156,1,110,2|10,3:2|0:2,0:0:0:0:
19,190,89250,2,0,P|56:235|176:241,1,165,2|8,3:2|0:2,0:0:0:0:
248,187,90000,5,10,0:2:0:0:
241,77,90300,1,10,0:2:0:0:
138,40,90600,38,0,P|103:111|113:178,1,131.99999597168,6|10,3:2|0:0,0:0:0:0:
185,267,91200,54,0,L|342:261,1,131.99999597168,2|8,3:2|0:2,0:0:0:0:
382,259,91650,54,0,P|412:185|399:121,1,131.99999597168,2|2,3:2|3:2,0:0:0:0:
333,24,92250,54,0,L|190:30,1,131.99999597168,2|0,0:0|3:0,0:0:0:0:
135,36,92700,1,10,0:0:0:0:
125,153,93000,6,0,P|119:211|152:259,1,110,2|10,3:2|0:0,0:0:0:0:
254,241,93600,2,0,P|267:183|242:130,1,110,2|10,3:2|0:2,0:0:0:0:
250,82,94050,2,0,P|302:54|422:89,1,165,6|8,3:2|0:2,0:0:0:0:
424,180,94800,85,2,3:2:0:0:
369,275,95100,1,10,0:2:0:0:
272,327,95400,2,0,P|214:340|161:312,1,110,6|10,3:2|0:2,0:0:0:0:
89,244,96000,2,0,P|65:189|76:133,1,110,2|10,3:2|0:2,0:0:0:0:
105,96,96450,2,0,P|161:79|258:126,1,165,2|10,3:2|0:2,0:0:0:0:
293,223,97200,1,2,3:2:0:0:
375,149,97500,1,10,0:2:0:0:
470,181,97800,6,0,P|490:236|470:294,1,110,2|8,3:2|0:2,0:0:0:0:
444,332,98250,1,0,3:0:0:0:
395,360,98400,2,0,P|338:377|281:354,1,110,2|8,3:2|0:0,0:0:0:0:
200,312,99000,6,0,L|174:242,1,55,8|0,0:0|3:0,0:0:0:0:
165,210,99300,2,0,L|186:140,1,55,8|0,0:0|3:0,0:0:0:0:
229,167,99600,1,8,0:0:0:0:
229,167,99750,1,2,3:2:0:0:
229,167,99900,2,0,L|294:184,1,55,10|2,2:0|3:2,0:0:0:0:
326,191,100200,6,0,P|347:135|330:83,1,98.9999969787599,6|10,3:2|0:2,0:0:0:0:
289,101,100650,2,0,P|279:42|306:-3,1,98.9999969787599,6|0,3:2|3:3,0:0:0:0:
344,10,101100,1,10,0:0:0:0:
396,22,101250,2,0,P|433:58|429:161,1,148.49999546814,6|8,3:2|0:2,0:0:0:0:
376,230,102000,5,4,3:0:0:0:
376,230,102150,2,0,L|309:229,1,49.4999984893799,2|8,3:2|0:0,0:0:0:0:
227,227,102450,1,2,0:0:0:0:
227,227,102600,102,0,P|206:171|223:119,1,98.9999969787599,6|10,3:2|0:0,0:0:0:0:
263,127,103050,2,0,P|273:68|247:21,1,98.9999969787599,6|0,3:2|3:0,0:0:0:0:
208,28,103500,1,10,0:0:0:0:
158,28,103650,2,0,P|120:64|126:165,1,148.49999546814,6|8,3:2|0:0,0:0:0:0:
150,249,104400,6,8,L|217:260,1,49.4999984893799,10|8,0:2|0:2,0:2:0:0:
247,262,104700,2,4,L|306:254,1,49.4999984893799,2|2,3:2|3:2,3:3:0:0:
345,255,105000,102,0,P|368:207|358:157,1,98.9999969787599,6|10,3:2|0:0,0:0:0:0:
311,170,105450,2,0,P|294:120|306:72,1,98.9999969787599,6|0,3:2|3:0,0:0:0:0:
324,31,105900,1,10,0:0:0:0:
276,15,106050,2,0,P|226:-7|133:39,1,148.49999546814,6|8,3:2|0:2,0:0:0:0:
103,116,106800,5,0,3:0:0:0:
97,165,106950,2,0,L|42:156,2,49.4999984893799,2|10|2,3:2|0:0|0:2,0:0:0:0:
152,176,107400,102,0,P|179:131|177:80,1,98.9999969787599,6|10,3:2|0:0,0:0:0:0:
218,75,107850,2,0,P|269:64|316:85,1,98.9999969787599,6|0,3:2|3:0,0:0:0:0:
350,110,108300,1,10,0:0:0:0:
350,110,108450,1,6,3:2:0:0:
456,105,108750,37,0,3:2:0:0:
456,105,108900,1,8,0:2:0:0:
456,105,109050,2,0,L|441:162,1,49.4999984893799,0|8,3:2|0:2,0:0:0:0:
405,252,109500,5,10,0:2:0:0:
290,239,109800,86,0,L|254:99,1,131.99999597168,6|10,3:2|0:0,0:0:0:0:
204,71,110250,2,0,L|51:78,1,131.99999597168,2|0,3:2|3:0,0:0:0:0:
21,118,110700,1,10,0:0:0:0:
16,183,110850,2,0,B|41:257|41:257|187:287,1,197.99999395752,2|8,0:0|0:2,0:0:0:0:
268,204,111600,69,8,0:2:0:0:
268,204,111750,1,2,3:2:0:0:
268,204,111900,2,0,L|278:135,1,65.9999979858399,10|2,0:0|3:2,0:0:0:0:
337,110,112200,38,0,L|500:96,1,131.99999597168,10|10,0:0|0:0,0:0:0:0:
499,156,112650,2,0,L|514:306,1,131.99999597168,2|0,3:2|3:0,0:0:0:0:
464,333,113100,1,10,0:0:0:0:
400,352,113250,2,0,B|307:355|307:355|202:274,1,197.99999395752,2|8,0:0|0:0,0:0:0:0:
224,162,114000,69,8,0:0:0:0:
224,162,114150,1,2,3:2:0:0:
190,54,114450,1,10,3:2:0:0:
190,54,114600,38,0,L|28:72,1,131.99999597168,10|10,0:0|0:0,0:0:0:0:
47,133,115050,2,0,L|67:275,1,131.99999597168,2|0,3:2|3:0,0:0:0:0:
122,296,115500,1,10,0:0:0:0:
186,309,115650,2,0,B|262:314|262:314|337:194,1,197.99999395752,2|8,0:0|0:0,0:0:0:0:
379,91,116400,69,10,0:2:0:0:
379,91,116550,2,0,L|302:87,1,65.9999979858399,2|10,3:2|0:2,0:0:0:0:
252,60,116850,2,0,P|204:38|115:58,1,131.99999597168,2|0,3:2|0:0,0:0:0:0:
84,100,117300,1,2,3:2:0:0:
129,224,117600,1,0,0:0:0:0:
253,282,117900,1,2,3:2:0:0:
253,282,118050,38,0,L|252:124,1,131.99999597168,10|8,3:2|3:2,0:0:0:0:
254,22,118650,53,8,3:2:0:0:
254,22,118800,1,8,3:2:0:0:
245,194,127950,118,8,L|246:134,1,41.2500015735627
257,119,128250,1,0,3:0:0:0:
257,119,128400,1,0,3:0:0:0:
257,119,128550,1,0,3:0:0:0:
176,79,128850,102,0,P|142:112|132:198,1,123.750004720688,4|2,3:2|3:0,0:0:0:0:
137,267,129600,1,8,0:2:0:0:
223,267,129900,1,2,0:3:0:0:
223,267,130050,2,0,P|214:220|253:146,1,123.750004720688,0|2,3:0|3:0,0:0:0:0:
313,107,130800,1,8,0:2:0:0:
389,63,131100,5,2,0:3:0:0:
389,63,131250,2,0,P|351:34|262:38,1,123.750004720688,0|2,3:0|3:0,0:0:0:0:
199,59,132000,1,8,0:2:0:0:
199,141,132300,1,2,0:3:0:0:
199,141,132450,2,0,P|158:166|71:156,1,123.750004720688,0|2,3:0|3:0,0:0:0:0:
13,96,133200,54,8,B|1:58|1:58|17:26,2,61.875002360344,8|8|8,0:2|0:2|0:2,0:2:0:0:
58,76,133800,38,0,P|99:52|226:79,1,165.000006294251,4|8,3:2|0:2,0:0:0:0:
263,155,134700,1,2,0:3:0:0:
263,155,134850,2,0,P|305:175|388:156,1,123.750004720688,0|2,3:0|3:0,0:0:0:0:
454,128,135600,1,8,0:2:0:0:
498,203,135900,5,2,0:3:0:0:
498,203,136050,2,0,P|506:249|459:328,1,123.750004720688,0|2,3:0|3:0,0:0:0:0:
435,331,136650,1,4,0:3:0:0:
393,331,136800,2,0,L|340:316,1,41.2500015735627,8|0,0:3|3:0,0:0:0:0:
312,324,137100,2,0,L|252:327,1,41.2500015735627,0|0,3:0|3:0,0:0:0:0:
232,321,137400,5,4,2:2:0:0:
256,192,137550,12,2,138600,2:2:0:0:
197,107,147750,86,0,L|102:96,1,82.5000031471254,2|2,0:0|0:0,0:0:0:0:
74,90,148200,1,2,0:0:0:0:
77,176,148500,1,2,0:0:0:0:
77,176,148650,2,0,P|115:205|201:202,1,123.750004720688,2|2,0:0|0:0,0:0:0:0:
225,187,149250,2,0,P|290:180|347:214,1,123.750004720688,2|0,0:0|0:0,0:0:0:0:
414,261,150000,5,0,0:0:0:0:
414,261,150150,2,0,L|428:162,1,82.5000031471254,2|2,0:0|0:0,0:0:0:0:
431,138,150600,1,2,0:0:0:0:
377,76,150900,1,2,0:0:0:0:
377,76,151050,2,0,P|339:105|250:104,1,123.750004720688,2|2,0:0|0:0,0:0:0:0:
223,110,151650,2,0,P|175:117|102:75,1,123.750004720688,2|0,0:0|0:0,0:0:0:0:
41,33,152400,101,0,0:0:0:0:
41,33,152550,2,0,L|-6:32,2,41.2500015735627,2|2|2,0:0|0:0|0:0,0:0:0:0:
62,3,153000,1,2,0:0:0:0:
114,81,153300,1,2,0:0:0:0:
114,81,153450,2,0,P|101:127|134:205,1,123.750004720688,2|2,0:0|0:0,0:0:0:0:
170,199,154050,2,0,P|195:158|183:71,1,123.750004720688,2|0,0:0|0:0,0:0:0:0:
161,5,154800,6,0,L|218:2,1,41.2500015735627,2|2,3:2|0:2,0:0:0:0:
246,9,155100,2,0,L|307:25,1,44,6|2,3:2|0:2,0:0:0:0:
324,52,155400,101,4,3:2:0:0:
238,102,155700,1,6,3:2:0:0:
333,143,156000,5,6,3:2:0:0:
240,202,156300,1,6,3:2:0:0:
351,232,156600,101,4,3:2:0:0:
243,287,156900,1,4,3:2:0:0:
164,180,157200,6,8,L|167:85,2,65.9999979858399,8|8|8,0:2|0:2|0:2,0:2:0:0:
166,227,157650,53,10,3:2:0:0:
300,239,157950,1,0,3:0:0:0:
300,239,158100,1,6,0:2:0:0:
410,166,158400,54,0,L|414:93,2,65.9999979858399,8|8|8,2:2|2:2|2:2,0:0:0:0:
406,196,158850,53,10,3:2:0:0:
293,137,159150,1,0,3:0:0:0:
293,137,159300,1,6,0:2:0:0:
193,58,159600,53,8,0:3:0:0:
193,58,159750,2,8,L|169:137,1,65.9999979858399,8|4,0:3|0:3,0:3:0:0:
162,175,160050,54,0,P|145:219|182:297,1,131.99999597168,14|2,0:2|3:2,0:0:0:0:
236,322,160500,1,6,0:2:0:0:
361,277,160800,54,8,L|453:271,2,65.9999979858399,8|8|8,0:2|0:2|0:2,0:2:0:0:
323,258,161250,53,10,3:2:0:0:
254,152,161550,1,0,3:0:0:0:
254,152,161700,1,6,0:2:0:0:
165,249,162000,54,8,L|176:322,1,65.9999979858399,8|0,2:0|3:0,2:0:0:0:
209,340,162300,5,10,2:0:0:0:
209,340,162450,1,10,3:2:0:0:
283,232,162750,1,0,3:0:0:0:
283,232,162900,1,6,0:2:0:0:
287,93,163200,102,0,L|301:23,2,65.9999979858399,8|8|8,0:2|0:2|0:2,0:0:0:0:
288,119,163650,53,10,3:2:0:0:
175,115,163950,1,0,3:0:0:0:
175,115,164100,1,6,0:2:0:0:
152,248,164400,37,8,0:3:0:0:
152,248,164550,2,0,L|75:203,1,65.9999979858399,8|4,0:3|0:3,0:0:0:0:
59,161,164850,70,0,P|42:117|79:37,1,131.99999597168,10|0,3:2|3:0,0:0:0:0:
109,27,165300,1,6,0:2:0:0:
236,61,165600,54,0,L|316:75,2,65.9999979858399,8|8|8,0:2|0:2|0:2,0:0:0:0:
210,87,166050,53,10,3:2:0:0:
150,210,166350,1,0,3:0:0:0:
150,210,166500,1,6,0:2:0:0:
289,245,166800,2,0,B|343:236|343:236|364:193,2,87.9999973144532,8|8|8,0:2|0:2|0:2,0:0:0:0:
233,225,167400,70,0,P|241:147|327:74,1,176,2|0,0:2|0:0,0:2:0:0:
85,44,168600,38,0,P|79:124|111:184,1,131.99999597168,6|10,3:2|0:2,0:0:0:0:
227,202,169200,54,0,L|370:167,1,131.99999597168,2|10,3:2|0:2,0:0:0:0:
408,211,169650,54,0,P|413:291|376:347,1,131.99999597168,2|2,3:2|3:2,0:0:0:0:
260,366,170250,54,0,L|112:330,1,131.99999597168,2|0,0:2|3:0,0:0:0:0:
68,315,170700,1,10,0:2:0:0:
39,208,171000,102,0,P|33:129|60:85,1,110,2|10,3:2|0:2,0:0:0:0:
155,99,171600,2,0,P|161:178|134:222,1,110,2|10,3:2|0:2,3:2:0:0:
196,231,172050,2,0,P|275:232|346:185,1,165,2|8,3:2|0:2,0:0:0:0:
375,81,172800,1,2,3:2:0:0:
288,13,173100,2,0,L|208:20,1,55,10|2,0:2|0:2,0:0:0:0:
180,33,173400,5,6,3:2:0:0:
183,142,173700,1,10,0:2:0:0:
80,181,174000,2,0,L|81:302,1,110,2|10,3:2|0:2,3:0:0:0:
127,319,174450,2,0,L|260:341,1,110,2|2,3:2|3:2,0:0:0:0:
289,327,174900,1,10,0:2:0:0:
289,327,175050,1,2,0:2:0:0:
335,227,175350,1,2,3:2:0:0:
335,227,175500,2,0,L|339:163,1,55,10|2,0:2|0:2,0:0:0:0:
344,117,175800,102,0,P|268:92|219:107,1,110,2|10,3:2|0:2,0:0:0:0:
202,200,176400,2,0,P|147:204|98:180,1,110,2|10,3:2|0:2,0:0:0:0:
46,163,176850,2,0,P|27:241|63:313,1,165,2|8,3:2|0:2,0:0:0:0:
172,332,177600,1,10,3:2:0:0:
237,244,177900,1,10,3:2:0:0:
163,153,178200,70,0,P|139:76|156:10,1,131.99999597168,6|10,3:2|0:2,0:0:0:0:
279,40,178800,54,0,L|320:192,1,131.99999597168,2|8,3:2|0:2,0:0:0:0:
336,226,179250,54,0,P|337:306|302:364,1,131.99999597168,2|2,3:2|3:2,0:0:0:0:
170,340,179850,54,0,L|210:206,1,131.99999597168,2|0,3:2|3:0,0:0:0:0:
224,158,180300,1,10,0:2:0:0:
311,91,180600,102,0,P|390:87|433:116,1,110,2|10,3:2|0:2,0:0:0:0:
431,209,181200,2,0,P|430:288|399:329,1,110,2|10,3:2|0:2,0:0:0:0:
360,319,181650,2,0,P|335:243|359:160,1,165,2|8,3:2|0:2,0:0:0:0:
398,63,182400,1,2,3:2:0:0:
304,5,182700,1,10,0:2:0:0:
216,72,183000,6,0,P|139:92|91:74,1,110,6|10,3:2|0:2,3:0:0:0:
24,152,183600,2,0,P|0:227|14:276,1,110,2|10,3:2|0:2,3:0:0:0:
59,250,184050,2,0,P|134:225|224:252,1,165,2|10,3:2|0:0,0:0:0:0:
290,326,184800,1,2,3:2:0:0:
393,288,185100,1,10,0:0:0:0:
452,195,185400,102,0,P|442:116|407:78,1,110,2|8,3:2|0:2,0:0:0:0:
388,59,185850,1,0,3:2:0:0:
347,31,186000,2,0,P|268:17|221:40,1,110,2|8,3:2|0:2,0:0:0:0:
144,97,186600,70,0,L|75:115,2,55,8|0|8,0:2|3:0|0:0,0:0:0:0:
138,160,187050,1,0,3:0:0:0:
127,216,187200,2,0,L|183:233,1,55,8|10,3:2|0:2,0:0:0:0:
234,227,187500,2,0,L|298:219,1,55,10|10,3:2|0:2,0:0:0:0:
311,169,187800,38,0,P|334:142|416:110,1,112.200000684814,6|10,3:2|0:2,0:0:0:0:
434,158,188250,2,0,P|430:237|398:277,1,112.200000684814,6|0,3:2|3:0,0:0:0:0:
370,300,188700,1,10,0:2:0:0:
321,327,188850,2,0,P|241:327|197:298,1,112.200000684814,6|0,3:2|3:0,0:0:0:0:
164,287,189300,1,8,0:2:0:0:
119,183,189600,5,4,3:3:0:0:
119,183,189750,2,0,L|113:110,2,56.1000003424072,2|10|2,3:2|0:2|0:2,0:0:0:0:
174,201,190200,2,0,P|249:225|300:208,1,115.49999647522,6|10,3:2|0:2,0:0:0:0:
310,167,190650,2,0,P|364:109|414:101,1,115.49999647522,6|0,3:2|3:0,0:0:0:0:
453,86,191100,1,10,0:2:0:0:
440,29,191250,2,0,P|362:13|316:34,1,115.49999647522,6|0,3:2|3:0,0:0:0:0:
271,28,191700,1,8,0:2:0:0:
161,66,192000,101,0,3:0:0:0:
161,66,192150,1,2,3:2:0:0:
161,66,192300,2,0,L|144:127,1,57.7499982376099,10|2,0:2|0:2,0:0:0:0:
117,173,192600,2,0,P|116:252|145:298,1,117.699996408081,6|10,3:2|0:2,0:0:0:0:
192,291,193050,2,0,P|230:221|225:166,1,117.699996408081,6|0,3:2|3:2,0:0:0:0:
235,125,193500,1,10,0:2:0:0:
293,134,193650,2,0,P|318:209|304:262,1,117.699996408081,6|0,3:2|3:2,0:0:0:0:
299,303,194100,1,8,0:2:0:0:
415,319,194400,6,0,L|410:250,1,58.8499982040406,4|2,3:3|3:2,0:0:0:0:
445,212,194700,2,0,L|452:145,1,58.8499982040406,10|2,0:2|0:2,0:0:0:0:
460,93,195000,2,0,P|384:67|328:82,1,121.000003692627,6|10,3:2|0:2,0:0:0:0:
336,134,195450,2,0,P|350:212|327:265,1,121.000003692627,6|0,3:2|3:0,0:0:0:0:
314,305,195900,1,10,0:2:0:0:
314,305,196050,1,6,3:2:0:0:
196,278,196350,5,0,3:2:0:0:
185,218,196500,1,8,0:2:0:0:
176,158,196650,2,0,L|166:94,1,60.5000018463135,0|8,3:2|0:2,0:0:0:0:
59,66,197100,1,10,0:2:0:0:
44,174,197400,38,0,L|59:325,1,123.200001503906,6|10,3:2|0:2,0:0:0:0:
111,324,197850,2,0,L|256:328,1,123.200001503906,2|0,3:2|3:0,0:0:0:0:
296,323,198300,1,10,0:2:0:0:
332,273,198450,2,0,B|365:216|365:216|305:92,1,184.800002255859,2|8,0:2|0:2,0:0:0:0:
248,17,199200,69,8,0:0:0:0:
248,17,199350,1,2,3:2:0:0:
248,17,199500,2,0,L|312:-2,1,61.6000007519531,10|2,0:2|3:2,2:0:0:0:
368,15,199800,2,0,L|424:149,1,126.500002412796,10|10,0:2|0:2,0:0:0:0:
409,194,200250,2,0,L|271:236,1,126.500002412796,2|0,3:2|3:0,0:0:0:0:
224,237,200700,1,10,0:2:0:0:
165,214,200850,2,0,B|106:187|106:187|-16:258,1,189.750003619194,2|8,0:2|0:2,0:0:0:0:
45,373,201600,37,8,0:2:0:0:
45,373,201750,1,2,3:2:0:0:
175,370,202050,1,10,3:2:0:0:
175,370,202200,2,0,L|314:350,1,128.700000490952,10|10,0:2|0:2,0:0:0:0:
365,338,202650,2,0,L|385:200,1,128.700000490952,2|0,3:2|3:0,0:0:0:0:
388,146,203100,1,10,0:2:0:0:
368,84,203250,2,0,B|354:24|354:24|224:0,1,193.050000736427,2|8,0:2|0:2,0:0:0:0:
127,85,204000,70,0,L|44:74,2,64.3500002454758,10|2|10,0:2|3:2|0:2,0:0:0:0:
101,144,204450,2,0,P|67:216|76:271,1,128.700000490952,2|0,3:2|0:0,0:0:0:0:
116,313,204900,1,2,0:0:0:0:
245,287,205200,1,2,0:0:0:0:
338,193,205500,37,2,3:2:0:0:
338,193,205650,2,0,L|182:178,1,131.99999597168,10|8,3:2|3:2,0:0:0:0:
79,170,206250,69,8,3:2:0:0:
79,170,206400,1,8,3:2:0:0:
