osu file format v14

[General]
AudioFilename: audio.mp3
AudioLeadIn: 0
PreviewTime: -1
Countdown: 0
SampleSet: None
StackLeniency: 0.7
Mode: 0
LetterboxInBreaks: 0
WidescreenStoryboard: 1

[Editor]
Bookmarks: 81066,168629
DistanceSpacing: 1
BeatDivisor: 4
GridSize: 16
TimelineZoom: 2.1

[Metadata]
Title:Additional Memory
TitleUnicode:Additional Memory
Artist:Jin
ArtistUnicode:Jin
Creator:Soahi
Version:Goodbye
Source:additional memory
Tags:Additional Memory, Jin
BeatmapID:1916705
BeatmapSetID:917858

[Difficulty]
HPDrainRate:5
CircleSize:4
OverallDifficulty:8
ApproachRate:9.1
SliderMultiplier:1.7
SliderTickRate:1

[Events]
//Background and Video events
0,0,"Bz.png",0,0
//Break Periods
2,119366,168082
//Storyboard Layer 0 (Background)
//Storyboard Layer 1 (Fail)
//Storyboard Layer 2 (Pass)
//Storyboard Layer 3 (Foreground)
//Storyboard Sound Samples

[TimingPoints]
13866.9923934664,300,4,1,0,100,1,0
81066,-66.6666666666667,4,1,0,100,0,0
82116,-55.5555555555556,4,1,0,100,0,0
83466,-66.6666666666667,4,1,0,100,0,0
84666,-55.5555555555556,4,1,0,100,0,0
85266,-66.6666666666667,4,1,0,100,0,0
86916,-55.5555555555556,4,1,0,100,0,0
88266,-66.6666666666667,4,1,0,100,0,0
89166,-55.5555555555556,4,1,0,100,0,0
90666,-66.6666666666667,4,1,0,100,0,0
92316,-100,4,1,0,100,0,0
93066,-66.6666666666667,4,1,0,100,0,0
94116,-100,4,1,0,100,0,0
95166,-66.6666666666667,4,1,0,100,0,0
96516,-76.9230769230769,4,1,0,100,0,0
96966,-66.6666666666667,4,1,0,100,0,0
99066,-55.5555555555556,4,1,0,100,0,0
100266,-66.6666666666667,4,1,0,100,0,0
100716,-100,4,1,0,100,0,0
101166,-66.6666666666667,4,1,0,100,0,0
101316,-100,4,1,0,100,0,0
102666,-66.6666666666667,4,1,0,100,0,0
103116,-100,4,1,0,100,0,0
103566,-66.6666666666667,4,1,0,100,0,0
103716,-100,4,1,0,100,0,0
105066,-66.6666666666667,4,1,0,100,0,0
105516,-100,4,1,0,100,0,0
105966,-66.6666666666667,4,1,0,100,0,0
106116,-100,4,1,0,100,0,0
106866,-66.6666666666667,4,1,0,100,0,0
107916,-100,4,1,0,100,0,0
108366,-66.6666666666667,4,1,0,100,0,0
108516,-100,4,1,0,100,0,0
109866,-66.6666666666667,4,1,0,100,0,0
116916,-55.5555555555556,4,1,0,100,0,0
118866,-100,4,1,0,100,0,0
168666,-66.6666666666667,4,1,0,100,0,0
169716,-55.5555555555556,4,1,0,100,0,0
170316,-66.6666666666667,4,1,0,100,0,0
172266,-55.5555555555556,4,1,0,100,0,0
173466,-66.6666666666667,4,1,0,100,0,0
174516,-55.5555555555556,4,1,0,100,0,0
175866,-66.6666666666667,4,1,0,100,0,0
176766,-55.5555555555556,4,1,0,100,0,0
176916,-100,4,1,0,100,0,0
178266,-66.6666666666667,4,1,0,100,0,0
179916,-100,4,1,0,100,0,0
180366,-66.6666666666667,4,1,0,100,0,0
181716,-55.5555555555556,4,1,0,100,0,0
182766,-66.6666666666667,4,1,0,100,0,0
184116,-76.9230769230769,4,1,0,100,0,0
184716,-66.6666666666667,4,1,0,100,0,0
185166,-76.9230769230769,4,1,0,100,0,0
185466,-66.6666666666667,4,1,0,100,0,0
186666,-55.5555555555556,4,1,0,100,0,0
187866,-66.6666666666667,4,1,0,100,0,0
188316,-100,4,1,0,100,0,0
188766,-66.6666666666667,4,1,0,100,0,0
188916,-100,4,1,0,100,0,0
190266,-66.6666666666667,4,1,0,100,0,0
190716,-100,4,1,0,100,0,0
191166,-66.6666666666667,4,1,0,100,0,0
191316,-100,4,1,0,100,0,0
192666,-66.6666666666667,4,1,0,100,0,0
193116,-100,4,1,0,100,0,0
193566,-66.6666666666667,4,1,0,100,0,0
193716,-100,4,1,0,100,0,0
194466,-66.6666666666667,4,1,0,100,0,0
195516,-100,4,1,0,100,0,0
195966,-66.6666666666667,4,1,0,100,0,0
196116,-100,4,1,0,100,0,0
197466,-66.6666666666667,4,1,0,100,0,0
202266,-55.5555555555556,4,1,0,100,0,0
204666,-50,4,1,0,100,0,0
204966,-55.5555555555556,4,1,0,100,0,0
205716,-40,4,1,0,100,0,0
206466,-100,4,1,0,100,0,0
206916,300,4,1,0,100,1,0
206916,-200,4,1,0,100,0,0
216516,-100,4,1,0,100,0,0
216966,-133.333333333333,4,1,0,100,0,0
217416,-66.6666666666667,4,1,0,100,0,0
217716,-200,4,1,0,100,0,0
221616,-133.333333333333,4,1,0,100,0,0
222516,-200,4,1,0,100,0,0
223716,-333.333333333333,4,1,0,100,0,0

[HitObjects]
420,0,81066,6,0,P|435:86|408:141,1,127.500004863739
379,263,81366,1,0,0:0:0:0:
289,23,81516,1,0,0:0:0:0:
259,260,81666,6,0,P|244:174|283:103,1,127.500004863739
368,197,81966,1,0,0:0:0:0:
511,354,82116,2,0,P|363:316|335:425,1,229.499992996216
106,378,82416,2,0,P|219:347|249:263,1,152.999995330811
125,278,82716,1,0,0:0:0:0:
336,239,82866,1,0,0:0:0:0:
1,179,83016,1,0,0:0:0:0:
163,161,83166,1,0,0:0:0:0:
208,149,83241,1,0,0:0:0:0:
250,136,83316,1,0,0:0:0:0:
296,124,83391,1,0,0:0:0:0:
339,106,83466,2,0,L|491:52,1,127.500004863739
509,157,83766,1,0,0:0:0:0:
278,27,83916,1,0,0:0:0:0:
425,0,84066,2,0,L|388:138,1,127.500004863739
433,356,84366,1,0,0:0:0:0:
245,210,84516,1,0,0:0:0:0:
443,124,84666,2,0,P|319:130|248:25,1,229.499992996216
36,0,84966,1,0,0:0:0:0:
74,8,85041,1,0,0:0:0:0:
112,16,85116,1,0,0:0:0:0:
170,106,85266,2,0,P|48:136|30:228,1,191.250007295609
55,382,85566,1,0,0:0:0:0:
122,198,85716,1,0,0:0:0:0:
161,306,85866,2,0,L|339:322,1,127.500004863739
512,228,86166,1,0,0:0:0:0:
370,384,86316,1,0,0:0:0:0:
483,353,86466,2,0,L|385:220,1,127.500004863739
268,199,86766,1,0,0:0:0:0:
512,114,86916,2,0,P|407:135|299:42,1,229.499992996216
49,3,87216,1,0,0:0:0:0:
91,19,87291,1,0,0:0:0:0:
133,31,87366,2,0,L|228:61,1,76.4999976654053
276,171,87516,2,0,P|171:137|60:229,1,229.499992996216
42,354,87816,1,0,0:0:0:0:
30,80,87966,1,0,0:0:0:0:
169,245,88116,1,0,0:0:0:0:
172,353,88266,2,0,L|344:300,1,127.500004863739
322,145,88566,1,0,0:0:0:0:
406,379,88716,1,0,0:0:0:0:
501,265,88866,2,0,L|347:237,1,127.500004863739
188,318,89166,2,0,L|295:322,1,76.4999976654053
360,239,89316,2,0,P|467:250|459:26,1,382.499988327027
343,38,89766,1,0,0:0:0:0:
386,82,89841,1,0,0:0:0:0:
429,131,89916,1,0,0:0:0:0:
259,196,90066,1,0,0:0:0:0:
259,196,90141,1,0,0:0:0:0:
259,196,90216,1,0,0:0:0:0:
140,18,90366,1,0,0:0:0:0:
122,75,90441,1,0,0:0:0:0:
107,134,90516,1,0,0:0:0:0:
91,193,90591,1,0,0:0:0:0:
78,242,90666,2,0,L|28:411,1,127.500004863739
189,320,90966,1,0,0:0:0:0:
0,195,91116,1,0,0:0:0:0:
175,87,91266,2,0,P|143:133|197:219,1,127.500004863739
246,148,91566,1,0,0:0:0:0:
261,249,91716,2,0,P|293:295|239:381,1,127.500004863739
333,12,92016,1,0,0:0:0:0:
333,12,92091,1,0,0:0:0:0:
333,12,92166,2,0,L|332:113,1,63.7500024318696
415,133,92316,2,0,P|299:174|243:129,1,170
149,47,92766,1,0,0:0:0:0:
0,151,92916,1,0,0:0:0:0:
0,151,92991,1,0,0:0:0:0:
0,151,93066,2,0,P|129:163|168:255,1,191.250007295609
210,384,93366,2,0,P|244:267|343:223,1,191.250007295609
70,232,93666,1,0,0:0:0:0:
312,332,93816,1,0,0:0:0:0:
205,97,93966,2,0,L|217:183,1,63.7500024318696
211,288,94116,2,0,P|304:235|365:249,1,170
299,128,94566,1,0,0:0:0:0:
299,128,94641,1,0,0:0:0:0:
299,128,94716,1,0,0:0:0:0:
459,383,94866,1,0,0:0:0:0:
452,334,94941,1,0,0:0:0:0:
443,284,95016,1,0,0:0:0:0:
434,236,95091,1,0,0:0:0:0:
424,194,95166,2,0,L|392:30,1,127.500004863739
81,141,95466,2,0,P|189:155|240:117,1,127.500004863739
106,45,95766,1,0,0:0:0:0:
325,145,95916,1,0,0:0:0:0:
367,48,96066,2,0,P|273:24|205:72,1,127.500004863739
206,233,96366,1,0,0:0:0:0:
106,45,96516,2,0,P|53:56|131:207,1,276.249987354279
280,129,96966,1,0,0:0:0:0:
232,129,97041,1,0,0:0:0:0:
189,130,97116,2,0,L|108:138,1,63.7500024318696
20,317,97266,2,0,P|92:314|167:249,1,127.500004863739
66,209,97566,1,0,0:0:0:0:
187,384,97716,1,0,0:0:0:0:
307,225,97866,2,0,P|344:350|482:330,1,255.000009727478
201,324,98316,1,0,0:0:0:0:
201,324,98391,1,0,0:0:0:0:
201,324,98466,2,0,P|175:192|35:219,1,255.000009727478
110,285,98916,1,0,0:0:0:0:
319,356,99066,2,0,L|286:271,1,76.4999976654053
375,280,99216,2,0,L|402:180,1,76.4999976654053
506,192,99366,2,0,P|445:114|295:168,1,229.499992996216
394,206,99666,2,0,L|370:291,1,76.4999976654053
294,284,99816,2,0,L|327:376,1,76.4999976654053
441,380,99966,1,0,0:0:0:0:
485,356,100041,1,0,0:0:0:0:
509,312,100116,1,0,0:0:0:0:
489,266,100191,1,0,0:0:0:0:
470,220,100266,2,0,P|437:105|492:34,1,191.250007295609
207,26,100566,2,0,L|284:75,1,63.7500024318696
249,148,100716,2,0,P|337:124|319:2,1,212.5
228,253,101166,2,0,L|127:221,1,63.7500024318696
162,136,101316,2,0,P|71:190|92:268,1,170
134,382,101766,1,0,0:0:0:0:
0,129,101916,1,0,0:0:0:0:
218,268,102066,1,0,0:0:0:0:
0,303,102216,1,0,0:0:0:0:
107,267,102366,1,0,0:0:0:0:
115,213,102441,1,0,0:0:0:0:
151,176,102516,1,0,0:0:0:0:
202,165,102591,1,0,0:0:0:0:
246,155,102666,2,0,P|341:130|378:6,1,191.250007295609
230,14,102966,2,0,L|303:86,1,63.7500024318696
399,211,103116,2,0,P|313:242|296:387,1,212.5
442,348,103566,2,0,L|354:298,1,63.7500024318696
483,265,103716,2,0,P|489:170|404:112,1,170
294,131,104166,1,0,0:0:0:0:
512,46,104316,1,0,0:0:0:0:
403,215,104466,1,0,0:0:0:0:
403,215,104541,1,0,0:0:0:0:
403,215,104616,1,0,0:0:0:0:
233,35,104766,1,0,0:0:0:0:
26,137,104916,1,0,0:0:0:0:
119,176,105066,2,0,P|60:48|-30:48,1,191.250007295609
285,360,105366,2,0,L|217:312,1,63.7500024318696
252,219,105516,2,0,P|158:257|145:384,1,212.5
0,272,105966,2,0,L|80:243,1,63.7500024318696
48,124,106116,2,0,P|170:149|190:85,1,212.5
109,67,106566,1,0,0:0:0:0:
214,248,106716,1,0,0:0:0:0:
296,140,106866,2,0,L|262:-15,1,127.500004863739
392,133,107166,2,0,L|426:288,1,127.500004863739
512,274,107466,2,0,P|489:332|344:315,1,191.250007295609
293,4,107766,2,0,L|209:-42,1,63.7500024318696
82,157,107916,2,0,P|195:179|255:76,1,212.5
123,24,108366,2,0,L|164:100,1,63.7500024318696
168,303,108516,2,0,P|107:272|0:334,1,170
94,384,108966,1,0,0:0:0:0:
94,384,109041,1,0,0:0:0:0:
94,384,109116,1,0,0:0:0:0:
274,276,109266,1,0,0:0:0:0:
62,186,109416,1,0,0:0:0:0:
210,384,109566,1,0,0:0:0:0:
215,122,109716,1,0,0:0:0:0:
362,63,109866,6,0,L|533:11,1,127.500004863739,8|0,0:0|0:0,0:0:0:0:
440,145,110166,1,2,0:0:0:0:
289,0,110316,1,0,0:0:0:0:
310,201,110466,1,8,0:0:0:0:
418,31,110616,1,0,0:0:0:0:
215,122,110766,1,8,0:0:0:0:
5,51,110916,1,0,0:0:0:0:
93,0,111066,2,0,L|120:160,1,127.500004863739,2|0,0:0|0:0,0:0:0:0:
186,361,111366,2,0,L|196:175,1,127.500004863739,2|0,0:0|0:0,0:0:0:0:
229,108,111666,1,2,0:0:0:0:
51,291,111816,1,0,0:0:0:0:
0,124,111966,1,0,0:0:0:0:
45,145,112041,1,0,0:0:0:0:
89,166,112116,1,0,0:0:0:0:
131,185,112191,1,0,0:0:0:0:
174,202,112266,2,0,L|320:268,1,127.500004863739,4|0,0:0|0:0,0:0:0:0:
337,373,112566,1,8,0:0:0:0:
264,143,112716,1,0,0:0:0:0:
133,331,112866,1,2,0:0:0:0:
420,302,113016,1,0,0:0:0:0:
264,143,113166,2,0,L|448:127,1,127.500004863739,2|0,0:0|0:0,0:0:0:0:
512,33,113466,2,0,L|328:49,1,127.500004863739,10|0,0:0|0:0,0:0:0:0:
320,319,113766,1,0,0:0:0:0:
247,31,113916,1,0,0:0:0:0:
470,171,114066,1,0,0:0:0:0:
175,340,114216,1,0,0:0:0:0:
0,178,114366,2,0,L|178:192,1,127.500004863739
96,76,114666,1,0,2:0:0:0:
87,302,114816,1,0,0:0:0:0:
252,196,114966,1,0,0:0:0:0:
60,34,115116,1,0,0:0:0:0:
21,358,115266,1,0,0:0:0:0:
332,215,115416,1,0,0:0:0:0:
25,113,115566,1,0,0:0:0:0:
96,382,115716,1,0,0:0:0:0:
333,191,115866,1,0,0:0:0:0:
2,233,116016,1,0,0:0:0:0:
353,318,116166,1,0,0:0:0:0:
38,63,116316,1,0,0:0:0:0:
96,382,116466,1,0,0:0:0:0:
431,240,116616,1,0,0:0:0:0:
154,203,116766,5,8,2:0:0:0:
154,203,116841,1,0,2:0:0:0:
154,203,116916,2,0,L|256:221,1,76.4999976654053
432,332,117066,2,0,L|238:291,1,152.999995330811,8|0,0:0|0:0,0:0:0:0:
65,339,117366,1,0,0:0:0:0:
115,320,117441,1,0,0:0:0:0:
164,304,117516,1,0,0:0:0:0:
491,187,117666,1,0,0:0:0:0:
228,384,117816,1,0,0:0:0:0:
0,188,117966,1,0,0:0:0:0:
2,75,118116,2,0,P|69:173|205:175,1,229.499992996216
420,340,118416,2,0,P|353:242|217:240,1,229.499992996216
134,346,118716,2,0,L|183:258,1,76.4999976654053
211,0,118866,2,4,L|241:162,1,170,4|4,3:0|3:0,3:0:0:0:
5,63,168666,6,0,P|91:48|167:78,1,127.500004863739
325,85,168966,1,0,0:0:0:0:
71,156,169116,1,0,0:0:0:0:
338,189,169266,6,0,P|252:204|181:167,1,127.500004863739
216,30,169566,1,0,0:0:0:0:
408,13,169716,2,0,P|396:115|525:178,1,229.499992996216
483,384,170016,2,0,P|452:271|369:228,1,152.999995330811
378,342,170316,1,0,0:0:0:0:
261,127,170466,1,0,0:0:0:0:
213,355,170616,1,0,0:0:0:0:
289,228,170766,1,0,0:0:0:0:
244,240,170841,1,0,0:0:0:0:
202,253,170916,1,0,0:0:0:0:
156,265,170991,1,0,0:0:0:0:
113,283,171066,2,0,L|-39:337,1,127.500004863739
96,179,171366,1,0,0:0:0:0:
163,374,171516,1,0,0:0:0:0:
195,158,171666,2,0,L|338:114,1,127.500004863739
32,95,171966,1,0,0:0:0:0:
266,248,172116,1,0,0:0:0:0:
115,4,172266,2,0,P|121:128|16:199,1,229.499992996216
83,366,172566,1,0,0:0:0:0:
91,328,172641,1,0,0:0:0:0:
97,284,172716,1,0,0:0:0:0:
187,201,172866,2,0,P|217:323|291:345,1,152.999995330811
492,276,173166,1,0,0:0:0:0:
284,241,173316,1,0,0:0:0:0:
378,380,173466,2,0,L|394:202,1,127.500004863739
332,18,173766,1,0,0:0:0:0:
494,181,173916,1,0,0:0:0:0:
481,50,174066,2,0,L|334:164,1,127.500004863739
275,204,174366,1,0,0:0:0:0:
503,306,174516,2,0,P|398:285|332:351,1,152.999995330811
15,331,174816,1,0,0:0:0:0:
58,331,174891,1,0,0:0:0:0:
100,331,174966,2,0,L|199:334,1,76.4999976654053
234,257,175116,2,0,P|340:202|367:59,1,229.499992996216
494,175,175416,1,0,0:0:0:0:
250,134,175566,1,0,0:0:0:0:
354,325,175716,1,0,0:0:0:0:
400,53,175866,2,0,L|375:197,1,127.500004863739
285,34,176166,1,0,0:0:0:0:
508,59,176316,1,0,0:0:0:0:
375,194,176466,2,0,L|402:48,1,127.500004863739
357,284,176766,2,0,L|336:378,1,76.4999976654053
269,168,176916,2,0,P|260:104|149:69,1,170
82,247,177366,1,0,0:0:0:0:
126,204,177441,1,0,0:0:0:0:
175,161,177516,1,0,0:0:0:0:
23,90,177666,1,0,0:0:0:0:
23,90,177741,1,0,0:0:0:0:
23,90,177816,1,0,0:0:0:0:
84,361,177966,1,0,0:0:0:0:
102,304,178041,1,0,0:0:0:0:
117,245,178116,1,0,0:0:0:0:
133,186,178191,1,0,0:0:0:0:
152,136,178266,2,0,L|202:-33,1,127.500004863739
24,182,178566,1,0,0:0:0:0:
276,105,178716,1,0,0:0:0:0:
21,61,178866,2,0,P|110:93|174:54,1,127.500004863739
227,183,179166,1,0,0:0:0:0:
353,28,179316,2,0,P|248:6|184:46,1,127.500004863739
81,114,179616,1,0,0:0:0:0:
81,114,179691,1,0,0:0:0:0:
81,114,179766,2,0,L|182:115,1,63.7500024318696
299,124,179916,2,0,P|429:111|465:40,1,212.5
356,38,180366,1,0,0:0:0:0:
393,329,180516,1,0,0:0:0:0:
390,288,180591,1,0,0:0:0:0:
382,241,180666,2,0,P|413:117|486:73,1,191.250007295609
298,170,180966,2,0,P|274:93|192:50,1,127.500004863739
180,150,181266,1,0,0:0:0:0:
363,48,181416,1,0,0:0:0:0:
199,0,181566,2,0,L|252:69,1,63.7500024318696
474,96,181716,2,0,P|380:159|314:144,1,152.999995330811
345,156,181941,1,0,0:0:0:0:
345,156,182016,1,0,0:0:0:0:
455,236,182166,1,0,0:0:0:0:
368,52,182316,1,0,0:0:0:0:
307,374,182466,1,0,0:0:0:0:
318,311,182541,1,0,0:0:0:0:
333,248,182616,1,0,0:0:0:0:
497,105,182766,2,0,L|338:147,1,127.500004863739
205,367,183066,2,0,P|219:259|181:208,1,127.500004863739
114,308,183366,1,0,0:0:0:0:
279,173,183516,1,0,0:0:0:0:
123,81,183666,2,0,P|99:175|147:243,1,127.500004863739
279,173,183966,1,0,0:0:0:0:
21,289,184116,2,0,P|75:342|226:264,1,220.999989883423
110,108,184566,1,0,0:0:0:0:
114,154,184641,1,0,0:0:0:0:
117,195,184716,2,0,L|125:276,1,63.7500024318696
229,381,184866,2,0,L|222:278,1,63.7500024318696
144,215,185016,2,0,L|152:296,1,63.7500024318696
255,351,185166,2,0,P|320:281|426:287,1,165.749992412567
369,371,185466,2,0,P|501:345|479:213,1,255.000009727478
398,264,185916,1,0,0:0:0:0:
433,172,186066,2,0,P|301:198|323:329,1,255.000009727478
398,264,186516,1,0,0:0:0:0:
398,264,186591,1,0,0:0:0:0:
398,264,186666,2,0,L|412:127,1,76.4999976654053
324,170,186816,2,0,L|345:53,1,76.4999976654053
444,90,186966,2,0,P|391:10|239:67,1,229.499992996216
336,95,187266,2,0,L|320:202,1,76.4999976654053
406,184,187416,2,0,L|385:305,1,76.4999976654053
509,291,187566,1,0,0:0:0:0:
497,340,187641,1,0,0:0:0:0:
456,362,187716,1,0,0:0:0:0:
410,348,187791,1,0,0:0:0:0:
370,319,187866,2,0,P|255:286|184:341,1,191.250007295609
23,360,188166,2,0,L|144:330,1,63.7500024318696
226,351,188316,2,0,P|205:252|89:244,1,212.5
2,179,188766,2,0,L|32:280,1,63.7500024318696
132,322,188916,2,0,P|225:278|298:322,1,170
428,287,189366,1,0,0:0:0:0:
219,363,189516,1,0,0:0:0:0:
316,194,189666,1,0,0:0:0:0:
366,378,189816,1,0,0:0:0:0:
480,281,189966,1,0,0:0:0:0:
459,245,190041,1,0,0:0:0:0:
441,203,190116,1,0,0:0:0:0:
422,167,190191,1,0,0:0:0:0:
398,130,190266,2,0,P|373:35|249:-2,1,191.250007295609
231,151,190566,2,0,L|303:78,1,63.7500024318696
512,191,190716,2,0,P|440:247|308:184,1,212.5
430,79,191166,2,0,L|412:156,1,63.7500024318696
302,107,191316,2,0,P|223:58|132:79,1,170
206,163,191766,1,0,0:0:0:0:
316,16,191916,1,0,0:0:0:0:
344,222,192066,1,0,0:0:0:0:
344,222,192141,1,0,0:0:0:0:
344,222,192216,1,0,0:0:0:0:
179,42,192366,1,0,0:0:0:0:
421,124,192516,1,0,0:0:0:0:
198,153,192666,2,0,P|70:94|70:4,1,191.250007295609
218,16,192966,2,0,L|156:70,1,63.7500024318696
124,330,193116,2,0,P|86:236|-32:221,1,212.5
0,358,193566,2,0,L|35:278,1,63.7500024318696
4,44,193716,2,0,P|39:166|103:186,1,170
106,82,194166,1,0,0:0:0:0:
0,257,194316,1,0,0:0:0:0:
236,204,194466,2,0,L|81:238,1,127.500004863739
0,177,194766,2,0,L|124:135,1,127.500004863739
96,18,195066,2,0,P|147:97|273:89,1,191.250007295609
71,147,195366,2,0,L|25:231,1,63.7500024318696
221,366,195516,2,0,P|243:253|140:193,1,212.5
88,325,195966,2,0,L|164:284,1,63.7500024318696
339,314,196116,2,0,P|435:276|529:317,1,170
434,384,196566,1,0,0:0:0:0:
434,384,196641,1,0,0:0:0:0:
434,384,196716,1,0,0:0:0:0:
343,161,196866,1,0,0:0:0:0:
244,373,197016,1,0,0:0:0:0:
477,229,197166,1,0,0:0:0:0:
208,200,197316,1,0,0:0:0:0:
72,5,197466,6,0,L|111:183,1,127.500004863739
203,65,197766,1,0,0:0:0:0:
0,147,197916,1,0,0:0:0:0:
214,198,198066,1,0,0:0:0:0:
72,5,198216,1,0,0:0:0:0:
90,251,198366,1,0,0:0:0:0:
106,129,198516,1,0,0:0:0:0:
156,361,198666,2,0,L|316:334,1,127.500004863739
512,252,198966,2,0,L|326:242,1,127.500004863739
188,219,199266,1,0,0:0:0:0:
434,356,199416,1,0,0:0:0:0:
262,373,199566,1,0,0:0:0:0:
283,328,199641,1,0,0:0:0:0:
304,284,199716,1,0,0:0:0:0:
323,242,199791,1,0,0:0:0:0:
340,199,199866,2,0,L|406:53,1,127.500004863739
487,144,200166,1,0,0:0:0:0:
266,38,200316,1,0,0:0:0:0:
397,250,200466,1,0,0:0:0:0:
427,0,200616,1,0,0:0:0:0:
183,167,200766,2,0,L|361:145,1,127.500004863739
512,213,201066,2,0,L|332:253,1,127.500004863739
414,129,201366,1,0,0:0:0:0:
386,371,201516,1,0,0:0:0:0:
272,179,201666,1,0,0:0:0:0:
511,296,201816,1,0,0:0:0:0:
130,331,201966,2,0,L|304:311,1,127.500004863739
55,254,202266,1,8,2:0:0:0:
73,79,202416,1,0,2:0:0:0:
130,331,202566,5,8,2:0:0:0:
170,39,202716,1,0,2:0:0:0:
228,280,202866,5,8,2:0:0:0:
249,114,203016,1,0,2:0:0:0:
334,205,203166,5,8,2:0:0:0:
0,162,203316,2,0,L|96:179,1,76.4999976654053,0|0,2:0|2:0,2:0:0:0:
147,23,203466,1,8,2:0:0:0:
173,340,203616,1,0,2:0:0:0:
247,79,203766,5,8,2:0:0:0:
271,280,203916,1,0,2:0:0:0:
357,3,204066,5,8,2:0:0:0:
386,334,204216,1,0,2:0:0:0:
512,187,204366,5,8,2:0:0:0:
512,187,204441,1,0,2:0:0:0:
512,187,204516,2,0,L|410:186,1,76.4999976654053
0,185,204666,2,0,L|198:185,1,170,8|0,0:0|0:0,0:0:0:0:
296,34,204966,1,0,0:0:0:0:
296,34,205041,1,0,0:0:0:0:
296,34,205116,2,0,L|272:132,1,76.4999976654053
122,346,205266,1,0,0:0:0:0:
512,184,205416,1,0,0:0:0:0:
67,122,205566,1,0,0:0:0:0:
0,260,205716,2,0,P|162:193|211:95,1,212.5
477,100,206016,2,0,P|286:156|256:204,1,212.5
296,344,206316,2,0,P|244:268|167:255,1,106.25
246,21,206466,2,4,L|278:213,1,170,4|4,3:0|3:0,3:0:0:0:
0,160,206916,2,0,B|59:180|59:180|69:245|69:245|117:207|117:207|94:116|182:69|276:95|294:191|260:266|167:252|167:252|105:302|105:302|148:353|148:353|191:316,1,765,0|0,2:0|2:0,2:0:0:0:
415,302,209766,1,0,2:0:0:0:
472,103,209916,2,0,B|562:89|562:-36|405:-68|396:61|396:61|323:-4|323:-4|254:39,1,467.5,0|0,2:0|2:0,2:0:0:0:
46,183,211716,2,0,B|-27:362|-27:362|-74:174|-74:174|51:70|51:70|155:186|155:186|89:226|72:315|136:378|269:377|291:306|291:224|222:184|222:184|256:111|256:111|311:127|371:107,1,1317.5,0|0,2:0|2:0,2:0:0:0:
512,269,216516,2,0,L|322:192,1,170,0|0,2:0|2:0,2:0:0:0:
407,304,216966,2,0,L|260:355,1,127.500004863739,0|0,2:0|2:0,2:0:0:0:
284,265,217416,2,0,L|138:211,1,127.500004863739,0|0,2:0|2:0,2:0:0:0:
58,184,217716,2,0,L|103:319,1,127.5,0|0,2:0|2:0,2:0:0:0:
173,151,218316,1,0,2:0:0:0:
282,125,218466,1,0,2:0:0:0:
389,99,218616,1,0,2:0:0:0:
490,73,218766,1,0,2:0:0:0:
284,149,218916,2,0,P|218:252|256:64,1,680,4|0,2:0|2:0,2:0:0:0:
166,144,221616,2,0,L|115:280,1,127.500004863739,2|0,2:0|2:0,2:0:0:0:
59,117,222066,1,0,2:0:0:0:
269,175,222216,1,0,2:0:0:0:
493,235,222366,1,0,2:0:0:0:
381,204,222516,2,0,L|440:35,1,170,0|0,2:0|2:0,2:0:0:0:
299,63,223416,1,0,2:0:0:0:
149,88,223566,1,0,2:0:0:0:
256,191,223716,2,0,B|336:111|256:31|256:31|176:111|256:191|256:191|128:191|112:303|112:303|240:303|256:191|256:191|272:303|400:303|400:303|384:191|256:191,1,1172.99996420288,0|0,2:0|2:0,2:0:0:0:
