osu file format v14

[General]
AudioFilename: audio.mp3
AudioLeadIn: 0
PreviewTime: -1
Countdown: 1
SampleSet: None
StackLeniency: 0.2
Mode: 0
LetterboxInBreaks: 0
WidescreenStoryboard: 1

[Editor]
DistanceSpacing: 1
BeatDivisor: 4
GridSize: 4
TimelineZoom: 1

[Metadata]
Title:buffer
TitleUnicode:buffer
Artist:Jimmy-Rustler
ArtistUnicode:Jimmy-Rustler
Creator:Jimmy Rustler
Version:Tic Tacs
Source:rrrrrrrEEEEEEEEEEEEEEEEEEEEEEEEEEEEEEEEEEEEEEEEEEEEEEEEEEEEEEEEEEEEEEEEEEEEEEEEEEEEEEEEEEEEEEEEEEEE
Tags:ar11 eyes
BeatmapID:978743
BeatmapSetID:456728

[Difficulty]
HPDrainRate:0
CircleSize:6
OverallDifficulty:6
ApproachRate:8
SliderMultiplier:1.4
SliderTickRate:1

[Events]
//Background and Video events
0,0,"mars rover.jpg",0,0
//Break Periods
//Storyboard Layer 0 (Background)
//Storyboard Layer 1 (Fail)
//Storyboard Layer 2 (Pass)
//Storyboard Layer 3 (Foreground)
//Storyboard Sound Samples

[TimingPoints]
1570,240,4,1,0,31,1,0
2034,-200,4,1,0,31,0,0
10194,-100,4,1,0,51,0,1
12594,-100,4,1,0,51,0,0
25554,-50,4,1,0,61,0,1
27954,-50,4,1,0,61,0,0
56290,24,4,1,0,71,1,1
58674,-50,4,1,0,71,0,0
78354,-100,4,1,0,71,0,0
81526,6.75067506750675,4,1,0,31,1,0

[HitObjects]
260,192,1570,5,0,0:0:0:0:
252,192,1630,5,0,0:0:0:0:
260,188,1690,5,0,0:0:0:0:
264,192,1750,5,0,0:0:0:0:
260,200,1810,5,0,0:0:0:0:
256,200,1870,5,0,0:0:0:0:
252,192,1930,5,0,0:0:0:0:
268,196,1990,5,0,0:0:0:0:
260,192,2050,5,0,0:0:0:0:
252,192,2110,5,0,0:0:0:0:
260,188,2170,5,0,0:0:0:0:
264,192,2230,5,0,0:0:0:0:
260,200,2290,5,0,0:0:0:0:
256,200,2350,5,0,0:0:0:0:
252,192,2410,5,0,0:0:0:0:
268,196,2470,5,0,0:0:0:0:
260,192,2530,5,0,0:0:0:0:
252,192,2590,5,0,0:0:0:0:
260,188,2650,5,0,0:0:0:0:
264,192,2710,5,0,0:0:0:0:
260,200,2770,5,0,0:0:0:0:
256,200,2830,5,0,0:0:0:0:
252,192,2890,5,0,0:0:0:0:
268,196,2950,5,0,0:0:0:0:
260,192,3010,5,0,0:0:0:0:
252,192,3070,5,0,0:0:0:0:
260,188,3130,5,0,0:0:0:0:
264,192,3190,5,0,0:0:0:0:
260,200,3250,5,0,0:0:0:0:
256,200,3310,5,0,0:0:0:0:
252,192,3370,5,0,0:0:0:0:
268,196,3430,5,0,0:0:0:0:
260,192,3490,5,0,0:0:0:0:
252,192,3550,5,0,0:0:0:0:
260,188,3610,5,0,0:0:0:0:
264,192,3670,5,0,0:0:0:0:
260,200,3730,5,0,0:0:0:0:
256,200,3790,5,0,0:0:0:0:
252,192,3850,5,0,0:0:0:0:
268,196,3910,5,0,0:0:0:0:
260,192,3970,5,0,0:0:0:0:
252,192,4030,5,0,0:0:0:0:
260,188,4090,5,0,0:0:0:0:
264,192,4150,5,0,0:0:0:0:
260,200,4210,5,0,0:0:0:0:
256,200,4270,5,0,0:0:0:0:
252,192,4330,5,0,0:0:0:0:
268,196,4390,5,0,0:0:0:0:
260,192,4450,5,0,0:0:0:0:
252,192,4510,5,0,0:0:0:0:
260,188,4570,5,0,0:0:0:0:
264,192,4630,5,0,0:0:0:0:
260,200,4690,5,0,0:0:0:0:
256,200,4750,5,0,0:0:0:0:
252,192,4810,5,0,0:0:0:0:
268,196,4870,5,0,0:0:0:0:
260,192,4930,5,0,0:0:0:0:
252,192,4990,5,0,0:0:0:0:
260,188,5050,5,0,0:0:0:0:
264,192,5110,5,0,0:0:0:0:
260,200,5170,5,0,0:0:0:0:
256,200,5230,5,0,0:0:0:0:
252,192,5290,5,0,0:0:0:0:
268,196,5350,5,0,0:0:0:0:
260,192,5410,5,0,0:0:0:0:
252,192,5470,5,0,0:0:0:0:
260,188,5530,5,0,0:0:0:0:
264,192,5590,5,0,0:0:0:0:
260,200,5650,5,0,0:0:0:0:
256,200,5710,5,0,0:0:0:0:
252,192,5770,5,0,0:0:0:0:
268,196,5830,5,0,0:0:0:0:
260,192,5890,5,0,0:0:0:0:
252,192,5950,5,0,0:0:0:0:
260,188,6010,5,0,0:0:0:0:
264,192,6070,5,0,0:0:0:0:
260,200,6130,5,0,0:0:0:0:
256,200,6190,5,0,0:0:0:0:
252,192,6250,5,0,0:0:0:0:
268,196,6310,5,0,0:0:0:0:
260,192,6370,5,0,0:0:0:0:
252,192,6430,5,0,0:0:0:0:
260,188,6490,5,0,0:0:0:0:
264,192,6550,5,0,0:0:0:0:
260,200,6610,5,0,0:0:0:0:
256,200,6670,5,0,0:0:0:0:
252,192,6730,5,0,0:0:0:0:
268,196,6790,5,0,0:0:0:0:
260,192,6850,5,0,0:0:0:0:
252,192,6910,5,0,0:0:0:0:
260,188,6970,5,0,0:0:0:0:
264,192,7030,5,0,0:0:0:0:
260,200,7090,5,0,0:0:0:0:
256,200,7150,5,0,0:0:0:0:
252,192,7210,5,0,0:0:0:0:
268,196,7270,5,0,0:0:0:0:
260,192,7330,5,0,0:0:0:0:
252,192,7390,5,0,0:0:0:0:
260,188,7450,5,0,0:0:0:0:
264,192,7510,5,0,0:0:0:0:
260,200,7570,5,0,0:0:0:0:
256,200,7630,5,0,0:0:0:0:
252,192,7690,5,0,0:0:0:0:
268,196,7750,5,0,0:0:0:0:
260,192,7810,5,0,0:0:0:0:
252,192,7870,5,0,0:0:0:0:
260,188,7930,5,0,0:0:0:0:
264,192,7990,5,0,0:0:0:0:
260,200,8050,5,0,0:0:0:0:
256,200,8110,5,0,0:0:0:0:
252,192,8170,5,0,0:0:0:0:
268,196,8230,5,0,0:0:0:0:
260,192,8290,5,0,0:0:0:0:
252,192,8350,5,0,0:0:0:0:
260,188,8410,5,0,0:0:0:0:
264,192,8470,5,0,0:0:0:0:
260,200,8530,5,0,0:0:0:0:
256,200,8590,5,0,0:0:0:0:
252,192,8650,5,0,0:0:0:0:
268,196,8710,5,0,0:0:0:0:
260,192,8770,5,0,0:0:0:0:
252,192,8830,5,0,0:0:0:0:
260,188,8890,5,0,0:0:0:0:
264,192,8950,5,0,0:0:0:0:
260,200,9010,5,0,0:0:0:0:
256,200,9070,5,0,0:0:0:0:
252,192,9130,5,0,0:0:0:0:
268,196,9190,5,0,0:0:0:0:
260,192,9250,5,0,0:0:0:0:
252,192,9310,5,0,0:0:0:0:
260,188,9370,5,0,0:0:0:0:
264,192,9430,5,0,0:0:0:0:
260,200,9490,5,0,0:0:0:0:
256,200,9550,5,0,0:0:0:0:
252,192,9610,5,0,0:0:0:0:
268,196,9670,5,0,0:0:0:0:
260,192,9730,5,0,0:0:0:0:
252,192,9790,5,0,0:0:0:0:
260,188,9850,5,0,0:0:0:0:
264,192,9910,5,0,0:0:0:0:
260,200,9970,5,0,0:0:0:0:
256,200,10030,5,0,0:0:0:0:
252,192,10090,5,0,0:0:0:0:
268,196,10150,5,0,0:0:0:0:
260,192,10210,5,0,0:0:0:0:
252,192,10270,5,0,0:0:0:0:
260,188,10330,5,0,0:0:0:0:
264,192,10390,5,0,0:0:0:0:
260,200,10450,5,0,0:0:0:0:
256,200,10510,5,0,0:0:0:0:
252,192,10570,5,0,0:0:0:0:
268,196,10630,5,0,0:0:0:0:
260,192,10690,5,0,0:0:0:0:
252,192,10750,5,0,0:0:0:0:
260,188,10810,5,0,0:0:0:0:
264,192,10870,5,0,0:0:0:0:
260,200,10930,5,0,0:0:0:0:
256,200,10990,5,0,0:0:0:0:
252,192,11050,5,0,0:0:0:0:
268,196,11110,5,0,0:0:0:0:
260,192,11170,5,0,0:0:0:0:
252,192,11230,5,0,0:0:0:0:
260,188,11290,5,0,0:0:0:0:
264,192,11350,5,0,0:0:0:0:
260,200,11410,5,0,0:0:0:0:
256,200,11470,5,0,0:0:0:0:
252,192,11530,5,0,0:0:0:0:
268,196,11590,5,0,0:0:0:0:
260,192,11650,5,0,0:0:0:0:
252,192,11710,5,0,0:0:0:0:
260,188,11770,5,0,0:0:0:0:
264,192,11830,5,0,0:0:0:0:
260,200,11890,5,0,0:0:0:0:
256,200,11950,5,0,0:0:0:0:
252,192,12010,5,0,0:0:0:0:
268,196,12070,5,0,0:0:0:0:
260,192,12130,5,0,0:0:0:0:
252,192,12190,5,0,0:0:0:0:
260,188,12250,5,0,0:0:0:0:
264,192,12310,5,0,0:0:0:0:
260,200,12370,5,0,0:0:0:0:
256,200,12430,5,0,0:0:0:0:
252,192,12490,5,0,0:0:0:0:
268,196,12550,5,0,0:0:0:0:
260,192,12610,5,0,0:0:0:0:
252,192,12670,5,0,0:0:0:0:
260,188,12730,5,0,0:0:0:0:
264,192,12790,5,0,0:0:0:0:
260,200,12850,5,0,0:0:0:0:
256,200,12910,5,0,0:0:0:0:
252,192,12970,5,0,0:0:0:0:
268,196,13030,5,0,0:0:0:0:
260,192,13090,5,0,0:0:0:0:
252,192,13150,5,0,0:0:0:0:
260,188,13210,5,0,0:0:0:0:
264,192,13270,5,0,0:0:0:0:
260,200,13330,5,0,0:0:0:0:
256,200,13390,5,0,0:0:0:0:
252,192,13450,5,0,0:0:0:0:
268,196,13510,5,0,0:0:0:0:
260,192,13570,5,0,0:0:0:0:
252,192,13630,5,0,0:0:0:0:
260,188,13690,5,0,0:0:0:0:
264,192,13750,5,0,0:0:0:0:
260,200,13810,5,0,0:0:0:0:
256,200,13870,5,0,0:0:0:0:
252,192,13930,5,0,0:0:0:0:
268,196,13990,5,0,0:0:0:0:
260,192,14050,5,0,0:0:0:0:
252,192,14110,5,0,0:0:0:0:
260,188,14170,5,0,0:0:0:0:
264,192,14230,5,0,0:0:0:0:
260,200,14290,5,0,0:0:0:0:
256,200,14350,5,0,0:0:0:0:
252,192,14410,5,0,0:0:0:0:
268,196,14470,5,0,0:0:0:0:
260,192,14530,5,0,0:0:0:0:
252,192,14590,5,0,0:0:0:0:
260,188,14650,5,0,0:0:0:0:
264,192,14710,5,0,0:0:0:0:
260,200,14770,5,0,0:0:0:0:
256,200,14830,5,0,0:0:0:0:
252,192,14890,5,0,0:0:0:0:
268,196,14950,5,0,0:0:0:0:
260,192,15010,5,0,0:0:0:0:
252,192,15070,5,0,0:0:0:0:
260,188,15130,5,0,0:0:0:0:
264,192,15190,5,0,0:0:0:0:
260,200,15250,5,0,0:0:0:0:
256,200,15310,5,0,0:0:0:0:
252,192,15370,5,0,0:0:0:0:
268,196,15430,5,0,0:0:0:0:
260,192,15490,5,0,0:0:0:0:
252,192,15550,5,0,0:0:0:0:
260,188,15610,5,0,0:0:0:0:
264,192,15670,5,0,0:0:0:0:
260,200,15730,5,0,0:0:0:0:
256,200,15790,5,0,0:0:0:0:
252,192,15850,5,0,0:0:0:0:
268,196,15910,5,0,0:0:0:0:
260,192,15970,5,0,0:0:0:0:
252,192,16030,5,0,0:0:0:0:
260,188,16090,5,0,0:0:0:0:
264,192,16150,5,0,0:0:0:0:
260,200,16210,5,0,0:0:0:0:
256,200,16270,5,0,0:0:0:0:
252,192,16330,5,0,0:0:0:0:
268,196,16390,5,0,0:0:0:0:
260,192,16450,5,0,0:0:0:0:
252,192,16510,5,0,0:0:0:0:
260,188,16570,5,0,0:0:0:0:
264,192,16630,5,0,0:0:0:0:
260,200,16690,5,0,0:0:0:0:
256,200,16750,5,0,0:0:0:0:
252,192,16810,5,0,0:0:0:0:
268,196,16870,5,0,0:0:0:0:
260,192,16930,5,0,0:0:0:0:
252,192,16990,5,0,0:0:0:0:
260,188,17050,5,0,0:0:0:0:
264,192,17110,5,0,0:0:0:0:
260,200,17170,5,0,0:0:0:0:
256,200,17230,5,0,0:0:0:0:
252,192,17290,5,0,0:0:0:0:
268,196,17350,5,0,0:0:0:0:
260,192,17410,5,0,0:0:0:0:
252,192,17470,5,0,0:0:0:0:
260,188,17530,5,0,0:0:0:0:
264,192,17590,5,0,0:0:0:0:
260,200,17650,5,0,0:0:0:0:
256,200,17710,5,0,0:0:0:0:
252,192,17770,5,0,0:0:0:0:
268,196,17830,5,0,0:0:0:0:
260,192,17890,5,0,0:0:0:0:
252,192,17950,5,0,0:0:0:0:
260,188,18010,5,0,0:0:0:0:
264,192,18070,5,0,0:0:0:0:
260,200,18130,5,0,0:0:0:0:
256,200,18190,5,0,0:0:0:0:
252,192,18250,5,0,0:0:0:0:
268,196,18310,5,0,0:0:0:0:
260,192,18370,5,0,0:0:0:0:
252,192,18430,5,0,0:0:0:0:
260,188,18490,5,0,0:0:0:0:
264,192,18550,5,0,0:0:0:0:
260,200,18610,5,0,0:0:0:0:
256,200,18670,5,0,0:0:0:0:
252,192,18730,5,0,0:0:0:0:
268,196,18790,5,0,0:0:0:0:
260,192,18850,5,0,0:0:0:0:
252,192,18910,5,0,0:0:0:0:
260,188,18970,5,0,0:0:0:0:
264,192,19030,5,0,0:0:0:0:
260,200,19090,5,0,0:0:0:0:
256,200,19150,5,0,0:0:0:0:
252,192,19210,5,0,0:0:0:0:
268,196,19270,5,0,0:0:0:0:
260,192,19330,5,0,0:0:0:0:
252,192,19390,5,0,0:0:0:0:
260,188,19450,5,0,0:0:0:0:
264,192,19510,5,0,0:0:0:0:
260,200,19570,5,0,0:0:0:0:
256,200,19630,5,0,0:0:0:0:
252,192,19690,5,0,0:0:0:0:
268,196,19750,5,0,0:0:0:0:
260,192,19810,5,0,0:0:0:0:
252,192,19870,5,0,0:0:0:0:
260,188,19930,5,0,0:0:0:0:
264,192,19990,5,0,0:0:0:0:
260,200,20050,5,0,0:0:0:0:
256,200,20110,5,0,0:0:0:0:
252,192,20170,5,0,0:0:0:0:
268,196,20230,5,0,0:0:0:0:
260,192,20290,5,0,0:0:0:0:
252,192,20350,5,0,0:0:0:0:
260,188,20410,5,0,0:0:0:0:
264,192,20470,5,0,0:0:0:0:
260,200,20530,5,0,0:0:0:0:
256,200,20590,5,0,0:0:0:0:
252,192,20650,5,0,0:0:0:0:
268,196,20710,5,0,0:0:0:0:
260,192,20770,5,0,0:0:0:0:
252,192,20830,5,0,0:0:0:0:
260,188,20890,5,0,0:0:0:0:
264,192,20950,5,0,0:0:0:0:
260,200,21010,5,0,0:0:0:0:
256,200,21070,5,0,0:0:0:0:
252,192,21130,5,0,0:0:0:0:
268,196,21190,5,0,0:0:0:0:
260,192,21250,5,0,0:0:0:0:
252,192,21310,5,0,0:0:0:0:
260,188,21370,5,0,0:0:0:0:
264,192,21430,5,0,0:0:0:0:
260,200,21490,5,0,0:0:0:0:
256,200,21550,5,0,0:0:0:0:
252,192,21610,5,0,0:0:0:0:
268,196,21670,5,0,0:0:0:0:
260,192,21730,5,0,0:0:0:0:
252,192,21790,5,0,0:0:0:0:
260,188,21850,5,0,0:0:0:0:
264,192,21910,5,0,0:0:0:0:
260,200,21970,5,0,0:0:0:0:
256,200,22030,5,0,0:0:0:0:
252,192,22090,5,0,0:0:0:0:
268,196,22150,5,0,0:0:0:0:
260,192,22210,5,0,0:0:0:0:
252,192,22270,5,0,0:0:0:0:
260,188,22330,5,0,0:0:0:0:
264,192,22390,5,0,0:0:0:0:
260,200,22450,5,0,0:0:0:0:
256,200,22510,5,0,0:0:0:0:
252,192,22570,5,0,0:0:0:0:
268,196,22630,5,0,0:0:0:0:
260,192,22690,5,0,0:0:0:0:
252,192,22750,5,0,0:0:0:0:
260,188,22810,5,0,0:0:0:0:
264,192,22870,5,0,0:0:0:0:
260,200,22930,5,0,0:0:0:0:
256,200,22990,5,0,0:0:0:0:
252,192,23050,5,0,0:0:0:0:
268,196,23110,5,0,0:0:0:0:
260,192,23170,5,0,0:0:0:0:
252,192,23230,5,0,0:0:0:0:
260,188,23290,5,0,0:0:0:0:
264,192,23350,5,0,0:0:0:0:
260,200,23410,5,0,0:0:0:0:
256,200,23470,5,0,0:0:0:0:
252,192,23530,5,0,0:0:0:0:
268,196,23590,5,0,0:0:0:0:
260,192,23650,5,0,0:0:0:0:
252,192,23710,5,0,0:0:0:0:
260,188,23770,5,0,0:0:0:0:
264,192,23830,5,0,0:0:0:0:
260,200,23890,5,0,0:0:0:0:
256,200,23950,5,0,0:0:0:0:
252,192,24010,5,0,0:0:0:0:
268,196,24070,5,0,0:0:0:0:
260,192,24130,5,0,0:0:0:0:
252,192,24190,5,0,0:0:0:0:
260,188,24250,5,0,0:0:0:0:
264,192,24310,5,0,0:0:0:0:
260,200,24370,5,0,0:0:0:0:
256,200,24430,5,0,0:0:0:0:
252,192,24490,5,0,0:0:0:0:
268,196,24550,5,0,0:0:0:0:
260,192,24610,5,0,0:0:0:0:
252,192,24670,5,0,0:0:0:0:
260,188,24730,5,0,0:0:0:0:
264,192,24790,5,0,0:0:0:0:
260,200,24850,5,0,0:0:0:0:
256,200,24910,5,0,0:0:0:0:
252,192,24970,5,0,0:0:0:0:
268,196,25030,5,0,0:0:0:0:
260,192,25090,5,0,0:0:0:0:
252,192,25150,5,0,0:0:0:0:
260,188,25210,5,0,0:0:0:0:
264,192,25270,5,0,0:0:0:0:
260,200,25330,5,0,0:0:0:0:
256,200,25390,5,0,0:0:0:0:
252,192,25450,5,0,0:0:0:0:
268,196,25510,5,0,0:0:0:0:
260,192,25570,5,0,0:0:0:0:
252,192,25630,5,0,0:0:0:0:
260,188,25690,5,0,0:0:0:0:
264,192,25750,5,0,0:0:0:0:
260,200,25810,5,0,0:0:0:0:
256,200,25870,5,0,0:0:0:0:
252,192,25930,5,0,0:0:0:0:
268,196,25990,5,0,0:0:0:0:
260,192,26050,5,0,0:0:0:0:
252,192,26110,5,0,0:0:0:0:
260,188,26170,5,0,0:0:0:0:
264,192,26230,5,0,0:0:0:0:
260,200,26290,5,0,0:0:0:0:
256,200,26350,5,0,0:0:0:0:
252,192,26410,5,0,0:0:0:0:
268,196,26470,5,0,0:0:0:0:
260,192,26530,5,0,0:0:0:0:
252,192,26590,5,0,0:0:0:0:
260,188,26650,5,0,0:0:0:0:
264,192,26710,5,0,0:0:0:0:
260,200,26770,5,0,0:0:0:0:
256,200,26830,5,0,0:0:0:0:
252,192,26890,5,0,0:0:0:0:
268,196,26950,5,0,0:0:0:0:
260,192,27010,5,0,0:0:0:0:
252,192,27070,5,0,0:0:0:0:
260,188,27130,5,0,0:0:0:0:
264,192,27190,5,0,0:0:0:0:
260,200,27250,5,0,0:0:0:0:
256,200,27310,5,0,0:0:0:0:
252,192,27370,5,0,0:0:0:0:
268,196,27430,5,0,0:0:0:0:
260,192,27490,5,0,0:0:0:0:
252,192,27550,5,0,0:0:0:0:
260,188,27610,5,0,0:0:0:0:
264,192,27670,5,0,0:0:0:0:
260,200,27730,5,0,0:0:0:0:
256,200,27790,5,0,0:0:0:0:
252,192,27850,5,0,0:0:0:0:
268,196,27910,5,0,0:0:0:0:
260,192,27970,5,0,0:0:0:0:
252,192,28030,5,0,0:0:0:0:
260,188,28090,5,0,0:0:0:0:
264,192,28150,5,0,0:0:0:0:
260,200,28210,5,0,0:0:0:0:
256,200,28270,5,0,0:0:0:0:
252,192,28330,5,0,0:0:0:0:
268,196,28390,5,0,0:0:0:0:
260,192,28450,5,0,0:0:0:0:
252,192,28510,5,0,0:0:0:0:
260,188,28570,5,0,0:0:0:0:
264,192,28630,5,0,0:0:0:0:
260,200,28690,5,0,0:0:0:0:
256,200,28750,5,0,0:0:0:0:
252,192,28810,5,0,0:0:0:0:
268,196,28870,5,0,0:0:0:0:
260,192,28930,5,0,0:0:0:0:
252,192,28990,5,0,0:0:0:0:
260,188,29050,5,0,0:0:0:0:
264,192,29110,5,0,0:0:0:0:
260,200,29170,5,0,0:0:0:0:
256,200,29230,5,0,0:0:0:0:
252,192,29290,5,0,0:0:0:0:
268,196,29350,5,0,0:0:0:0:
260,192,29410,5,0,0:0:0:0:
252,192,29470,5,0,0:0:0:0:
260,188,29530,5,0,0:0:0:0:
264,192,29590,5,0,0:0:0:0:
260,200,29650,5,0,0:0:0:0:
256,200,29710,5,0,0:0:0:0:
252,192,29770,5,0,0:0:0:0:
268,196,29830,5,0,0:0:0:0:
260,192,29890,5,0,0:0:0:0:
252,192,29950,5,0,0:0:0:0:
260,188,30010,5,0,0:0:0:0:
264,192,30070,5,0,0:0:0:0:
260,200,30130,5,0,0:0:0:0:
256,200,30190,5,0,0:0:0:0:
252,192,30250,5,0,0:0:0:0:
268,196,30310,5,0,0:0:0:0:
260,192,30370,5,0,0:0:0:0:
252,192,30430,5,0,0:0:0:0:
260,188,30490,5,0,0:0:0:0:
264,192,30550,5,0,0:0:0:0:
260,200,30610,5,0,0:0:0:0:
256,200,30670,5,0,0:0:0:0:
252,192,30730,5,0,0:0:0:0:
268,196,30790,5,0,0:0:0:0:
260,192,30850,5,0,0:0:0:0:
252,192,30910,5,0,0:0:0:0:
260,188,30970,5,0,0:0:0:0:
264,192,31030,5,0,0:0:0:0:
260,200,31090,5,0,0:0:0:0:
256,200,31150,5,0,0:0:0:0:
252,192,31210,5,0,0:0:0:0:
268,196,31270,5,0,0:0:0:0:
260,192,31330,5,0,0:0:0:0:
252,192,31390,5,0,0:0:0:0:
260,188,31450,5,0,0:0:0:0:
264,192,31510,5,0,0:0:0:0:
260,200,31570,5,0,0:0:0:0:
256,200,31630,5,0,0:0:0:0:
252,192,31690,5,0,0:0:0:0:
268,196,31750,5,0,0:0:0:0:
260,192,31810,5,0,0:0:0:0:
252,192,31870,5,0,0:0:0:0:
260,188,31930,5,0,0:0:0:0:
264,192,31990,5,0,0:0:0:0:
260,200,32050,5,0,0:0:0:0:
256,200,32110,5,0,0:0:0:0:
252,192,32170,5,0,0:0:0:0:
268,196,32230,5,0,0:0:0:0:
260,192,32290,5,0,0:0:0:0:
252,192,32350,5,0,0:0:0:0:
260,188,32410,5,0,0:0:0:0:
264,192,32470,5,0,0:0:0:0:
260,200,32530,5,0,0:0:0:0:
256,200,32590,5,0,0:0:0:0:
252,192,32650,5,0,0:0:0:0:
268,196,32710,5,0,0:0:0:0:
260,192,32770,5,0,0:0:0:0:
252,192,32830,5,0,0:0:0:0:
260,188,32890,5,0,0:0:0:0:
264,192,32950,5,0,0:0:0:0:
260,200,33010,5,0,0:0:0:0:
256,200,33070,5,0,0:0:0:0:
252,192,33130,5,0,0:0:0:0:
268,196,33190,5,0,0:0:0:0:
260,192,33250,5,0,0:0:0:0:
252,192,33310,5,0,0:0:0:0:
260,188,33370,5,0,0:0:0:0:
264,192,33430,5,0,0:0:0:0:
260,200,33490,5,0,0:0:0:0:
256,200,33550,5,0,0:0:0:0:
252,192,33610,5,0,0:0:0:0:
268,196,33670,5,0,0:0:0:0:
260,192,33730,5,0,0:0:0:0:
252,192,33790,5,0,0:0:0:0:
260,188,33850,5,0,0:0:0:0:
264,192,33910,5,0,0:0:0:0:
260,200,33970,5,0,0:0:0:0:
256,200,34030,5,0,0:0:0:0:
252,192,34090,5,0,0:0:0:0:
268,196,34150,5,0,0:0:0:0:
260,192,34210,5,0,0:0:0:0:
252,192,34270,5,0,0:0:0:0:
260,188,34330,5,0,0:0:0:0:
264,192,34390,5,0,0:0:0:0:
260,200,34450,5,0,0:0:0:0:
256,200,34510,5,0,0:0:0:0:
252,192,34570,5,0,0:0:0:0:
268,196,34630,5,0,0:0:0:0:
260,192,34690,5,0,0:0:0:0:
252,192,34750,5,0,0:0:0:0:
260,188,34810,5,0,0:0:0:0:
264,192,34870,5,0,0:0:0:0:
260,200,34930,5,0,0:0:0:0:
256,200,34990,5,0,0:0:0:0:
252,192,35050,5,0,0:0:0:0:
268,196,35110,5,0,0:0:0:0:
260,192,35170,5,0,0:0:0:0:
252,192,35230,5,0,0:0:0:0:
260,188,35290,5,0,0:0:0:0:
264,192,35350,5,0,0:0:0:0:
260,200,35410,5,0,0:0:0:0:
256,200,35470,5,0,0:0:0:0:
252,192,35530,5,0,0:0:0:0:
268,196,35590,5,0,0:0:0:0:
260,192,35650,5,0,0:0:0:0:
252,192,35710,5,0,0:0:0:0:
260,188,35770,5,0,0:0:0:0:
264,192,35830,5,0,0:0:0:0:
260,200,35890,5,0,0:0:0:0:
256,200,35950,5,0,0:0:0:0:
252,192,36010,5,0,0:0:0:0:
268,196,36070,5,0,0:0:0:0:
260,192,36130,5,0,0:0:0:0:
252,192,36190,5,0,0:0:0:0:
260,188,36250,5,0,0:0:0:0:
264,192,36310,5,0,0:0:0:0:
260,200,36370,5,0,0:0:0:0:
256,200,36430,5,0,0:0:0:0:
252,192,36490,5,0,0:0:0:0:
268,196,36550,5,0,0:0:0:0:
260,192,36610,5,0,0:0:0:0:
252,192,36670,5,0,0:0:0:0:
260,188,36730,5,0,0:0:0:0:
264,192,36790,5,0,0:0:0:0:
260,200,36850,5,0,0:0:0:0:
256,200,36910,5,0,0:0:0:0:
252,192,36970,5,0,0:0:0:0:
268,196,37030,5,0,0:0:0:0:
260,192,37090,5,0,0:0:0:0:
252,192,37150,5,0,0:0:0:0:
260,188,37210,5,0,0:0:0:0:
264,192,37270,5,0,0:0:0:0:
260,200,37330,5,0,0:0:0:0:
256,200,37390,5,0,0:0:0:0:
252,192,37450,5,0,0:0:0:0:
268,196,37510,5,0,0:0:0:0:
260,192,37570,5,0,0:0:0:0:
252,192,37630,5,0,0:0:0:0:
260,188,37690,5,0,0:0:0:0:
264,192,37750,5,0,0:0:0:0:
260,200,37810,5,0,0:0:0:0:
256,200,37870,5,0,0:0:0:0:
252,192,37930,5,0,0:0:0:0:
268,196,37990,5,0,0:0:0:0:
260,192,38050,5,0,0:0:0:0:
252,192,38110,5,0,0:0:0:0:
260,188,38170,5,0,0:0:0:0:
264,192,38230,5,0,0:0:0:0:
260,200,38290,5,0,0:0:0:0:
256,200,38350,5,0,0:0:0:0:
252,192,38410,5,0,0:0:0:0:
268,196,38470,5,0,0:0:0:0:
260,192,38530,5,0,0:0:0:0:
252,192,38590,5,0,0:0:0:0:
260,188,38650,5,0,0:0:0:0:
264,192,38710,5,0,0:0:0:0:
260,200,38770,5,0,0:0:0:0:
256,200,38830,5,0,0:0:0:0:
252,192,38890,5,0,0:0:0:0:
268,196,38950,5,0,0:0:0:0:
260,192,39010,5,0,0:0:0:0:
252,192,39070,5,0,0:0:0:0:
260,188,39130,5,0,0:0:0:0:
264,192,39190,5,0,0:0:0:0:
260,200,39250,5,0,0:0:0:0:
256,200,39310,5,0,0:0:0:0:
252,192,39370,5,0,0:0:0:0:
268,196,39430,5,0,0:0:0:0:
260,192,39490,5,0,0:0:0:0:
252,192,39550,5,0,0:0:0:0:
260,188,39610,5,0,0:0:0:0:
264,192,39670,5,0,0:0:0:0:
260,200,39730,5,0,0:0:0:0:
256,200,39790,5,0,0:0:0:0:
252,192,39850,5,0,0:0:0:0:
268,196,39910,5,0,0:0:0:0:
260,192,39970,5,0,0:0:0:0:
252,192,40030,5,0,0:0:0:0:
260,188,40090,5,0,0:0:0:0:
264,192,40150,5,0,0:0:0:0:
260,200,40210,5,0,0:0:0:0:
256,200,40270,5,0,0:0:0:0:
252,192,40330,5,0,0:0:0:0:
268,196,40390,5,0,0:0:0:0:
260,192,40450,5,0,0:0:0:0:
252,192,40510,5,0,0:0:0:0:
260,188,40570,5,0,0:0:0:0:
264,192,40630,5,0,0:0:0:0:
260,200,40690,5,0,0:0:0:0:
256,200,40750,5,0,0:0:0:0:
252,192,40810,5,0,0:0:0:0:
268,196,40870,5,0,0:0:0:0:
260,192,40930,5,0,0:0:0:0:
252,192,40990,5,0,0:0:0:0:
260,188,41050,5,0,0:0:0:0:
264,192,41110,5,0,0:0:0:0:
260,200,41170,5,0,0:0:0:0:
256,200,41230,5,0,0:0:0:0:
252,192,41290,5,0,0:0:0:0:
268,196,41350,5,0,0:0:0:0:
260,192,41410,5,0,0:0:0:0:
252,192,41470,5,0,0:0:0:0:
260,188,41530,5,0,0:0:0:0:
264,192,41590,5,0,0:0:0:0:
260,200,41650,5,0,0:0:0:0:
256,200,41710,5,0,0:0:0:0:
252,192,41770,5,0,0:0:0:0:
268,196,41830,5,0,0:0:0:0:
260,192,41890,5,0,0:0:0:0:
252,192,41950,5,0,0:0:0:0:
260,188,42010,5,0,0:0:0:0:
264,192,42070,5,0,0:0:0:0:
260,200,42130,5,0,0:0:0:0:
256,200,42190,5,0,0:0:0:0:
252,192,42250,5,0,0:0:0:0:
268,196,42310,5,0,0:0:0:0:
260,192,42370,5,0,0:0:0:0:
252,192,42430,5,0,0:0:0:0:
260,188,42490,5,0,0:0:0:0:
264,192,42550,5,0,0:0:0:0:
260,200,42610,5,0,0:0:0:0:
256,200,42670,5,0,0:0:0:0:
252,192,42730,5,0,0:0:0:0:
268,196,42790,5,0,0:0:0:0:
260,192,42850,5,0,0:0:0:0:
252,192,42910,5,0,0:0:0:0:
260,188,42970,5,0,0:0:0:0:
264,192,43030,5,0,0:0:0:0:
260,200,43090,5,0,0:0:0:0:
256,200,43150,5,0,0:0:0:0:
252,192,43210,5,0,0:0:0:0:
268,196,43270,5,0,0:0:0:0:
260,192,43330,5,0,0:0:0:0:
252,192,43390,5,0,0:0:0:0:
260,188,43450,5,0,0:0:0:0:
264,192,43510,5,0,0:0:0:0:
260,200,43570,5,0,0:0:0:0:
256,200,43630,5,0,0:0:0:0:
252,192,43690,5,0,0:0:0:0:
268,196,43750,5,0,0:0:0:0:
260,192,43810,5,0,0:0:0:0:
252,192,43870,5,0,0:0:0:0:
260,188,43930,5,0,0:0:0:0:
264,192,43990,5,0,0:0:0:0:
260,200,44050,5,0,0:0:0:0:
256,200,44110,5,0,0:0:0:0:
252,192,44170,5,0,0:0:0:0:
268,196,44230,5,0,0:0:0:0:
260,192,44290,5,0,0:0:0:0:
252,192,44350,5,0,0:0:0:0:
260,188,44410,5,0,0:0:0:0:
264,192,44470,5,0,0:0:0:0:
260,200,44530,5,0,0:0:0:0:
256,200,44590,5,0,0:0:0:0:
252,192,44650,5,0,0:0:0:0:
268,196,44710,5,0,0:0:0:0:
260,192,44770,5,0,0:0:0:0:
252,192,44830,5,0,0:0:0:0:
260,188,44890,5,0,0:0:0:0:
264,192,44950,5,0,0:0:0:0:
260,200,45010,5,0,0:0:0:0:
256,200,45070,5,0,0:0:0:0:
252,192,45130,5,0,0:0:0:0:
268,196,45190,5,0,0:0:0:0:
260,192,45250,5,0,0:0:0:0:
252,192,45310,5,0,0:0:0:0:
260,188,45370,5,0,0:0:0:0:
264,192,45430,5,0,0:0:0:0:
260,200,45490,5,0,0:0:0:0:
256,200,45550,5,0,0:0:0:0:
252,192,45610,5,0,0:0:0:0:
268,196,45670,5,0,0:0:0:0:
260,192,45730,5,0,0:0:0:0:
252,192,45790,5,0,0:0:0:0:
260,188,45850,5,0,0:0:0:0:
264,192,45910,5,0,0:0:0:0:
260,200,45970,5,0,0:0:0:0:
256,200,46030,5,0,0:0:0:0:
252,192,46090,5,0,0:0:0:0:
268,196,46150,5,0,0:0:0:0:
260,192,46210,5,0,0:0:0:0:
252,192,46270,5,0,0:0:0:0:
260,188,46330,5,0,0:0:0:0:
264,192,46390,5,0,0:0:0:0:
260,200,46450,5,0,0:0:0:0:
256,200,46510,5,0,0:0:0:0:
252,192,46570,5,0,0:0:0:0:
268,196,46630,5,0,0:0:0:0:
260,192,46690,5,0,0:0:0:0:
252,192,46750,5,0,0:0:0:0:
260,188,46810,5,0,0:0:0:0:
264,192,46870,5,0,0:0:0:0:
260,200,46930,5,0,0:0:0:0:
256,200,46990,5,0,0:0:0:0:
252,192,47050,5,0,0:0:0:0:
268,196,47110,5,0,0:0:0:0:
260,192,47170,5,0,0:0:0:0:
252,192,47230,5,0,0:0:0:0:
260,188,47290,5,0,0:0:0:0:
264,192,47350,5,0,0:0:0:0:
260,200,47410,5,0,0:0:0:0:
256,200,47470,5,0,0:0:0:0:
252,192,47530,5,0,0:0:0:0:
268,196,47590,5,0,0:0:0:0:
260,192,47650,5,0,0:0:0:0:
252,192,47710,5,0,0:0:0:0:
260,188,47770,5,0,0:0:0:0:
264,192,47830,5,0,0:0:0:0:
260,200,47890,5,0,0:0:0:0:
256,200,47950,5,0,0:0:0:0:
252,192,48010,5,0,0:0:0:0:
268,196,48070,5,0,0:0:0:0:
260,192,48130,5,0,0:0:0:0:
252,192,48190,5,0,0:0:0:0:
260,188,48250,5,0,0:0:0:0:
264,192,48310,5,0,0:0:0:0:
260,200,48370,5,0,0:0:0:0:
256,200,48430,5,0,0:0:0:0:
252,192,48490,5,0,0:0:0:0:
268,196,48550,5,0,0:0:0:0:
260,192,48610,5,0,0:0:0:0:
252,192,48670,5,0,0:0:0:0:
260,188,48730,5,0,0:0:0:0:
264,192,48790,5,0,0:0:0:0:
260,200,48850,5,0,0:0:0:0:
256,200,48910,5,0,0:0:0:0:
252,192,48970,5,0,0:0:0:0:
268,196,49030,5,0,0:0:0:0:
260,192,49090,5,0,0:0:0:0:
252,192,49150,5,0,0:0:0:0:
260,188,49210,5,0,0:0:0:0:
264,192,49270,5,0,0:0:0:0:
260,200,49330,5,0,0:0:0:0:
256,200,49390,5,0,0:0:0:0:
252,192,49450,5,0,0:0:0:0:
268,196,49510,5,0,0:0:0:0:
260,192,49570,5,0,0:0:0:0:
252,192,49630,5,0,0:0:0:0:
260,188,49690,5,0,0:0:0:0:
264,192,49750,5,0,0:0:0:0:
260,200,49810,5,0,0:0:0:0:
256,200,49870,5,0,0:0:0:0:
252,192,49930,5,0,0:0:0:0:
268,196,49990,5,0,0:0:0:0:
260,192,50050,5,0,0:0:0:0:
252,192,50110,5,0,0:0:0:0:
260,188,50170,5,0,0:0:0:0:
264,192,50230,5,0,0:0:0:0:
260,200,50290,5,0,0:0:0:0:
256,200,50350,5,0,0:0:0:0:
252,192,50410,5,0,0:0:0:0:
268,196,50470,5,0,0:0:0:0:
260,192,50530,5,0,0:0:0:0:
252,192,50590,5,0,0:0:0:0:
260,188,50650,5,0,0:0:0:0:
264,192,50710,5,0,0:0:0:0:
260,200,50770,5,0,0:0:0:0:
256,200,50830,5,0,0:0:0:0:
252,192,50890,5,0,0:0:0:0:
268,196,50950,5,0,0:0:0:0:
260,192,51010,5,0,0:0:0:0:
252,192,51070,5,0,0:0:0:0:
260,188,51130,5,0,0:0:0:0:
264,192,51190,5,0,0:0:0:0:
260,200,51250,5,0,0:0:0:0:
256,200,51310,5,0,0:0:0:0:
252,192,51370,5,0,0:0:0:0:
268,196,51430,5,0,0:0:0:0:
260,192,51490,5,0,0:0:0:0:
252,192,51550,5,0,0:0:0:0:
260,188,51610,5,0,0:0:0:0:
264,192,51670,5,0,0:0:0:0:
260,200,51730,5,0,0:0:0:0:
256,200,51790,5,0,0:0:0:0:
252,192,51850,5,0,0:0:0:0:
268,196,51910,5,0,0:0:0:0:
260,192,51970,5,0,0:0:0:0:
252,192,52030,5,0,0:0:0:0:
260,188,52090,5,0,0:0:0:0:
264,192,52150,5,0,0:0:0:0:
260,200,52210,5,0,0:0:0:0:
256,200,52270,5,0,0:0:0:0:
252,192,52330,5,0,0:0:0:0:
268,196,52390,5,0,0:0:0:0:
260,192,52450,5,0,0:0:0:0:
252,192,52510,5,0,0:0:0:0:
260,188,52570,5,0,0:0:0:0:
264,192,52630,5,0,0:0:0:0:
260,200,52690,5,0,0:0:0:0:
256,200,52750,5,0,0:0:0:0:
252,192,52810,5,0,0:0:0:0:
268,196,52870,5,0,0:0:0:0:
260,192,52930,5,0,0:0:0:0:
252,192,52990,5,0,0:0:0:0:
260,188,53050,5,0,0:0:0:0:
264,192,53110,5,0,0:0:0:0:
260,200,53170,5,0,0:0:0:0:
256,200,53230,5,0,0:0:0:0:
252,192,53290,5,0,0:0:0:0:
268,196,53350,5,0,0:0:0:0:
260,192,53410,5,0,0:0:0:0:
252,192,53470,5,0,0:0:0:0:
260,188,53530,5,0,0:0:0:0:
264,192,53590,5,0,0:0:0:0:
260,200,53650,5,0,0:0:0:0:
256,200,53710,5,0,0:0:0:0:
252,192,53770,5,0,0:0:0:0:
268,196,53830,5,0,0:0:0:0:
260,192,53890,5,0,0:0:0:0:
252,192,53950,5,0,0:0:0:0:
260,188,54010,5,0,0:0:0:0:
264,192,54070,5,0,0:0:0:0:
260,200,54130,5,0,0:0:0:0:
256,200,54190,5,0,0:0:0:0:
252,192,54250,5,0,0:0:0:0:
268,196,54310,5,0,0:0:0:0:
260,192,54370,5,0,0:0:0:0:
252,192,54430,5,0,0:0:0:0:
260,188,54490,5,0,0:0:0:0:
264,192,54550,5,0,0:0:0:0:
260,200,54610,5,0,0:0:0:0:
256,200,54670,5,0,0:0:0:0:
252,192,54730,5,0,0:0:0:0:
268,196,54790,5,0,0:0:0:0:
260,192,54850,5,0,0:0:0:0:
252,192,54910,5,0,0:0:0:0:
260,188,54970,5,0,0:0:0:0:
264,192,55030,5,0,0:0:0:0:
260,200,55090,5,0,0:0:0:0:
256,200,55150,5,0,0:0:0:0:
252,192,55210,5,0,0:0:0:0:
268,196,55270,5,0,0:0:0:0:
260,192,55330,5,0,0:0:0:0:
252,192,55390,5,0,0:0:0:0:
260,188,55450,5,0,0:0:0:0:
264,192,55510,5,0,0:0:0:0:
260,200,55570,5,0,0:0:0:0:
256,200,55630,5,0,0:0:0:0:
252,192,55690,5,0,0:0:0:0:
268,196,55750,5,0,0:0:0:0:
260,192,55810,5,0,0:0:0:0:
252,192,55870,5,0,0:0:0:0:
260,188,55930,5,0,0:0:0:0:
264,192,55990,5,0,0:0:0:0:
260,200,56050,5,0,0:0:0:0:
256,200,56110,5,0,0:0:0:0:
252,192,56170,5,0,0:0:0:0:
268,196,56230,5,0,0:0:0:0:
260,192,56290,5,0,0:0:0:0:
252,192,56350,5,0,0:0:0:0:
260,188,56410,5,0,0:0:0:0:
264,192,56470,5,0,0:0:0:0:
260,200,56530,5,0,0:0:0:0:
256,200,56590,5,0,0:0:0:0:
252,192,56650,5,0,0:0:0:0:
268,196,56710,5,0,0:0:0:0:
260,192,56770,5,0,0:0:0:0:
252,192,56830,5,0,0:0:0:0:
260,188,56890,5,0,0:0:0:0:
264,192,56950,5,0,0:0:0:0:
260,200,57010,5,0,0:0:0:0:
256,200,57070,5,0,0:0:0:0:
252,192,57130,5,0,0:0:0:0:
268,196,57190,5,0,0:0:0:0:
260,192,57250,5,0,0:0:0:0:
252,192,57310,5,0,0:0:0:0:
260,188,57370,5,0,0:0:0:0:
264,192,57430,5,0,0:0:0:0:
260,200,57490,5,0,0:0:0:0:
256,200,57550,5,0,0:0:0:0:
252,192,57610,5,0,0:0:0:0:
268,196,57670,5,0,0:0:0:0:
260,192,57730,5,0,0:0:0:0:
252,192,57790,5,0,0:0:0:0:
260,188,57850,5,0,0:0:0:0:
264,192,57910,5,0,0:0:0:0:
260,200,57970,5,0,0:0:0:0:
256,200,58030,5,0,0:0:0:0:
252,192,58090,5,0,0:0:0:0:
268,196,58150,5,0,0:0:0:0:
260,192,58210,5,0,0:0:0:0:
252,192,58270,5,0,0:0:0:0:
260,188,58330,5,0,0:0:0:0:
264,192,58390,5,0,0:0:0:0:
260,200,58450,5,0,0:0:0:0:
256,200,58510,5,0,0:0:0:0:
252,192,58570,5,0,0:0:0:0:
268,196,58630,5,0,0:0:0:0:
260,192,58690,5,0,0:0:0:0:
252,192,58750,5,0,0:0:0:0:
260,188,58810,5,0,0:0:0:0:
264,192,58870,5,0,0:0:0:0:
260,200,58930,5,0,0:0:0:0:
256,200,58990,5,0,0:0:0:0:
252,192,59050,5,0,0:0:0:0:
268,196,59110,5,0,0:0:0:0:
260,192,59170,5,0,0:0:0:0:
252,192,59230,5,0,0:0:0:0:
260,188,59290,5,0,0:0:0:0:
264,192,59350,5,0,0:0:0:0:
260,200,59410,5,0,0:0:0:0:
256,200,59470,5,0,0:0:0:0:
252,192,59530,5,0,0:0:0:0:
268,196,59590,5,0,0:0:0:0:
260,192,59650,5,0,0:0:0:0:
252,192,59710,5,0,0:0:0:0:
260,188,59770,5,0,0:0:0:0:
264,192,59830,5,0,0:0:0:0:
260,200,59890,5,0,0:0:0:0:
256,200,59950,5,0,0:0:0:0:
252,192,60010,5,0,0:0:0:0:
268,196,60070,5,0,0:0:0:0:
260,192,60130,5,0,0:0:0:0:
252,192,60190,5,0,0:0:0:0:
260,188,60250,5,0,0:0:0:0:
264,192,60310,5,0,0:0:0:0:
260,200,60370,5,0,0:0:0:0:
256,200,60430,5,0,0:0:0:0:
252,192,60490,5,0,0:0:0:0:
268,196,60550,5,0,0:0:0:0:
260,192,60610,5,0,0:0:0:0:
252,192,60670,5,0,0:0:0:0:
260,188,60730,5,0,0:0:0:0:
264,192,60790,5,0,0:0:0:0:
260,200,60850,5,0,0:0:0:0:
256,200,60910,5,0,0:0:0:0:
252,192,60970,5,0,0:0:0:0:
268,196,61030,5,0,0:0:0:0:
260,192,61090,5,0,0:0:0:0:
252,192,61150,5,0,0:0:0:0:
260,188,61210,5,0,0:0:0:0:
264,192,61270,5,0,0:0:0:0:
260,200,61330,5,0,0:0:0:0:
256,200,61390,5,0,0:0:0:0:
252,192,61450,5,0,0:0:0:0:
268,196,61510,5,0,0:0:0:0:
260,192,61570,5,0,0:0:0:0:
252,192,61630,5,0,0:0:0:0:
260,188,61690,5,0,0:0:0:0:
264,192,61750,5,0,0:0:0:0:
260,200,61810,5,0,0:0:0:0:
256,200,61870,5,0,0:0:0:0:
252,192,61930,5,0,0:0:0:0:
268,196,61990,5,0,0:0:0:0:
260,192,62050,5,0,0:0:0:0:
252,192,62110,5,0,0:0:0:0:
260,188,62170,5,0,0:0:0:0:
264,192,62230,5,0,0:0:0:0:
260,200,62290,5,0,0:0:0:0:
256,200,62350,5,0,0:0:0:0:
252,192,62410,5,0,0:0:0:0:
268,196,62470,5,0,0:0:0:0:
260,192,62530,5,0,0:0:0:0:
252,192,62590,5,0,0:0:0:0:
260,188,62650,5,0,0:0:0:0:
264,192,62710,5,0,0:0:0:0:
260,200,62770,5,0,0:0:0:0:
256,200,62830,5,0,0:0:0:0:
252,192,62890,5,0,0:0:0:0:
268,196,62950,5,0,0:0:0:0:
260,192,63010,5,0,0:0:0:0:
252,192,63070,5,0,0:0:0:0:
260,188,63130,5,0,0:0:0:0:
264,192,63190,5,0,0:0:0:0:
260,200,63250,5,0,0:0:0:0:
256,200,63310,5,0,0:0:0:0:
252,192,63370,5,0,0:0:0:0:
268,196,63430,5,0,0:0:0:0:
260,192,63490,5,0,0:0:0:0:
252,192,63550,5,0,0:0:0:0:
260,188,63610,5,0,0:0:0:0:
264,192,63670,5,0,0:0:0:0:
260,200,63730,5,0,0:0:0:0:
256,200,63790,5,0,0:0:0:0:
252,192,63850,5,0,0:0:0:0:
268,196,63910,5,0,0:0:0:0:
260,192,63970,5,0,0:0:0:0:
252,192,64030,5,0,0:0:0:0:
260,188,64090,5,0,0:0:0:0:
264,192,64150,5,0,0:0:0:0:
260,200,64210,5,0,0:0:0:0:
256,200,64270,5,0,0:0:0:0:
252,192,64330,5,0,0:0:0:0:
268,196,64390,5,0,0:0:0:0:
260,192,64450,5,0,0:0:0:0:
252,192,64510,5,0,0:0:0:0:
260,188,64570,5,0,0:0:0:0:
264,192,64630,5,0,0:0:0:0:
260,200,64690,5,0,0:0:0:0:
256,200,64750,5,0,0:0:0:0:
252,192,64810,5,0,0:0:0:0:
268,196,64870,5,0,0:0:0:0:
260,192,64930,5,0,0:0:0:0:
252,192,64990,5,0,0:0:0:0:
260,188,65050,5,0,0:0:0:0:
264,192,65110,5,0,0:0:0:0:
260,200,65170,5,0,0:0:0:0:
256,200,65230,5,0,0:0:0:0:
252,192,65290,5,0,0:0:0:0:
268,196,65350,5,0,0:0:0:0:
260,192,65410,5,0,0:0:0:0:
252,192,65470,5,0,0:0:0:0:
260,188,65530,5,0,0:0:0:0:
264,192,65590,5,0,0:0:0:0:
260,200,65650,5,0,0:0:0:0:
256,200,65710,5,0,0:0:0:0:
252,192,65770,5,0,0:0:0:0:
268,196,65830,5,0,0:0:0:0:
260,192,65890,5,0,0:0:0:0:
252,192,65950,5,0,0:0:0:0:
260,188,66010,5,0,0:0:0:0:
264,192,66070,5,0,0:0:0:0:
260,200,66130,5,0,0:0:0:0:
256,200,66190,5,0,0:0:0:0:
252,192,66250,5,0,0:0:0:0:
268,196,66310,5,0,0:0:0:0:
260,192,66370,5,0,0:0:0:0:
252,192,66430,5,0,0:0:0:0:
260,188,66490,5,0,0:0:0:0:
264,192,66550,5,0,0:0:0:0:
260,200,66610,5,0,0:0:0:0:
256,200,66670,5,0,0:0:0:0:
252,192,66730,5,0,0:0:0:0:
268,196,66790,5,0,0:0:0:0:
260,192,66850,5,0,0:0:0:0:
252,192,66910,5,0,0:0:0:0:
260,188,66970,5,0,0:0:0:0:
264,192,67030,5,0,0:0:0:0:
260,200,67090,5,0,0:0:0:0:
256,200,67150,5,0,0:0:0:0:
252,192,67210,5,0,0:0:0:0:
268,196,67270,5,0,0:0:0:0:
260,192,67330,5,0,0:0:0:0:
252,192,67390,5,0,0:0:0:0:
260,188,67450,5,0,0:0:0:0:
264,192,67510,5,0,0:0:0:0:
260,200,67570,5,0,0:0:0:0:
256,200,67630,5,0,0:0:0:0:
252,192,67690,5,0,0:0:0:0:
268,196,67750,5,0,0:0:0:0:
260,192,67810,5,0,0:0:0:0:
252,192,67870,5,0,0:0:0:0:
260,188,67930,5,0,0:0:0:0:
264,192,67990,5,0,0:0:0:0:
260,200,68050,5,0,0:0:0:0:
256,200,68110,5,0,0:0:0:0:
252,192,68170,5,0,0:0:0:0:
268,196,68230,5,0,0:0:0:0:
260,192,68290,5,0,0:0:0:0:
252,192,68350,5,0,0:0:0:0:
260,188,68410,5,0,0:0:0:0:
264,192,68470,5,0,0:0:0:0:
260,200,68530,5,0,0:0:0:0:
256,200,68590,5,0,0:0:0:0:
252,192,68650,5,0,0:0:0:0:
268,196,68710,5,0,0:0:0:0:
260,192,68770,5,0,0:0:0:0:
252,192,68830,5,0,0:0:0:0:
260,188,68890,5,0,0:0:0:0:
264,192,68950,5,0,0:0:0:0:
260,200,69010,5,0,0:0:0:0:
256,200,69070,5,0,0:0:0:0:
252,192,69130,5,0,0:0:0:0:
268,196,69190,5,0,0:0:0:0:
260,192,69250,5,0,0:0:0:0:
252,192,69310,5,0,0:0:0:0:
260,188,69370,5,0,0:0:0:0:
264,192,69430,5,0,0:0:0:0:
260,200,69490,5,0,0:0:0:0:
256,200,69550,5,0,0:0:0:0:
252,192,69610,5,0,0:0:0:0:
268,196,69670,5,0,0:0:0:0:
260,192,69730,5,0,0:0:0:0:
252,192,69790,5,0,0:0:0:0:
260,188,69850,5,0,0:0:0:0:
264,192,69910,5,0,0:0:0:0:
260,200,69970,5,0,0:0:0:0:
256,200,70030,5,0,0:0:0:0:
252,192,70090,5,0,0:0:0:0:
268,196,70150,5,0,0:0:0:0:
260,192,70210,5,0,0:0:0:0:
252,192,70270,5,0,0:0:0:0:
260,188,70330,5,0,0:0:0:0:
264,192,70390,5,0,0:0:0:0:
260,200,70450,5,0,0:0:0:0:
256,200,70510,5,0,0:0:0:0:
252,192,70570,5,0,0:0:0:0:
268,196,70630,5,0,0:0:0:0:
