osu file format v14

[General]
AudioFilename: audio.mp3
AudioLeadIn: 0
PreviewTime: 36340
Countdown: 0
SampleSet: None
StackLeniency: 0.7
Mode: 0
LetterboxInBreaks: 0
WidescreenStoryboard: 1

[Editor]
Bookmarks: 12450,36418,82108,84337,106815,120274,132271,141257,144252,153238,156233
DistanceSpacing: 1
BeatDivisor: 2
GridSize: 16
TimelineZoom: 2.899999

[Metadata]
Title:Bleed American
TitleUnicode:Bleed American
Artist:Jimmy Eat World
ArtistUnicode:Jimmy Eat World
Creator:Silverboxer
Version:Normal
Source:
Tags:bleed american salt sweat sugar alternative indie alt rock english jew pw384 384059043 punk james jim christopher adkins tom linton zach lind rick burch male vocal vocals vocalist
BeatmapID:4547537
BeatmapSetID:2029188

[Difficulty]
HPDrainRate:3
CircleSize:3
OverallDifficulty:4
ApproachRate:5
SliderMultiplier:1.2
SliderTickRate:1

[Events]
//Background and Video events
0,0,"bleed_american_2x-min.png",0,0
//Break Periods
2,16031,17440
2,63956,65365
//Storyboard Layer 0 (Background)
//Storyboard Layer 1 (Fail)
//Storyboard Layer 2 (Pass)
//Storyboard Layer 3 (Foreground)
//Storyboard Layer 4 (Overlay)
//Storyboard Sound Samples

[TimingPoints]
467,374.648766781143,4,1,0,70,1,0
6378,-100,4,2,0,70,0,0
6461,-100,4,1,0,70,0,0
9373,-100,4,2,0,70,0,0
9467,374.414976599064,4,2,0,70,1,0
12463,-100,4,2,0,60,0,0
23881,-100,4,2,0,70,0,1
24256,-100,4,2,0,60,0,0
34927,-100,4,2,0,70,0,0
36424,-100,4,1,0,80,0,1
60387,-100,4,2,0,60,0,0
71807,-100,4,2,0,70,0,1
72181,-100,4,2,0,60,0,0
82852,-100,4,2,0,70,0,0
84349,-100,4,1,0,80,0,1
106814,-100,4,2,0,70,0,0
108302,374.707259953162,4,1,0,80,1,0
108302,-100,4,1,0,80,0,1
120205,-100,4,2,0,70,0,1
120292,374.414976599064,4,1,0,70,1,0
132273,-100,4,1,0,80,0,1
154738,-100,4,2,0,70,0,0
156235,372.093023255814,4,1,0,80,1,0
156235,-100,4,1,0,80,0,1
177072,373.831775700935,4,1,0,80,1,0
177072,-100,4,1,0,80,0,1
180062,422.535211267606,4,2,0,80,1,0
180484,-100,4,2,0,10,0,0

[Colours]
Combo1 : 17,254,176
Combo2 : 173,255,95
Combo3 : 255,88,100
Combo4 : 255,94,55

[HitObjects]
107,274,467,5,8,1:2:0:0:
165,286,654,1,0,1:0:0:0:
224,293,841,2,0,P|309:293|391:299,1,120,10|10,1:1|1:1,0:0:0:0:
452,346,1590,2,0,P|474:276|460:221,2,120,8|10|10,1:2|1:1|1:1,0:0:0:0:
332,356,2714,1,8,1:2:0:0:
231,291,3089,1,8,1:2:0:0:
114,254,3464,5,8,1:2:0:0:
79,205,3651,1,0,1:0:0:0:
65,146,3838,2,0,P|57:83|68:14,1,120,10|10,1:1|1:1,0:0:0:0:
182,48,4588,2,0,P|249:52|323:46,2,120,8|10|10,1:2|1:1|1:1,0:0:0:0:
71,94,5712,1,8,1:2:0:0:
77,214,6086,1,8,1:2:0:0:
196,209,6461,5,8,1:2:0:0:
205,268,6648,1,0,1:0:0:0:
218,326,6836,2,0,B|263:348|297:348|336:318,1,120,10|10,1:1|1:1,0:0:0:0:
402,225,7585,2,0,B|365:201|316:206|285:238,2,120,8|10|10,1:2|1:1|1:1,0:0:0:0:
499,296,8709,1,8,1:2:0:0:
510,176,9083,1,8,1:2:0:0:
507,56,9467,6,0,L|336:62,1,120,4|8,1:0|1:2,0:0:0:0:
267,73,10215,2,0,L|260:-2,2,60,0|0|8,1:0|1:0|1:2,0:0:0:0:
273,132,10777,1,0,0:0:0:0:
281,191,10964,2,0,L|271:335,1,120,4|8,1:0|1:2,0:0:0:0:
160,353,11713,2,0,L|98:357,2,60,0|4|12,1:0|1:2|1:2,0:0:0:0:
339,362,12649,5,2,1:2:0:0:
398,353,12836,2,0,B|424:314|427:277|408:232,1,120,10|2,1:2|1:2,0:0:0:0:
303,184,13585,1,10,1:2:0:0:
243,185,13772,1,2,0:0:0:0:
184,197,13959,2,0,P|97:205|43:207,1,120,2|10,1:2|1:2,0:0:0:0:
3,103,14708,1,0,1:0:0:0:
103,36,15083,2,0,P|196:40|352:66,1,240,8|8,1:2|1:2,0:0:0:0:
374,123,18640,5,2,1:2:0:0:
385,181,18827,2,0,L|375:333,1,120,10|2,1:2|1:2,0:0:0:0:
271,358,19576,1,10,1:2:0:0:
239,306,19763,1,2,0:0:0:0:
207,254,19950,2,0,L|197:112,1,120,2|10,1:2|1:2,0:0:0:0:
132,33,20699,1,0,1:0:0:0:
45,116,21073,2,0,B|-3:193|1:274|88:334,1,240,8|8,1:2|1:2,0:0:0:0:
183,266,22197,6,0,P|202:207|193:141,1,120,2|8,1:2|1:2,0:0:0:0:
255,156,22758,2,0,B|310:194|375:197|430:156,1,180,2|8,0:0|1:2,0:0:0:0:
498,66,23694,2,0,L|505:1,2,60,0|6|6,1:0|1:2|1:2,0:0:0:0:
383,28,24443,5,2,1:2:0:0:
278,86,24818,1,10,1:2:0:0:
219,73,25005,1,2,0:0:0:0:
161,91,25192,2,0,P|120:143|106:211,2,120,2|10|0,1:2|1:2|1:0,0:0:0:0:
240,181,26315,1,10,1:2:0:0:
298,195,26502,1,2,0:0:0:0:
357,183,26690,2,0,P|425:186|486:196,1,120,2|10,1:2|1:2,0:0:0:0:
493,312,27438,6,0,B|434:406|319:388|300:274,2,240,0|0|0,1:0|1:0|1:0,0:0:0:0:
411,223,29310,1,8,1:2:0:0:
297,182,29685,2,0,B|212:209|163:240|102:333,1,240,2|2,1:2|1:2,0:0:0:0:
12,250,30808,5,10,1:2:0:0:
8,190,30995,1,2,0:0:0:0:
0,130,31183,2,0,L|8:7,2,120,2|10|0,1:2|1:2|1:0,0:0:0:0:
118,148,32306,1,10,1:2:0:0:
129,206,32493,1,2,0:0:0:0:
166,252,32680,2,0,P|230:257|296:237,1,120,2|10,1:2|1:2,0:0:0:0:
360,335,33429,2,0,B|458:308|484:240|430:144,1,240,0|0,1:0|1:0,0:0:0:0:
228,25,34927,5,10,1:1:0:0:
235,85,35114,1,0,1:0:0:0:
242,145,35301,1,10,1:1:0:0:
122,135,35676,1,10,1:1:0:0:
131,194,35863,1,0,1:0:0:0:
140,253,36050,1,10,1:1:0:0:
73,352,36424,5,4,1:0:0:0:
18,245,36799,1,10,1:1:0:0:
108,166,37173,2,0,P|187:176|244:192,1,120,10|4,1:0|1:1,0:0:0:0:
310,270,37922,2,0,L|315:337,2,60,0|0|8,1:0|1:0|1:2,0:0:0:0:
352,227,38484,1,2,0:1:0:0:
394,184,38671,2,0,L|406:25,1,120,10|10,1:1|1:1,0:0:0:0:
167,16,39794,5,10,1:1:0:0:
47,15,40169,2,0,P|38:94|47:143,1,120,10|4,1:1|1:0,0:0:0:0:
146,195,40917,2,0,L|94:237,2,60,0|0|8,1:0|1:0|1:2,0:0:0:0:
194,159,41479,1,0,1:0:0:0:
249,136,41666,2,0,P|315:123|389:121,1,120,10|10,1:1|1:1,0:0:0:0:
509,314,42789,5,10,1:1:0:0:
390,333,43164,1,10,1:1:0:0:
297,180,43725,1,0,1:0:0:0:
245,211,43913,2,0,L|235:283,2,60,0|0|8,1:0|1:0|1:2,0:0:0:0:
198,173,44474,1,0,1:0:0:0:
147,140,44662,2,0,L|135:15,1,120,10|10,1:1|1:1,0:0:0:0:
23,63,45410,5,8,1:2:0:0:
19,182,45785,1,8,1:2:0:0:
25,301,46159,1,8,1:2:0:0:
144,292,46534,1,8,1:2:0:0:
130,172,46908,1,8,1:2:0:0:
120,52,47282,1,8,1:2:0:0:
239,45,47657,1,8,1:2:0:0:
250,164,48031,1,8,1:2:0:0:
389,359,48780,5,10,1:1:0:0:
490,294,49154,2,0,P|503:225|489:166,1,120,10|4,1:0|1:1,0:0:0:0:
459,61,49903,2,0,L|495:13,2,60,0|0|8,1:0|1:0|1:2,0:0:0:0:
411,98,50465,1,2,0:1:0:0:
365,137,50652,2,0,P|296:179|240:205,1,120,10|10,1:1|1:1,0:0:0:0:
92,368,51775,5,10,1:1:0:0:
26,267,52150,2,0,P|21:191|13:112,1,120,10|4,1:1|1:0,0:0:0:0:
58,34,52899,2,0,P|11:20|-15:17,2,60,0|0|8,1:0|1:0|1:2,0:0:0:0:
111,62,53460,1,0,1:0:0:0:
169,77,53647,2,0,P|239:77|316:73,1,120,10|10,1:1|1:1,0:0:0:0:
192,295,54771,5,10,1:1:0:0:
291,362,55145,1,10,1:1:0:0:
447,273,55707,1,0,1:0:0:0:
422,219,55894,2,0,L|359:226,2,60,2|2|8,1:1|1:1|1:2,0:0:0:0:
467,178,56456,1,2,1:1:0:0:
505,132,56643,2,0,L|512:11,1,120,10|10,1:1|1:1,0:0:0:0:
395,41,57392,6,0,P|321:27|264:56,1,120,8|8,1:2|1:2,0:0:0:0:
238,155,58140,2,0,L|156:171,2,60,8|0|8,1:2|1:0|1:2,0:0:0:0:
330,231,58889,2,2,B|426:217|469:150|408:25,1,240,8|0,1:2|1:0,0:1:0:0:
362,39,59825,1,8,1:2:0:0:
303,26,60013,1,8,1:2:0:0:
183,160,60574,5,2,1:2:0:0:
199,217,60761,2,0,P|195:305|186:357,1,120,10|2,1:2|1:2,0:0:0:0:
76,375,61510,1,10,1:2:0:0:
44,324,61697,1,2,0:0:0:0:
15,271,61885,2,0,P|0:204|18:142,1,120,2|10,1:2|1:2,0:0:0:0:
95,69,62633,1,0,1:0:0:0:
176,156,63008,2,0,P|249:178|442:164,1,240,8|8,1:2|1:2,0:0:0:0:
425,21,66565,5,2,1:2:0:0:
375,55,66752,2,0,L|246:60,1,120,10|2,1:2|1:2,0:0:0:0:
156,127,67501,1,10,1:2:0:0:
191,175,67688,1,2,0:0:0:0:
227,223,67875,2,0,L|376:218,1,120,2|10,1:2|1:2,0:0:0:0:
438,295,68624,1,0,1:0:0:0:
508,197,68998,2,0,B|529:122|451:31|335:97,1,240,8|8,1:2|1:2,0:0:0:0:
251,26,70122,6,0,P|241:107|256:153,1,120,2|8,1:2|1:2,0:0:0:0:
271,199,70683,2,0,P|293:272|259:373,1,180,2|8,0:0|1:2,0:0:0:0:
143,353,71619,2,0,L|71:362,2,60,0|6|6,1:0|1:2|1:2,0:0:0:0:
169,235,72368,5,2,1:2:0:0:
249,145,72743,1,10,1:2:0:0:
260,86,72930,1,2,0:0:0:0:
222,39,73117,2,0,P|160:25|101:34,2,120,2|10|0,1:2|1:2|1:0,0:0:0:0:
339,67,74240,1,10,1:2:0:0:
398,59,74427,1,2,0:0:0:0:
457,68,74615,2,0,P|481:126|470:186,1,120,2|10,1:2|1:2,0:0:0:0:
362,231,75364,2,0,B|260:238|260:238|222:220|222:220|113:227,2,240,0|0|0,1:0|1:0|1:0,0:0:0:0:
473,275,77236,1,8,1:2:0:0:
393,364,77610,2,0,L|130:353,1,240,2|2,1:2|1:2,0:0:0:0:
33,363,78733,5,10,1:2:0:0:
26,303,78920,1,2,0:0:0:0:
18,243,79108,2,0,L|4:114,2,120,2|10|0,1:2|1:2|1:0,0:0:0:0:
126,190,80231,1,10,1:2:0:0:
185,198,80418,1,2,0:0:0:0:
244,206,80605,2,0,L|377:222,1,120,2|10,1:2|1:2,0:0:0:0:
470,274,81354,2,0,P|480:152|481:23,1,240,0|0,1:0|1:0,0:0:0:0:
241,26,82852,5,10,1:1:0:0:
231,85,83039,1,0,1:0:0:0:
221,144,83226,1,10,1:1:0:0:
340,132,83601,1,10,1:1:0:0:
330,191,83788,1,0,1:0:0:0:
320,250,83975,1,10,1:1:0:0:
285,364,84349,5,4,1:0:0:0:
167,340,84724,1,10,1:1:0:0:
170,219,85098,2,0,P|159:146|143:82,1,120,10|4,1:0|1:1,0:0:0:0:
38,52,85847,2,0,L|5:1,2,60,0|0|8,1:0|1:0|1:2,0:0:0:0:
23,110,86409,1,2,0:1:0:0:
12,169,86596,2,0,P|16:234|51:296,1,120,10|10,1:1|1:1,0:0:0:0:
191,96,87719,5,10,1:1:0:0:
270,185,88094,2,0,P|342:182|399:171,1,120,10|4,1:1|1:0,0:0:0:0:
452,71,88842,2,0,L|512:75,2,60,0|0|8,1:0|1:0|1:2,0:0:0:0:
397,44,89404,1,0,1:0:0:0:
337,49,89591,2,0,P|317:114|327:178,1,120,10|10,1:1|1:1,0:0:0:0:
484,342,90715,5,10,1:1:0:0:
364,355,91089,1,10,1:1:0:0:
185,332,91651,1,0,1:0:0:0:
158,278,91838,2,0,L|90:281,2,60,0|0|8,1:0|1:0|1:2,0:0:0:0:
204,240,92399,1,0,1:0:0:0:
250,201,92587,2,0,P|253:120|259:62,1,120,10|10,1:1|1:1,0:0:0:0:
355,12,93335,5,8,1:2:0:0:
474,6,93710,1,8,1:2:0:0:
488,125,94084,1,8,1:2:0:0:
368,138,94459,1,8,1:2:0:0:
248,149,94833,1,8,1:2:0:0:
258,268,95208,1,8,1:2:0:0:
376,254,95582,1,8,1:2:0:0:
392,372,95956,1,8,1:2:0:0:
152,369,96705,5,10,1:1:0:0:
83,270,97080,2,0,P|152:248|204:251,1,120,10|4,1:0|1:1,0:0:0:0:
313,287,97828,2,0,L|323:350,2,60,0|0|8,1:0|1:0|1:2,0:0:0:0:
343,234,98390,1,2,0:1:0:0:
400,217,98577,2,0,P|470:207|515:173,1,120,10|10,1:1|1:1,0:0:0:0:
420,98,99326,6,0,P|452:38|502:2,2,120,10|10|10,1:1|1:1|1:1,0:0:0:0:
308,53,100449,1,4,1:0:0:0:
189,74,100824,2,0,L|181:14,2,60,0|0|8,1:0|1:0|1:2,0:0:0:0:
219,125,101385,1,0,1:0:0:0:
251,175,101573,2,0,L|275:300,1,120,10|10,1:1|1:1,0:0:0:0:
33,307,102696,5,10,1:1:0:0:
5,190,103070,1,10,1:1:0:0:
106,41,103632,1,0,1:0:0:0:
146,86,103819,2,0,P|143:127|134:153,2,60,2|2|8,1:1|1:1|1:2,0:0:0:0:
202,65,104381,1,2,1:1:0:0:
251,30,104568,2,0,P|315:25|383:41,1,120,10|10,1:1|1:1,0:0:0:0:
487,8,105317,6,0,L|482:128,1,120,0|8,1:0|1:2,0:0:0:0:
433,238,106066,2,0,L|440:304,2,60,0|0|8,1:0|1:0|1:2,0:0:0:0:
315,266,106814,2,2,B|221:336|98:293|90:139|237:83,1,360,0|8,1:0|1:2,0:1:0:0:
298,37,108302,5,8,1:2:0:0:
417,30,108676,1,8,1:2:0:0:
426,149,109051,2,0,L|437:273,1,120,8|8,1:2|1:2,0:0:0:0:
320,239,109800,5,8,1:2:0:0:
332,358,110175,1,8,1:2:0:0:
221,312,110550,2,0,L|97:320,1,120,8|8,1:2|1:2,0:0:0:0:
24,227,111299,5,8,1:2:0:0:
32,107,111674,1,8,1:2:0:0:
150,121,112049,2,0,L|282:119,1,120,8|8,1:2|1:2,0:0:0:0:
341,216,112798,5,8,1:2:0:0:
459,232,113173,1,8,1:2:0:0:
413,120,113547,2,0,L|407:-8,1,120,8|8,1:2|1:2,0:0:0:0:
295,43,114297,6,0,P|221:34|170:39,2,120,8|8|8,1:2|1:2|1:2,0:0:0:0:
236,148,115421,1,8,1:2:0:0:
116,138,115796,2,0,P|65:189|0:341,1,240,8|8,1:2|1:2,0:0:0:0:
119,348,116920,1,8,1:2:0:0:
233,309,117294,6,0,P|312:320|361:308,1,120,8|8,1:2|1:2,0:0:0:0:
460,360,118044,2,0,P|464:291|441:235,1,120,8|8,1:2|1:2,0:0:0:0:
411,130,118793,2,0,P|358:162|313:213,1,120,8|8,1:2|1:2,0:0:0:0:
256,306,119543,2,0,L|256:369,2,60,4|4|4,1:2|1:2|1:2,0:0:0:0:
144,352,120292,6,0,B|65:362|0:301|22:182,1,240,2|0,1:0|1:0,0:0:0:0:
110,112,121415,1,8,1:2:0:0:
189,21,121789,2,0,P|220:82|205:203,1,180,2|0,1:0|0:0,0:0:0:0:
171,235,122538,2,0,P|161:301|186:360,1,120,2|8,1:0|1:2,0:0:0:0:
283,290,123287,2,0,B|339:256|416:244|513:288,1,240,2|0,1:0|1:0,0:0:0:0:
504,108,124597,5,2,1:0:0:0:
386,135,124972,2,0,P|294:130|195:127,1,180,2|2,1:0|1:0,0:0:0:0:
163,169,125721,1,2,1:0:0:0:
121,211,125908,1,8,1:2:0:0:
23,141,126282,2,0,L|11:16,2,120,0|8|2,1:0|1:2|1:0,0:0:0:0:
128,83,127405,1,8,1:2:0:0:
236,134,127780,2,0,L|244:6,2,120,0|8|0,1:0|1:2|1:0,0:0:0:0:
388,230,129090,6,2,B|400:308|358:358|264:344,1,180,2|8,1:0|1:2,0:1:0:0:
229,351,129839,2,2,B|162:356|110:319|114:231,1,180,2|8,1:0|1:2,0:1:0:0:
46,145,130775,2,2,B|115:19|250:44|247:172|373:195|452:69,1,480,10|4,1:1|1:0,0:1:0:0:
505,177,132647,6,2,L|486:314,2,120,8|0|4,1:2|1:0|1:1,0:0:0:0:
476,124,133583,2,2,P|386:133|286:148,1,180,2|8,1:0|1:2,0:0:0:0:
214,58,134519,2,0,L|204:-16,2,60,0|0|4,1:0|1:0|1:1,0:0:0:0:
183,109,135081,2,2,L|2:96,1,180,2|8,0:0|1:2,0:0:0:0:
15,215,136017,6,0,L|7:281,2,60,0|0|4,1:0|1:0|1:1,0:0:0:0:
127,257,136766,1,0,1:0:0:0:
186,264,136953,1,0,1:0:0:0:
245,271,137140,1,8,1:2:0:0:
358,309,137515,2,0,L|363:370,2,60,0|0|4,1:0|1:0|1:1,0:0:0:0:
409,277,138076,2,2,P|428:213|413:91,1,180,2|8,0:0|1:2,0:0:0:0:
303,60,139012,6,0,L|296:0,2,60,0|0|4,1:0|1:0|1:1,0:0:0:0:
259,102,139574,2,2,L|276:286,1,180,2|8,0:0|1:2,0:0:0:0:
163,325,140510,2,0,L|167:384,2,60,0|0|4,1:0|1:0|1:1,0:0:0:0:
75,242,141259,5,8,1:2:0:0:
172,171,141633,1,10,1:1:0:0:
284,212,142008,1,10,1:1:0:0:
296,270,142195,1,2,1:1:0:0:
309,328,142382,1,10,1:1:0:0:
423,293,142756,2,0,P|447:235|434:168,1,120,8|8,1:2|1:2,0:0:0:0:
487,69,143505,2,0,P|419:59|370:77,1,120,8|8,1:2|1:2,0:0:0:0:
252,261,144628,5,8,1:2:0:0:
145,317,145003,2,0,L|151:380,2,60,0|0|4,1:0|1:0|1:1,0:0:0:0:
85,323,145565,2,2,P|65:239|71:131,1,180,2|8,0:0|1:2,0:0:0:0:
162,71,146501,2,0,L|157:11,2,60,0|0|4,1:0|1:0|1:1,0:0:0:0:
186,125,147062,2,2,P|251:159|368:167,1,180,2|8,0:0|1:2,0:0:0:0:
455,101,147998,6,0,L|478:29,2,60,0|0|4,1:0|1:0|1:1,0:0:0:0:
352,37,148747,1,0,1:0:0:0:
292,29,148934,1,0,1:0:0:0:
232,22,149121,1,8,1:2:0:0:
123,74,149496,2,0,L|92:15,2,60,0|0|4,1:0|1:0|1:1,0:0:0:0:
93,125,150057,2,2,B|34:170|24:222|62:308,1,180,2|8,0:0|1:2,0:0:0:0:
167,321,150994,6,0,L|174:382,2,60,0|0|4,1:0|1:0|1:1,0:0:0:0:
196,268,151555,2,2,B|255:291|318:287|370:250,1,180,2|8,0:0|1:2,0:0:0:0:
485,226,152491,2,0,L|495:295,2,60,0|0|4,1:0|1:0|1:1,0:0:0:0:
415,127,153240,5,8,1:2:0:0:
324,48,153614,1,10,1:1:0:0:
264,152,153989,1,10,1:1:0:0:
256,211,154176,1,2,1:0:0:0:
249,270,154363,1,10,1:1:0:0:
149,337,154738,5,4,1:2:0:0:
149,337,154925,1,4,1:2:0:0:
127,219,155299,1,4,1:2:0:0:
127,219,155487,1,4,1:2:0:0:
107,100,155861,1,4,1:2:0:0:
332,15,156607,5,10,1:1:0:0:
412,104,156979,2,2,P|353:140|286:143,1,120,10|4,1:0|1:1,0:0:0:0:
189,106,157723,2,0,L|170:44,2,60,0|0|8,1:0|1:0|1:2,0:0:0:0:
161,159,158281,1,2,0:1:0:0:
155,218,158467,2,0,P|164:287|192:345,1,120,10|10,1:1|1:1,0:0:0:0:
288,273,159211,1,4,1:0:0:0:
392,332,159583,5,10,1:1:0:0:
477,248,159955,2,2,L|464:111,1,120,10|4,1:1|1:0,0:0:0:0:
380,44,160700,2,0,L|430:4,2,60,0|0|8,1:0|1:0|1:2,0:0:0:0:
340,89,161258,1,0,1:0:0:0:
289,121,161444,2,0,L|157:134,1,120,10|10,1:1|1:1,0:0:0:0:
50,144,162188,1,4,1:0:0:0:
13,258,162560,5,10,1:1:0:0:
130,233,162932,1,10,1:1:0:0:
306,265,163490,1,0,1:0:0:0:
332,211,163676,2,0,L|397:204,2,60,0|0|8,1:0|1:0|1:2,0:0:0:0:
296,162,164235,1,0,1:0:0:0:
255,117,164421,2,0,P|239:49|254:-3,1,120,10|10,1:1|1:1,0:0:0:0:
356,44,165165,5,8,1:2:0:0:
454,111,165537,1,8,1:2:0:0:
353,176,165909,1,8,1:2:0:0:
448,248,166281,1,8,1:2:0:0:
341,304,166653,2,2,B|266:348|167:346|71:294|34:208|54:58,1,480,8|4,1:2|1:0,0:1:0:0:
163,16,168514,5,10,1:1:0:0:
208,126,168886,2,2,P|199:213|192:271,1,120,10|4,1:0|1:1,0:0:0:0:
108,328,169630,2,0,L|43:336,2,60,0|0|8,1:0|1:0|1:2,0:0:0:0:
164,347,170188,1,2,0:1:0:0:
222,360,170374,1,10,1:1:0:0:
306,275,170746,2,2,P|319:205|312:144,1,120,10|4,1:1|1:0,0:0:0:0:
229,72,171490,5,10,1:1:0:0:
329,7,171862,2,2,P|411:12|463:16,1,120,10|4,1:1|1:0,0:0:0:0:
490,127,172607,2,0,L|506:188,2,60,0|0|8,1:0|1:0|1:2,0:0:0:0:
430,134,173165,1,0,1:0:0:0:
370,141,173351,1,10,1:1:0:0:
314,247,173723,2,2,P|243:241|175:235,1,120,10|4,1:1|1:0,0:0:0:0:
78,268,174467,5,10,1:1:0:0:
4,173,174839,1,10,1:0:0:0:
160,85,175397,1,2,1:0:0:0:
214,59,175583,2,0,L|221:-1,2,60,2|2|10,1:1|1:1|1:1,0:0:0:0:
260,97,176141,1,2,1:1:0:0:
305,135,176328,2,0,L|299:200,2,60,10|2|10,1:1|1:1|1:1,0:0:0:0:
415,89,177072,5,8,1:0:0:0:
425,208,177445,1,10,1:0:0:0:
441,326,177819,1,8,1:0:0:0:
322,344,178193,1,10,1:0:0:0:
311,224,178567,1,10,1:0:0:0:
311,224,178754,1,10,1:0:0:0:
304,104,179128,1,10,1:0:0:0:
197,159,179501,6,2,P|106:178|18:195,1,180,10|4,1:0|1:2,0:1:0:0:
20,194,180273,1,4,1:2:0:0:
