osu file format v14

[General]
AudioFilename: audio.mp3
AudioLeadIn: 0
PreviewTime: 36340
Countdown: 0
SampleSet: None
StackLeniency: 0.7
Mode: 0
LetterboxInBreaks: 0
WidescreenStoryboard: 1

[Editor]
Bookmarks: 12450,36418,82108,84337,106815,120274,132271,141257,144252,153238,156233
DistanceSpacing: 0.8
BeatDivisor: 4
GridSize: 16
TimelineZoom: 2.1

[Metadata]
Title:Bleed American
TitleUnicode:Bleed American
Artist:Jimmy Eat World
ArtistUnicode:Jimmy Eat World
Creator:Silverboxer
Version:Insane
Source:
Tags:bleed american salt sweat sugar alternative indie alt rock english jew pw384 384059043 punk james jim christopher adkins tom linton zach lind rick burch male vocal vocals vocalist
BeatmapID:4547536
BeatmapSetID:2029188

[Difficulty]
HPDrainRate:5
CircleSize:4
OverallDifficulty:8
ApproachRate:8
SliderMultiplier:1.4
SliderTickRate:1

[Events]
//Background and Video events
0,0,"bleed_american_2x-min.png",0,0
//Break Periods
//Storyboard Layer 0 (Background)
//Storyboard Layer 1 (Fail)
//Storyboard Layer 2 (Pass)
//Storyboard Layer 3 (Foreground)
//Storyboard Layer 4 (Overlay)
//Storyboard Sound Samples

[TimingPoints]
467,374.648766781143,4,1,0,70,1,0
6367,-100,4,2,0,70,0,0
6461,-100,4,1,0,70,0,0
9364,-100,4,2,0,70,0,0
9467,374.414976599064,4,2,0,70,1,0
12462,-100,4,2,0,60,0,0
23881,-100,4,2,0,70,0,1
24256,-100,4,2,0,60,0,0
34927,-100,4,2,0,70,0,0
36424,-83.3333333333333,4,1,0,80,0,1
60387,-100,4,2,0,60,0,0
71807,-100,4,2,0,70,0,1
72181,-100,4,2,0,60,0,0
82852,-100,4,2,0,70,0,0
84349,-83.3333333333333,4,1,0,80,0,1
106814,-83.3333333333333,4,2,0,70,0,0
108302,374.707259953162,4,1,0,80,1,0
108302,-83.3333333333333,4,1,0,80,0,1
120198,-83.3333333333333,4,2,0,5,0,1
120292,374.414976599064,4,1,0,70,1,0
132273,-83.3333333333333,4,1,0,80,0,1
154738,-83.3333333333333,4,2,0,70,0,0
156235,372.093023255814,4,1,0,80,1,0
156235,-83.3333333333333,4,1,0,80,0,1
162188,-83.3333333333333,4,1,0,80,0,1
166839,-83.3333333333333,4,2,0,70,0,0
168141,-66.6666666666667,4,1,0,80,0,1
177072,373.831775700935,4,1,0,80,1,0
177072,-66.6666666666667,4,1,0,80,0,1
180062,422.535211267606,4,2,0,80,1,0
180484,-100,4,2,0,10,0,0

[Colours]
Combo1 : 17,254,176
Combo2 : 173,255,95
Combo3 : 255,88,100
Combo4 : 255,94,55

[HitObjects]
499,69,467,6,0,L|502:-3,1,70,8|0,1:2|1:0,0:0:0:0:
424,161,841,1,10,1:1:0:0:
424,161,1028,1,0,1:0:0:0:
312,275,1216,2,0,L|172:281,1,140,10|8,1:1|1:2,0:0:0:0:
172,280,1778,1,0,1:0:0:0:
69,349,1965,5,10,1:1:0:0:
55,232,2152,1,0,1:0:0:0:
69,349,2340,1,10,1:1:0:0:
55,232,2527,1,0,1:0:0:0:
148,290,2714,2,0,P|161:333|158:368,1,70,8|0,1:2|1:0,0:0:0:0:
200,166,3089,2,0,P|228:193|245:230,1,70,8|0,1:2|1:0,0:0:0:0:
29,326,3464,6,0,P|22:281|30:241,1,70,8|0,1:2|1:0,0:0:0:0:
32,166,3838,1,10,1:1:0:0:
32,166,4026,1,0,1:0:0:0:
6,12,4213,2,0,L|151:20,1,140,10|8,1:1|1:2,0:0:0:0:
145,19,4775,1,0,1:0:0:0:
198,108,4962,5,10,1:1:0:0:
309,89,5150,1,0,1:0:0:0:
325,201,5337,1,10,1:1:0:0:
212,218,5524,1,0,1:0:0:0:
98,313,5712,2,0,L|88:235,1,70,8|0,1:2|1:0,0:0:0:0:
219,335,6086,2,0,L|235:219,1,105,8|0,1:2|0:0,0:0:0:0:
233,230,6461,6,0,P|277:224|309:229,1,70,8|0,1:2|1:0,0:0:0:0:
370,315,6836,1,10,1:1:0:0:
370,315,7023,1,0,1:0:0:0:
449,114,7210,2,0,B|484:159|486:190|459:248,1,140,10|8,1:1|1:2,0:0:0:0:
460,244,7772,1,0,1:0:0:0:
338,146,7959,5,10,1:1:0:0:
216,133,8147,1,0,1:0:0:0:
338,146,8334,1,10,1:1:0:0:
216,133,8521,1,0,1:0:0:0:
373,63,8709,2,0,L|457:59,1,70,8|0,1:2|1:0,0:0:0:0:
239,176,9083,2,0,L|113:166,1,105,8|0,1:2|0:0,0:0:0:0:
134,167,9467,6,0,B|87:194|77:242|97:295,2,140,4|8|0,1:0|1:2|1:0,0:0:0:0:
179,251,10403,1,0,1:0:0:0:
341,144,10590,2,0,P|345:97|334:70,1,70,8|0,1:2|1:0,0:0:0:0:
271,216,10964,2,0,B|260:273|259:301|285:371,1,140,4|8,1:0|1:2,0:0:0:0:
278,353,11526,1,0,1:0:0:0:
348,273,11713,5,0,1:0:0:0:
439,77,11900,1,4,1:2:0:0:
439,77,12087,2,0,B|405:36|351:31|292:73,1,140,12|0,1:2|1:0,0:0:0:0:
417,206,12649,5,2,1:2:0:0:
417,206,12836,2,0,L|500:210,1,70,10|2,1:2|0:0,0:0:0:0:
300,103,13211,2,0,L|379:100,1,70,2|0,1:2|0:0,0:0:0:0:
198,202,13585,2,0,L|288:214,1,70,10|2,1:2|0:0,0:0:0:0:
151,80,13959,5,2,1:2:0:0:
151,80,14147,1,0,1:0:0:0:
65,80,14334,2,0,P|34:50|16:17,1,70,10|0,1:2|0:0,0:0:0:0:
210,23,14708,2,0,B|258:14|298:18|355:43,1,140,0|8,1:0|1:2,0:0:0:0:
460,162,15457,5,0,1:0:0:0:
460,162,15644,1,0,1:0:0:0:
391,253,15832,2,0,P|379:210|380:166,1,70,8|0,1:2|0:0,0:0:0:0:
318,69,16206,2,0,P|315:103|304:137,1,70,0|0,1:0|0:0,0:0:0:0:
220,270,16580,2,0,P|206:225|210:180,1,70,8|0,1:2|0:0,0:0:0:0:
207,114,16955,5,0,1:0:0:0:
207,114,17142,1,0,1:0:0:0:
132,52,17329,2,0,P|114:93|111:132,1,70,8|0,1:2|0:0,0:0:0:0:
240,269,17704,2,0,P|227:224|211:191,1,70,0|0,1:0|0:0,0:0:0:0:
48,275,18078,2,0,P|46:316|59:358,1,70,8|0,1:2|0:0,0:0:0:0:
147,300,18452,5,0,1:0:0:0:
147,300,18640,1,2,1:2:0:0:
193,216,18827,2,0,P|201:181|199:141,1,70,10|0,1:2|0:0,0:0:0:0:
115,71,19201,2,0,P|114:105|122:139,1,70,2|2,1:2|0:0,0:0:0:0:
210,46,19576,1,10,1:2:0:0:
210,46,19763,1,2,0:0:0:0:
351,162,19950,6,0,B|369:218|357:255|322:292,2,140,2|10|0,1:2|1:2|1:0,0:0:0:0:
190,92,21073,2,0,B|155:129|143:166|165:236,1,140,8|0,1:2|1:0,0:0:0:0:
160,221,21822,1,8,1:2:0:0:
281,306,22197,5,2,1:2:0:0:
281,306,22384,2,0,L|291:381,1,70,0|8,1:0|1:2,0:0:0:0:
400,216,22758,2,0,L|392:364,1,140,2|0,0:0|1:0,0:0:0:0:
500,178,23320,1,8,1:2:0:0:
500,178,23507,1,0,1:0:0:0:
490,73,23694,1,0,1:0:0:0:
409,127,23881,5,6,1:2:0:0:
173,193,24069,2,0,L|89:216,1,70,6|0,1:2|0:0,0:0:0:0:
36,150,24443,6,0,B|2:102|6:55|44:10,2,140,2|10|2,1:2|1:2|1:2,0:0:0:0:
105,82,25379,1,0,1:0:0:0:
105,82,25566,2,0,L|180:86,1,70,10|0,1:2|0:0,0:0:0:0:
221,199,25941,6,0,P|266:195|299:180,1,70,0|0,1:0|1:0,0:0:0:0:
349,122,26315,1,10,1:2:0:0:
331,274,26502,1,0,0:0:0:0:
437,195,26690,1,2,1:2:0:0:
437,195,26877,1,0,1:0:0:0:
505,130,27064,2,0,L|491:16,1,105,10|0,1:2|0:0,0:0:0:0:
492,25,27438,6,0,P|425:38|348:46,1,140,0|8,1:0|1:2,0:0:0:0:
251,12,28000,1,0,0:0:0:0:
72,147,28187,2,0,P|127:148|212:137,1,140,0|8,1:0|1:2,0:0:0:0:
370,231,28936,6,0,P|414:239|437:258,2,70,0|0|8,1:0|1:0|1:2,0:0:0:0:
122,361,29685,2,0,B|76:333|65:293|80:213,1,140,2|10,1:2|1:2,0:0:0:0:
75,238,30247,1,2,0:0:0:0:
131,122,30434,5,2,1:2:0:0:
131,122,30621,1,0,1:0:0:0:
211,213,30808,2,0,L|227:136,1,70,10|2,1:2|0:0,0:0:0:0:
330,179,31183,1,2,1:2:0:0:
330,179,31370,1,0,1:0:0:0:
440,260,31557,2,0,L|423:108,1,140,10|0,1:2|1:0,0:0:0:0:
322,276,32306,5,10,1:2:0:0:
239,238,32493,1,2,0:0:0:0:
251,331,32680,1,2,1:2:0:0:
251,331,32867,1,0,1:0:0:0:
165,293,33055,2,0,P|117:306|60:295,1,105,10|0,1:2|0:0,0:0:0:0:
63,296,33429,6,0,B|38:248|37:199|62:150,1,140,0|8,1:0|1:2,0:0:0:0:
146,115,33991,1,0,0:0:0:0:
303,253,34178,2,0,P|322:217|328:175,2,70,0|0|8,1:0|1:0|1:2,0:0:0:0:
231,185,34740,1,0,1:0:0:0:
282,29,34927,6,0,L|205:19,1,70,10|0,1:1|1:0,0:0:0:0:
303,253,35301,2,0,L|226:263,1,70,10|0,1:1|1:0,0:0:0:0:
369,138,35676,6,0,L|292:128,1,70,10|0,1:1|1:0,0:0:0:0:
182,353,36050,2,0,L|105:343,1,70,10|0,1:1|1:0,0:0:0:0:
93,143,36424,5,4,1:0:0:0:
93,143,36612,1,0,1:0:0:0:
151,14,36799,2,0,P|183:62|185:103,1,83.9999974365235,10|0,1:1|2:0,0:0:0:0:
264,325,37173,2,2,B|231:277|229:232|262:156,1,167.999994873047,10|4,1:0|1:1,0:1:0:0:
258,165,37922,5,0,1:0:0:0:
392,180,38109,1,0,1:0:0:0:
410,46,38296,1,8,1:2:0:0:
276,31,38484,1,2,0:1:0:0:
347,252,38671,2,0,P|398:262|438:255,1,83.9999974365235,10|0,1:1|1:0,0:0:0:0:
188,121,39045,2,0,P|172:172|178:201,1,83.9999974365235,10|0,1:1|1:0,0:0:0:0:
382,346,39420,5,4,1:0:0:0:
382,346,39607,1,0,1:0:0:0:
474,161,39794,2,0,L|457:255,1,83.9999974365235,10|0,1:1|2:0,0:0:0:0:
394,82,40169,2,2,L|235:159,1,167.999994873047,10|4,1:1|1:0,0:1:0:0:
242,155,40917,5,0,1:0:0:0:
172,301,41105,1,0,1:0:0:0:
85,167,41292,1,8,1:2:0:0:
157,28,41479,1,0,1:0:0:0:
157,28,41573,1,0,0:0:0:0:
157,28,41666,2,0,L|165:118,1,83.9999974365235,10|0,1:1|1:0,0:0:0:0:
266,343,42041,2,0,L|278:243,1,83.9999974365235,10|0,1:1|1:0,0:0:0:0:
354,161,42415,5,4,1:0:0:0:
354,161,42602,1,0,1:0:0:0:
464,265,42789,2,0,P|491:305|499:342,1,83.9999974365235,10|0,1:1|2:0,0:0:0:0:
244,375,43164,2,2,B|291:321|336:312|399:333,1,167.999994873047,10|4,1:1|1:0,0:1:0:0:
394,331,43725,1,0,1:0:0:0:
290,183,43913,6,0,P|248:184|209:200,1,83.9999974365235,0|0,1:0|1:0,0:0:0:0:
46,343,44287,2,0,P|87:341|126:325,1,83.9999974365235,8|0,1:2|1:0,0:0:0:0:
268,268,44662,1,10,1:1:0:0:
268,268,44849,1,0,1:0:0:0:
212,72,45036,2,2,B|179:108|165:149|165:206,1,125.999996154785,10|0,1:1|2:2,0:1:0:0:
165,186,45410,6,0,L|180:272,1,83.9999974365235,8|0,1:2|1:0,0:0:0:0:
324,128,45785,2,0,L|309:45,1,83.9999974365235,8|0,1:2|1:0,0:0:0:0:
400,230,46159,5,8,1:2:0:0:
264,249,46346,1,0,1:0:0:0:
50,149,46534,5,8,1:2:0:0:
186,130,46721,1,0,1:0:0:0:
146,262,46908,6,0,L|140:354,1,83.9999974365235,8|0,1:2|1:0,0:0:0:0:
13,123,47282,2,0,L|18:39,1,83.9999974365235,8|0,1:2|1:0,0:0:0:0:
31,250,47657,5,8,1:2:0:0:
123,133,47844,1,0,1:0:0:0:
254,218,48031,1,8,1:2:0:0:
371,117,48218,1,0,1:0:0:0:
497,230,48406,5,4,1:0:0:0:
497,230,48593,1,0,1:0:0:0:
305,164,48780,2,0,L|408:153,1,83.9999974365235,10|0,1:1|2:0,0:0:0:0:
235,355,49154,2,2,L|42:344,1,167.999994873047,10|4,1:0|1:1,0:1:0:0:
67,345,49903,5,0,1:0:0:0:
207,277,50091,1,0,1:0:0:0:
145,126,50278,1,8,1:2:0:0:
5,194,50465,1,2,0:1:0:0:
5,194,50559,1,0,0:0:0:0:
5,194,50652,2,0,P|58:212|93:213,1,83.9999974365235,10|0,1:1|1:0,0:0:0:0:
306,85,51027,2,0,P|254:94|218:120,1,83.9999974365235,10|0,1:1|1:0,0:0:0:0:
119,285,51401,5,4,1:0:0:0:
119,285,51588,1,0,1:0:0:0:
204,180,51775,2,0,L|220:269,1,83.9999974365235,10|0,1:1|2:0,0:0:0:0:
351,71,52150,2,2,L|327:257,1,167.999994873047,10|4,1:1|1:0,0:1:0:0:
329,237,52899,5,0,1:0:0:0:
183,213,53086,1,0,1:0:0:0:
215,59,53273,1,8,1:2:0:0:
361,83,53460,1,0,1:0:0:0:
407,296,53647,2,0,P|370:320|322:332,1,83.9999974365235,10|0,1:1|1:0,0:0:0:0:
139,192,54022,2,2,B|213:177|255:196|288:263,1,167.999994873047,10|4,1:1|1:0,0:1:0:0:
281,250,54584,1,0,1:0:0:0:
296,66,54771,6,0,P|324:103|331:148,1,83.9999974365235,10|0,1:1|2:0,0:0:0:0:
433,327,55145,2,2,B|407:270|409:219|452:162,1,167.999994873047,10|4,1:1|1:0,0:1:0:0:
447,168,55707,1,0,1:0:0:0:
495,265,55894,5,2,1:1:0:0:
376,221,56081,1,2,1:1:0:0:
279,281,56268,1,8,1:2:0:0:
162,239,56456,1,2,1:1:0:0:
162,239,56549,1,0,0:0:0:0:
162,239,56643,1,10,1:1:0:0:
67,311,56830,1,2,1:1:0:0:
4,231,57017,2,0,L|14:86,1,125.999996154785,10|0,1:1|2:0,0:0:0:0:
12,105,57392,6,0,B|51:150|96:164|167:130,1,167.999994873047,8|8,1:2|1:2,0:0:0:0:
121,310,57953,2,2,P|157:274|176:228,1,83.9999974365235,0|8,1:0|1:2,0:1:0:0:
296,78,58328,1,0,1:0:0:0:
296,78,58515,2,0,P|275:120|276:167,1,83.9999974365235,8|0,1:2|1:0,0:0:0:0:
349,347,58889,2,2,B|395:307|401:263|389:190,1,167.999994873047,8|8,1:2|1:2,0:1:0:0:
389,193,59451,1,0,1:0:0:0:
300,259,59638,5,0,1:0:0:0:
56,226,59825,1,8,1:2:0:0:
56,226,60013,2,0,L|66:314,2,83.9999974365235,8|0|0,1:2|2:0|1:0,0:0:0:0:
11,135,60574,5,2,1:2:0:0:
11,135,60761,2,0,P|50:122|93:128,1,70,10|2,1:2|0:0,0:0:0:0:
243,274,61136,2,0,B|189:257|165:230|151:175,1,140,2|10,1:2|1:2,0:0:0:0:
199,61,61697,1,2,0:0:0:0:
270,5,61885,5,2,1:2:0:0:
270,5,62072,1,0,1:0:0:0:
287,94,62259,2,0,L|306:167,1,70,10|0,1:2|0:0,0:0:0:0:
414,0,62633,2,0,L|399:146,1,140,0|8,1:0|1:2,0:0:0:0:
355,291,63382,5,0,1:0:0:0:
355,291,63569,1,0,1:0:0:0:
288,342,63757,2,0,P|321:363|356:370,1,70,8|0,1:2|0:0,0:0:0:0:
291,215,64131,2,0,P|256:212|217:224,1,70,0|0,1:0|0:0,0:0:0:0:
113,280,64506,2,0,P|156:307|186:313,1,70,8|0,1:2|0:0,0:0:0:0:
142,197,64880,5,0,1:0:0:0:
142,197,65067,1,0,1:0:0:0:
68,144,65254,2,0,P|104:120|145:113,1,70,8|0,1:2|0:0,0:0:0:0:
293,162,65629,2,0,P|253:159|214:140,1,70,0|0,1:0|0:0,0:0:0:0:
366,75,66003,2,0,P|407:61|448:68,2,70,8|0|0,1:2|0:0|1:0,0:0:0:0:
414,141,66565,5,2,1:2:0:0:
370,211,66752,2,0,L|227:204,1,140,10|2,1:2|1:2,0:0:0:0:
63,292,67314,1,2,0:0:0:0:
63,292,67501,2,0,L|146:305,1,70,10|2,1:2|0:0,0:0:0:0:
137,206,67875,6,0,B|113:148|119:112|157:66,2,140,2|10|0,1:2|1:2|1:0,0:0:0:0:
375,178,68998,2,0,B|399:236|393:272|355:318,1,140,8|0,1:2|1:0,0:0:0:0:
361,309,69747,1,8,1:2:0:0:
163,343,70122,5,2,1:2:0:0:
163,343,70309,2,0,L|88:351,1,70,0|8,1:0|1:2,0:0:0:0:
217,238,70683,2,0,L|74:225,1,140,2|0,0:0|1:0,0:0:0:0:
180,129,71245,1,8,1:2:0:0:
180,129,71432,1,0,1:0:0:0:
150,32,71619,1,0,1:0:0:0:
75,103,71807,5,6,1:2:0:0:
307,272,71994,2,0,L|378:278,1,70,6|0,1:2|0:0,0:0:0:0:
464,343,72368,6,0,L|479:185,1,140,2|10,1:2|1:2,0:0:0:0:
477,203,72930,1,2,0:0:0:0:
428,119,73117,2,0,L|356:129,1,70,2|0,1:2|1:0,0:0:0:0:
207,214,73491,2,0,L|289:223,1,70,10|0,1:2|0:0,0:0:0:0:
252,112,73866,5,0,1:0:0:0:
252,112,74053,1,0,1:0:0:0:
153,72,74240,2,0,P|140:33|139:2,1,70,10|0,1:2|0:0,0:0:0:0:
161,222,74615,2,0,B|102:214|66:182|51:126,1,140,2|10,1:2|1:2,0:0:0:0:
55,141,75176,1,0,0:0:0:0:
12,24,75364,6,0,L|162:38,1,140,0|8,1:0|1:2,0:0:0:0:
238,111,75925,1,0,0:0:0:0:
356,197,76112,2,0,L|206:211,1,140,0|8,1:0|1:2,0:0:0:0:
24,307,76861,6,0,L|11:377,2,70,0|0|8,1:0|1:0|1:2,0:0:0:0:
209,180,77610,2,0,L|225:32,1,140,2|10,1:2|1:2,0:0:0:0:
224,40,78172,1,2,0:0:0:0:
311,122,78359,5,2,1:2:0:0:
311,122,78546,1,0,1:0:0:0:
478,160,78733,1,10,1:2:0:0:
428,26,78920,1,2,0:0:0:0:
428,26,79108,2,0,B|400:70|392:107|398:175,2,140,2|10|0,1:2|1:2|1:0,0:0:0:0:
490,253,80231,5,10,1:2:0:0:
501,355,80418,1,2,0:0:0:0:
411,317,80605,1,2,1:2:0:0:
411,317,80793,1,0,1:0:0:0:
318,330,80980,2,0,L|199:337,1,105,10|0,1:2|0:0,0:0:0:0:
213,336,81354,6,0,B|236:293|239:250|201:197,1,140,0|8,1:0|1:2,0:0:0:0:
139,273,81916,1,0,0:0:0:0:
28,166,82103,2,0,P|13:125|10:83,2,70,0|0|8,1:0|1:0|1:2,0:0:0:0:
97,102,82665,1,0,1:0:0:0:
172,278,82852,6,0,L|183:366,1,70,10|0,1:1|1:0,0:0:0:0:
340,106,83226,2,0,L|329:18,1,70,10|0,1:1|1:0,0:0:0:0:
256,192,83601,1,10,1:1:0:0:
306,278,83788,5,0,1:0:0:0:
326,277,83881,1,0,1:0:0:0:
347,276,83975,1,0,1:0:0:0:
368,275,84069,1,0,1:0:0:0:
389,274,84162,1,0,1:0:0:0:
410,273,84256,1,0,1:0:0:0:
430,272,84349,1,4,1:0:0:0:
503,187,84537,5,0,1:0:0:0:
503,187,84724,2,0,P|479:147|441:125,1,83.9999974365235,10|0,1:1|0:0,0:0:0:0:
234,3,85098,2,0,B|276:46|329:52|397:26,1,167.999994873047,10|4,1:0|1:1,0:0:0:0:
389,28,85660,1,0,1:0:0:0:
346,234,85847,5,0,1:0:0:0:
214,251,86034,1,0,1:0:0:0:
196,119,86222,1,8,1:2:0:0:
328,102,86409,1,2,0:1:0:0:
328,102,86502,1,0,0:0:0:0:
328,102,86596,2,0,L|286:181,1,83.9999974365235,10|0,1:1|1:0,0:0:0:0:
149,350,86970,2,0,L|122:266,1,83.9999974365235,10|0,1:1|1:0,0:0:0:0:
93,169,87345,5,4,1:0:0:0:
93,169,87532,1,0,1:0:0:0:
66,0,87719,2,0,P|37:40|30:92,1,83.9999974365235,10|0,1:1|0:0,0:0:0:0:
272,96,88094,2,0,B|222:58|176:51|109:88,1,167.999994873047,10|4,1:1|1:0,0:0:0:0:
115,84,88842,5,0,1:0:0:0:
217,172,89030,1,0,1:0:0:0:
361,136,89217,1,8,1:2:0:0:
474,211,89404,1,0,1:0:0:0:
474,211,89498,1,0,0:0:0:0:
474,211,89591,2,0,P|486:259|487:293,1,83.9999974365235,10|0,1:1|1:0,0:0:0:0:
379,34,89966,2,0,P|423:36|464:57,1,83.9999974365235,10|0,1:1|1:0,0:0:0:0:
392,135,90340,5,4,1:0:0:0:
392,135,90527,1,0,1:0:0:0:
336,277,90715,2,0,L|315:190,1,83.9999974365235,10|0,1:1|0:0,0:0:0:0:
246,13,91089,2,0,L|220:187,1,167.999994873047,10|4,1:1|1:0,0:0:0:0:
221,179,91651,1,0,1:0:0:0:
144,100,91838,5,0,1:0:0:0:
7,110,92025,1,0,1:0:0:0:
17,264,92212,1,8,1:2:0:0:
154,254,92399,1,0,1:0:0:0:
282,354,92587,1,10,1:1:0:0:
282,354,92774,1,0,1:0:0:0:
386,320,92961,2,0,L|393:170,1,125.999996154785,10|0,1:1|2:0,0:0:0:0:
391,194,93335,6,0,L|486:201,1,83.9999974365235,8|0,1:2|1:0,0:0:0:0:
321,37,93710,2,0,L|237:30,1,83.9999974365235,8|0,1:2|1:0,0:0:0:0:
241,167,94084,5,8,1:2:0:0:
256,292,94271,1,0,1:0:0:0:
383,157,94459,5,8,1:2:0:0:
368,32,94646,1,0,1:0:0:0:
185,90,94833,6,0,L|87:101,1,83.9999974365235,8|0,1:2|1:0,0:0:0:0:
273,248,95208,2,0,L|356:238,1,83.9999974365235,8|0,1:2|1:0,0:0:0:0:
179,309,95582,5,8,1:2:0:0:
193,185,95769,1,0,1:0:0:0:
294,20,95956,5,8,1:2:0:0:
280,144,96144,1,0,1:0:0:0:
89,150,96331,5,4,1:0:0:0:
89,150,96518,1,0,1:0:0:0:
45,314,96705,2,0,P|33:264|43:216,1,83.9999974365235,10|0,1:1|0:0,0:0:0:0:
181,11,97080,2,0,B|207:58|215:109|189:178,1,167.999994873047,10|4,1:0|1:1,0:0:0:0:
190,173,97828,5,0,1:0:0:0:
296,290,98016,1,0,1:0:0:0:
282,53,98203,1,8,1:2:0:0:
388,170,98390,1,2,0:1:0:0:
388,170,98484,1,0,0:0:0:0:
388,170,98577,2,0,P|423:196|469:207,1,83.9999974365235,10|0,1:1|1:0,0:0:0:0:
359,38,98952,2,0,P|319:62|293:99,1,83.9999974365235,10|0,1:1|1:0,0:0:0:0:
256,192,99326,5,10,1:1:0:0:
256,192,99701,1,10,1:1:0:0:
256,192,100075,2,0,L|86:207,1,167.999994873047,10|4,1:1|1:0,0:0:0:0:
88,206,100637,1,0,1:0:0:0:
5,296,100824,5,0,1:0:0:0:
111,346,101011,1,0,1:0:0:0:
203,285,101198,1,8,1:2:0:0:
305,340,101385,1,0,1:0:0:0:
394,277,101573,2,0,L|388:188,1,83.9999974365235,10|0,1:1|1:0,0:0:0:0:
490,347,101947,2,0,L|505:179,1,167.999994873047,10|4,1:1|1:0,0:0:0:0:
505,179,102509,1,0,1:0:0:0:
408,32,102696,6,0,P|411:78|424:116,1,83.9999974365235,10|0,1:1|0:0,0:0:0:0:
356,375,103070,2,0,B|385:323|394:274|354:215,1,167.999994873047,10|4,1:1|1:0,0:0:0:0:
355,217,103632,1,0,1:0:0:0:
290,307,103819,5,2,1:1:0:0:
213,237,104006,1,2,1:1:0:0:
290,162,104193,1,8,1:2:0:0:
206,108,104381,1,2,1:1:0:0:
206,108,104474,1,0,0:0:0:0:
206,108,104568,1,10,1:1:0:0:
294,47,104755,1,2,1:1:0:0:
200,4,104942,2,0,B|155:7|121:18|75:55,1,125.999996154785,10|0,1:1|2:0,0:0:0:0:
84,47,105317,6,0,L|66:220,1,167.999994873047,0|8,1:0|1:2,0:0:0:0:
186,98,105878,2,0,L|286:112,1,83.9999974365235,0|0,0:0|1:0,0:0:0:0:
413,199,106253,1,0,1:0:0:0:
413,199,106440,2,0,L|325:189,1,83.9999974365235,8|0,1:2|1:0,0:0:0:0:
167,346,106814,6,0,L|348:338,2,167.999994873047,0|8|0,1:0|1:2|1:0,0:0:0:0:
52,332,107750,1,12,1:2:0:0:
60,212,107938,2,0,L|70:68,1,125.999996154785,8|0,1:2|0:0,0:0:0:0:
68,86,108302,6,0,P|28:105|4:144,1,83.9999974365235,8|0,1:2|1:0,0:0:0:0:
236,105,108676,2,0,P|274:62|285:15,1,83.9999974365235,8|0,1:2|1:0,0:0:0:0:
306,245,109051,2,0,P|290:293|295:343,1,83.9999974365235,8|0,1:2|1:0,0:0:0:0:
479,186,109426,2,0,P|488:136|479:94,1,83.9999974365235,8|0,1:2|1:0,0:0:0:0:
369,37,109800,5,8,1:2:0:0:
396,158,109988,1,0,1:0:0:0:
276,193,110175,1,8,1:2:0:0:
249,72,110362,1,0,1:0:0:0:
321,121,110550,5,8,1:2:0:0:
288,290,110737,1,0,1:0:0:0:
115,259,110924,1,8,1:2:0:0:
148,90,111112,1,0,1:0:0:0:
361,243,111299,6,0,P|369:293|358:341,1,83.9999974365235,8|0,1:2|1:0,0:0:0:0:
259,117,111674,2,0,P|256:67|276:19,1,83.9999974365235,8|0,1:2|1:0,0:0:0:0:
181,248,112049,2,0,P|161:294|129:322,1,83.9999974365235,8|0,1:2|1:0,0:0:0:0:
19,75,112423,2,0,P|31:32|65:-6,1,83.9999974365235,8|0,1:2|1:0,0:0:0:0:
109,76,112798,5,8,1:2:0:0:
168,191,112985,1,0,1:0:0:0:
289,132,113173,1,8,1:2:0:0:
228,16,113360,1,0,1:0:0:0:
204,108,113547,5,8,1:2:0:0:
188,280,113735,1,0,1:0:0:0:
349,300,113922,1,8,1:2:0:0:
365,128,114109,1,0,1:0:0:0:
147,188,114297,6,0,L|52:196,1,83.9999974365235,8|0,1:2|0:0,0:0:0:0:
210,260,114672,1,8,1:2:0:0:
296,329,114859,1,0,1:0:0:0:
296,329,114953,1,0,0:0:0:0:
296,329,115046,2,0,L|466:339,1,167.999994873047,8|8,1:2|1:2,0:0:0:0:
392,219,115608,5,0,1:0:0:0:
380,196,115702,1,0,0:0:0:0:
373,171,115796,2,0,P|371:126|388:86,1,83.9999974365235,8|0,1:2|0:0,0:0:0:0:
247,10,116170,2,0,P|266:59|259:103,1,83.9999974365235,8|0,1:2|1:0,0:0:0:0:
165,243,116545,2,0,P|152:193|163:151,1,83.9999974365235,8|0,1:2|0:0,0:0:0:0:
238,192,116920,1,8,1:2:0:0:
154,330,117107,5,0,1:0:0:0:
129,333,117201,1,0,0:0:0:0:
104,336,117294,2,0,L|14:348,1,83.9999974365235,8|0,1:2|0:0,0:0:0:0:
224,240,117669,2,0,L|323:225,1,83.9999974365235,8|0,1:2|1:0,0:0:0:0:
164,116,118044,6,0,L|270:130,1,83.9999974365235,8|0,1:2|1:0,0:0:0:0:
424,335,118419,2,0,L|340:324,1,83.9999974365235,8|0,1:2|1:0,0:0:0:0:
466,198,118793,6,0,L|369:213,1,83.9999974365235,8|0,1:2|0:0,0:0:0:0:
79,250,119168,2,0,L|162:237,1,83.9999974365235,8|0,1:2|1:0,0:0:0:0:
253,330,119543,5,4,1:2:0:0:
274,61,119730,1,4,1:2:0:0:
274,61,119917,2,0,B|238:25|199:18|143:39,1,125.999996154785,4|0,1:2|0:0,0:0:0:0:
76,29,120292,6,0,B|77:83|116:124|181:111,1,140,2|8,1:0|1:2,0:0:0:0:
166,113,120853,1,0,0:0:0:0:
242,58,121040,1,0,1:0:0:0:
321,38,121228,1,0,1:0:0:0:
336,119,121415,1,8,1:2:0:0:
258,139,121602,1,0,0:0:0:0:
150,203,121789,6,0,B|92:225|52:212|21:172,1,140,2|8,1:0|1:2,0:0:0:0:
177,113,122351,1,0,0:0:0:0:
177,113,122538,2,0,B|226:133|243:175|234:229,1,140,2|8,1:0|1:2,0:0:0:0:
309,81,123100,6,0,B|379:41|457:60|498:139,1,210,2|8,1:0|1:2,0:0:0:0:
491,127,123848,1,0,1:0:0:0:
506,41,124036,1,0,1:0:0:0:
416,28,124223,1,0,1:0:0:0:
403,119,124410,1,8,1:2:0:0:
303,111,124597,6,0,L|217:119,1,70,2|0,1:0|1:0,0:0:0:0:
385,200,124972,2,0,L|236:210,1,140,2|0,1:0|1:0,0:0:0:0:
218,341,125533,6,0,P|188:309|174:274,1,70,2|2,1:0|1:0,0:0:0:0:
20,364,125908,1,8,1:2:0:0:
20,364,126095,2,0,B|27:317|38:284|86:240,1,140,2|0,1:0|0:0,0:0:0:0:
126,95,126657,2,0,P|148:134|154:178,1,70,8|0,1:2|0:0,0:0:0:0:
233,299,127031,6,0,P|221:253|224:216,1,70,2|2,1:0|1:0,0:0:0:0:
354,11,127405,1,8,1:2:0:0:
354,11,127593,2,0,B|360:57|354:97|326:155,1,140,2|0,1:0|0:0,0:0:0:0:
454,297,128154,2,0,B|420:258|415:212|436:149,1,140,8|0,1:2|1:0,0:0:0:0:
475,90,128716,1,0,1:0:0:0:
475,90,128903,1,8,1:2:0:0:
424,15,129090,6,2,L|277:25,1,140,2|0,1:0|1:0,0:1:0:0:
229,108,129652,1,8,1:2:0:0:
22,174,129839,2,2,L|177:186,1,140,2|0,1:0|1:0,0:1:0:0:
249,255,130401,1,8,1:2:0:0:
249,255,130588,1,0,1:0:0:0:
45,328,130775,1,10,1:1:0:0:
129,316,130962,5,0,1:0:0:0:
149,313,131056,1,0,1:0:0:0:
169,310,131150,1,0,1:0:0:0:
189,308,131243,1,0,1:0:0:0:
209,305,131337,1,0,1:0:0:0:
229,303,131430,1,0,1:0:0:0:
250,301,131524,1,0,1:0:0:0:
271,299,131618,1,0,1:0:0:0:
291,297,131711,1,0,1:0:0:0:
312,295,131805,1,0,1:0:0:0:
332,293,131898,1,0,1:0:0:0:
353,291,131992,1,0,1:0:0:0:
374,289,132086,1,0,1:0:0:0:
394,287,132179,1,0,1:0:0:0:
417,285,132273,6,0,L|508:277,1,83.9999974365235,4|0,1:0|1:0,0:0:0:0:
401,188,132647,2,2,B|443:152|447:120|432:52,1,125.999996154785,8|0,1:2|0:0,0:0:0:0:
436,74,133022,2,0,P|392:59|351:65,1,83.9999974365235,0|0,1:0|1:0,0:0:0:0:
287,125,133396,1,4,1:1:0:0:
210,338,133583,2,2,B|272:317|299:267|284:206,1,167.999994873047,2|0,1:0|1:0,0:0:0:0:
139,245,134145,5,8,1:2:0:0:
139,245,134332,1,0,0:0:0:0:
35,239,134519,1,0,1:0:0:0:
35,239,134706,1,0,1:0:0:0:
45,125,134894,1,4,1:1:0:0:
154,134,135081,2,2,L|326:140,1,167.999994873047,2|0,0:0|1:0,0:0:0:0:
403,34,135643,6,0,P|446:28|489:37,1,83.9999974365235,8|0,1:2|0:0,0:0:0:0:
438,113,136017,1,0,1:0:0:0:
438,113,136204,1,0,1:0:0:0:
492,181,136391,1,4,1:1:0:0:
492,181,136579,1,0,0:0:0:0:
406,195,136766,1,0,1:0:0:0:
406,195,136953,1,0,1:0:0:0:
465,263,137140,1,8,1:2:0:0:
465,263,137327,1,0,0:0:0:0:
378,276,137515,1,0,1:0:0:0:
378,276,137702,1,0,1:0:0:0:
435,345,137889,1,4,1:1:0:0:
350,354,138076,2,2,B|288:372|240:348|214:278,1,167.999994873047,2|0,0:0|1:0,0:0:0:0:
122,343,138638,6,0,L|112:237,1,83.9999974365235,8|0,1:2|0:0,0:0:0:0:
106,162,139012,1,0,1:0:0:0:
106,162,139199,1,0,1:0:0:0:
211,153,139387,1,4,1:1:0:0:
222,259,139574,2,2,L|231:78,1,167.999994873047,2|0,0:0|1:0,0:0:0:0:
236,13,140135,5,8,1:2:0:0:
236,13,140323,1,0,0:0:0:0:
147,45,140510,1,0,1:0:0:0:
147,45,140697,1,0,1:0:0:0:
61,12,140884,1,4,1:1:0:0:
61,12,141072,1,0,1:0:0:0:
5,78,141259,6,0,L|14:164,1,83.9999974365235,8|0,1:2|1:0,0:0:0:0:
235,12,141633,2,0,L|244:96,1,83.9999974365235,10|0,1:1|1:0,0:0:0:0:
178,253,142008,1,10,1:1:0:0:
178,253,142195,1,2,1:1:0:0:
119,164,142382,6,0,L|132:81,1,83.9999974365235,10|0,1:1|1:0,0:0:0:0:
367,6,142756,2,0,L|354:89,1,83.9999974365235,8|0,1:2|1:0,0:0:0:0:
452,217,143131,6,0,L|428:119,1,83.9999974365235,8|0,1:2|1:0,0:0:0:0:
232,57,143505,2,0,L|251:138,1,83.9999974365235,8|0,1:2|1:0,0:0:0:0:
145,319,143880,2,0,L|121:221,1,83.9999974365235,8|0,1:2|1:0,0:0:0:0:
23,99,144254,6,0,P|28:143|61:180,1,83.9999974365235,0|0,1:0|1:0,0:0:0:0:
163,6,144628,2,2,B|135:45|125:71|127:128,1,125.999996154785,8|0,1:2|0:0,0:0:0:0:
126,123,145003,2,0,P|170:140|213:134,1,83.9999974365235,0|0,1:0|1:0,0:0:0:0:
382,117,145377,1,4,1:1:0:0:
376,28,145565,2,2,B|306:44|286:101|293:166,1,167.999994873047,2|0,0:0|1:0,0:0:0:0:
359,285,146126,5,8,1:2:0:0:
359,285,146313,1,0,0:0:0:0:
306,362,146501,1,0,1:0:0:0:
306,362,146688,1,0,1:0:0:0:
263,279,146875,1,4,1:1:0:0:
314,200,147062,2,2,L|487:210,1,167.999994873047,2|0,0:0|1:0,0:0:0:0:
432,307,147624,6,0,L|340:316,1,83.9999974365235,8|0,1:2|0:0,0:0:0:0:
266,363,147998,1,0,1:0:0:0:
266,363,148185,1,0,1:0:0:0:
194,307,148373,1,4,1:1:0:0:
194,307,148560,1,0,0:0:0:0:
273,274,148747,1,0,1:0:0:0:
273,274,148934,1,0,1:0:0:0:
198,221,149121,1,8,1:2:0:0:
198,221,149309,1,0,0:0:0:0:
274,178,149496,1,0,1:0:0:0:
274,178,149683,1,0,1:0:0:0:
356,223,149870,1,4,1:1:0:0:
437,184,150057,2,2,B|471:147|491:106|478:16,1,167.999994873047,2|0,0:0|1:0,0:0:0:0:
361,65,150619,6,0,L|264:48,1,83.9999974365235,8|0,1:2|0:0,0:0:0:0:
106,84,150994,1,0,1:0:0:0:
106,84,151181,1,0,1:0:0:0:
129,181,151368,1,4,1:1:0:0:
222,162,151555,2,2,L|236:-9,1,167.999994873047,2|0,0:0|1:0,0:0:0:0:
319,61,152117,5,8,1:2:0:0:
319,61,152304,1,0,0:0:0:0:
361,144,152491,1,0,1:0:0:0:
361,144,152678,1,0,1:0:0:0:
318,223,152866,1,4,1:1:0:0:
318,223,153053,1,0,1:0:0:0:
385,309,153240,6,0,L|284:317,1,83.9999974365235,8|0,1:2|1:0,0:0:0:0:
86,153,153614,2,0,L|187:145,1,83.9999974365235,10|0,1:1|1:0,0:0:0:0:
97,247,153989,6,0,L|-11:233,1,83.9999974365235,10|2,1:1|1:0,0:0:0:0:
318,119,154363,2,0,L|426:105,1,83.9999974365235,10|0,1:1|1:0,0:0:0:0:
445,31,154738,5,4,1:2:0:0:
373,214,154925,2,0,P|310:231|263:227,1,83.9999974365235,4|0,1:2|0:0,0:0:0:0:
239,291,155299,5,4,1:2:0:0:
132,77,155487,2,0,P|91:85|56:109,1,83.9999974365235,4|0,1:2|0:0,0:0:0:0:
16,192,155861,5,4,1:2:0:0:
496,192,156235,1,4,1:0:0:0:
496,192,156421,1,0,1:0:0:0:
439,122,156607,6,0,P|405:169|401:207,1,83.9999974365235,10|0,1:1|1:0,0:0:0:0:
279,376,156979,2,2,B|320:325|324:279|291:211,1,167.999994873047,10|4,1:0|1:1,0:0:0:0:
294,219,157537,1,0,1:0:0:0:
212,286,157723,5,0,1:0:0:0:
41,303,157909,1,0,1:0:0:0:
106,136,158095,1,8,1:2:0:0:
284,127,158281,1,2,0:1:0:0:
284,127,158374,1,0,0:0:0:0:
284,127,158467,2,0,L|275:215,1,83.9999974365235,10|0,1:1|1:0,0:0:0:0:
130,353,158839,2,2,L|115:159,1,167.999994873047,10|4,1:1|1:0,0:0:0:0:
109,87,159397,1,0,1:0:0:0:
13,25,159583,6,0,L|21:118,1,83.9999974365235,10|0,1:1|1:0,0:0:0:0:
142,173,159955,2,2,P|221:167|323:160,1,167.999994873047,10|4,1:1|1:0,0:0:0:0:
309,160,160514,1,0,1:0:0:0:
407,110,160700,5,0,1:0:0:0:
247,85,160886,1,0,1:0:0:0:
220,240,161072,1,8,1:2:0:0:
380,265,161258,1,0,1:0:0:0:
380,265,161351,1,0,0:0:0:0:
380,265,161444,2,0,P|414:234|427:196,1,83.9999974365235,10|0,1:1|1:0,0:0:0:0:
320,4,161816,2,0,P|318:57|330:91,1,83.9999974365235,10|0,1:1|1:0,0:0:0:0:
419,103,162188,5,4,1:0:0:0:
419,103,162374,1,0,1:0:0:0:
221,166,162560,2,0,L|321:158,1,83.9999974365235,10|0,1:1|1:0,0:0:0:0:
185,249,162932,2,2,L|11:273,1,167.999994873047,10|4,1:1|1:0,0:0:0:0:
18,271,163490,1,0,1:0:0:0:
56,367,163676,5,0,1:0:0:0:
142,318,163862,1,0,1:0:0:0:
229,365,164048,1,8,1:2:0:0:
309,308,164235,1,0,1:0:0:0:
397,358,164421,1,10,1:1:0:0:
478,298,164607,1,0,1:0:0:0:
478,298,164700,1,0,0:0:0:0:
478,298,164793,2,0,P|482:244|471:212,1,83.9999974365235,10|0,1:1|1:0,0:0:0:0:
373,101,165165,6,0,L|383:191,1,83.9999974365235,8|0,1:2|1:0,0:0:0:0:
206,384,165537,2,0,L|196:300,1,83.9999974365235,8|0,1:2|1:0,0:0:0:0:
296,198,165909,5,8,1:2:0:0:
280,308,166095,1,0,1:0:0:0:
164,123,166281,5,8,1:2:0:0:
180,13,166467,1,0,1:0:0:0:
261,80,166653,5,8,1:2:0:0:
92,57,166839,1,0,1:0:0:0:
60,69,166932,1,0,1:0:0:0:
41,96,167025,1,0,1:0:0:0:
39,129,167118,1,0,1:0:0:0:
52,159,167211,1,0,1:0:0:0:
77,180,167304,1,0,1:0:0:0:
110,184,167397,1,0,1:0:0:0:
142,176,167490,1,0,1:0:0:0:
166,152,167583,1,0,1:0:0:0:
187,126,167676,1,0,1:0:0:0:
214,107,167769,1,0,1:0:0:0:
247,100,167862,1,0,1:0:0:0:
277,114,167955,1,0,1:0:0:0:
291,144,168048,1,0,1:0:0:0:
285,177,168141,1,4,1:0:0:0:
215,272,168328,5,0,1:0:0:0:
215,272,168514,2,2,B|202:322|206:343|231:384,1,105.000004005432,10|0,1:1|1:0,0:0:0:0:
51,145,168886,2,2,B|101:88|167:69|249:118,1,210.000008010865,10|4,1:0|1:1,0:0:0:0:
239,112,169444,1,0,1:0:0:0:
161,200,169630,5,0,1:0:0:0:
182,356,169816,1,0,1:0:0:0:
345,340,170002,1,8,1:2:0:0:
324,184,170188,1,2,0:1:0:0:
324,184,170281,1,0,0:0:0:0:
324,184,170374,2,2,B|301:221|300:250|314:289,1,105.000004005432,10|0,1:1|1:0,0:0:0:0:
467,361,170746,2,2,B|496:305|506:236|473:148,1,210.000008010865,10|4,1:1|1:0,0:0:0:0:
476,157,171304,1,0,1:0:0:0:
501,27,171490,6,2,L|389:44,1,105.000004005432,10|0,1:1|1:0,0:0:0:0:
164,103,171862,2,2,B|221:159|285:172|361:120,1,210.000008010865,10|4,1:1|1:0,0:0:0:0:
354,125,172421,1,0,1:0:0:0:
312,234,172607,5,0,1:0:0:0:
161,287,172793,1,0,1:0:0:0:
117,128,172979,1,8,1:2:0:0:
268,75,173165,1,0,1:0:0:0:
268,75,173258,1,0,0:0:0:0:
268,75,173351,2,2,L|214:181,1,105.000004005432,10|0,1:1|1:0,0:0:0:0:
74,353,173723,2,2,L|35:132,1,210.000008010865,10|4,1:1|1:0,0:0:0:0:
37,146,174281,1,0,1:0:0:0:
42,12,174467,6,2,B|81:33|96:53|111:96,1,105.000004005432,10|0,1:1|1:0,0:0:0:0:
201,303,174839,2,2,B|171:217|185:166|241:102,1,210.000008010865,10|4,1:1|1:0,0:0:0:0:
235,108,175397,1,2,1:0:0:0:
302,38,175583,5,2,1:1:0:0:
419,27,175769,1,2,1:1:0:0:
167,163,175955,5,10,1:1:0:0:
50,152,176141,1,2,1:1:0:0:
116,60,176328,5,10,1:1:0:0:
288,180,176514,1,2,1:1:0:0:
288,180,176607,1,0,0:0:0:0:
288,180,176700,2,0,B|321:234|322:279|297:335,1,157.500006008148,10|0,1:1|2:0,0:0:0:0:
299,330,177072,6,0,L|187:353,1,105.000004005432,8|0,1:0|1:0,0:0:0:0:
48,114,177445,2,0,L|150:136,1,105.000004005432,10|0,1:0|1:0,0:0:0:0:
239,13,177819,6,0,L|125:36,1,105.000004005432,8|0,1:0|1:0,0:0:0:0:
373,229,178193,2,0,L|486:199,1,105.000004005432,10|0,1:0|1:0,0:0:0:0:
182,319,178567,5,10,1:0:0:0:
310,217,178754,1,2,1:0:0:0:
201,109,178941,1,8,1:0:0:0:
341,2,179128,1,2,1:0:0:0:
166,2,179314,5,8,1:0:0:0:
295,104,179501,1,2,1:0:0:0:
216,216,179688,1,8,1:0:0:0:
349,319,179875,1,0,1:0:0:0:
79,370,180062,5,4,1:2:0:0:
79,370,180273,2,0,L|3:379,1,70,4|0,1:2|0:0,0:0:0:0:
