osu file format v14

[General]
AudioFilename: audio.mp3
AudioLeadIn: 0
PreviewTime: 36340
Countdown: 0
SampleSet: None
StackLeniency: 0.7
Mode: 0
LetterboxInBreaks: 0
WidescreenStoryboard: 1

[Editor]
Bookmarks: 12450,36418,82108,83885,83978,84165,84258,84337,84445,106815,120274,132271,141257,144252,153238,156233
DistanceSpacing: 1.1
BeatDivisor: 4
GridSize: 16
TimelineZoom: 2.1

[Metadata]
Title:Bleed American
TitleUnicode:Bleed American
Artist:Jimmy Eat World
ArtistUnicode:Jimmy Eat World
Creator:Silverboxer
Version:Hard
Source:
Tags:bleed american salt sweat sugar alternative indie alt rock english jew pw384 384059043 punk james jim christopher adkins tom linton zach lind rick burch male vocal vocals vocalist
BeatmapID:4547535
BeatmapSetID:2029188

[Difficulty]
HPDrainRate:4
CircleSize:3.5
OverallDifficulty:6
ApproachRate:7
SliderMultiplier:1.4
SliderTickRate:1

[Events]
//Background and Video events
0,0,"bleed_american_2x-min.png",0,0
//Break Periods
//Storyboard Layer 0 (Background)
//Storyboard Layer 1 (Fail)
//Storyboard Layer 2 (Pass)
//Storyboard Layer 3 (Foreground)
//Storyboard Layer 4 (Overlay)
//Storyboard Sound Samples

[TimingPoints]
467,374.648766781143,4,1,0,70,1,0
6367,-100,4,2,0,70,0,0
6461,-100,4,1,0,70,0,0
9373,-100,4,2,0,70,0,0
9467,374.414976599064,4,2,0,70,1,0
12463,-100,4,2,0,60,0,0
23881,-100,4,2,0,70,0,1
24256,-100,4,2,0,60,0,0
34927,-100,4,2,0,70,0,0
36424,-83.3333333333333,4,1,0,80,0,1
60387,-100,4,2,0,60,0,0
71807,-100,4,2,0,70,0,1
72181,-100,4,2,0,60,0,0
82852,-100,4,2,0,70,0,0
84349,-83.3333333333333,4,1,0,80,0,1
106814,-83.3333333333333,4,2,0,70,0,0
108302,374.707259953162,4,1,0,80,1,0
108302,-83.3333333333333,4,1,0,80,0,1
120205,-83.3333333333333,4,2,0,70,0,1
120292,374.414976599064,4,1,0,70,1,0
132273,-83.3333333333333,4,1,0,80,0,1
154738,-83.3333333333333,4,2,0,70,0,0
156235,372.093023255814,4,1,0,80,1,0
156235,-83.3333333333333,4,1,0,80,0,1
166839,-83.3333333333333,4,2,0,70,0,0
168141,-83.3333333333333,4,1,0,80,0,1
177072,373.831775700935,4,1,0,80,1,0
177072,-83.3333333333333,4,1,0,80,0,1
180062,422.535211267606,4,2,0,80,1,0
180484,-100,4,2,0,10,0,0

[Colours]
Combo1 : 17,254,176
Combo2 : 173,255,95
Combo3 : 255,88,100
Combo4 : 255,94,55

[HitObjects]
61,61,467,6,0,P|58:101|70:137,1,70,8|0,1:2|1:0,0:0:0:0:
149,79,841,2,0,B|203:55|236:56|293:79,2,140,10|10|8,1:1|1:1|1:2,0:0:0:0:
149,79,1778,1,0,1:0:0:0:
88,175,1965,2,0,B|82:220|82:259|105:322,2,140,10|10|8,1:1|1:1|1:2,0:0:0:0:
177,215,2902,1,0,1:0:0:0:
177,215,3089,2,0,L|274:217,1,70,8|0,1:2|1:0,0:0:0:0:
324,162,3464,6,0,L|317:78,1,70,8|0,1:2|1:0,0:0:0:0:
424,186,3838,2,0,P|446:239|430:332,2,140,10|10|8,1:1|1:1|1:2,0:0:0:0:
326,220,4775,1,0,1:0:0:0:
326,220,4962,2,0,B|292:246|237:253|184:225,2,140,10|10|8,1:1|1:1|1:2,0:0:0:0:
397,142,5899,1,0,1:0:0:0:
397,142,6086,2,0,P|407:99|396:59,1,70,8|0,1:2|0:0,0:0:0:0:
313,18,6461,6,0,L|237:26,1,70,8|0,1:2|1:0,0:0:0:0:
188,99,6836,2,0,L|29:91,2,140,10|10|8,1:1|1:1|1:2,0:0:0:0:
188,99,7772,1,0,1:0:0:0:
255,179,7959,2,0,L|416:166,2,140,10|10|8,1:1|1:1|1:2,0:0:0:0:
182,239,8896,1,0,1:0:0:0:
109,297,9083,1,8,1:2:0:0:
109,297,9467,6,0,B|56:274|38:230|61:169,2,140,4|8|0,1:0|1:2|1:0,0:0:0:0:
202,260,10403,1,0,1:0:0:0:
202,260,10590,2,0,P|259:246|281:250,1,70,8|0,1:2|1:0,0:0:0:0:
378,240,10964,2,0,P|431:258|524:238,2,140,4|8|0,1:0|1:2|1:0,0:0:0:0:
296,170,11900,1,4,1:2:0:0:
296,170,12087,1,12,1:2:0:0:
115,72,12649,5,2,1:2:0:0:
115,72,12836,2,0,L|121:153,1,70,10|2,1:2|0:0,0:0:0:0:
194,205,13211,2,0,L|341:197,1,140,2|10,1:2|1:2,0:0:0:0:
392,276,13772,1,2,0:0:0:0:
459,347,13959,5,2,1:2:0:0:
459,347,14147,1,0,1:0:0:0:
459,347,14334,2,0,B|494:295|494:261|476:204,2,140,10|0|8,1:2|1:0|1:2,0:0:0:0:
284,258,15457,2,0,P|237:263|210:286,1,70,0|0,1:0|1:0,0:0:0:0:
203,372,15832,2,0,P|153:351|133:325,1,70,8|0,1:2|0:0,0:0:0:0:
48,366,16206,2,0,B|22:325|23:271|74:232,1,140,0|8,1:0|1:2,0:0:0:0:
69,43,16955,6,0,L|153:39,1,70,0|0,1:0|1:0,0:0:0:0:
214,101,17329,2,0,L|301:96,1,70,8|0,1:2|0:0,0:0:0:0:
376,20,17704,2,0,L|386:172,2,140,0|8|0,1:0|1:2|1:0,0:0:0:0:
471,44,18640,5,2,1:2:0:0:
471,44,18827,2,0,L|470:126,1,70,10|0,1:2|0:0,0:0:0:0:
503,206,19201,2,0,L|497:283,2,70,2|2|10,1:2|0:0|1:2,0:0:0:0:
405,194,19763,1,2,0:0:0:0:
309,172,19950,2,0,B|237:159|145:187,1,140,2|10,1:2|1:2,0:0:0:0:
46,332,20699,2,0,B|118:345|210:317,1,140,0|8,1:0|1:2,0:0:0:0:
385,295,21448,5,0,1:0:0:0:
385,295,21635,1,0,1:0:0:0:
385,295,21822,1,8,1:2:0:0:
489,126,22197,2,0,P|497:77|479:35,1,70,2|0,1:2|1:0,0:0:0:0:
405,90,22571,1,8,1:2:0:0:
405,90,22758,2,0,B|333:36|259:74|245:151,1,210,2|8,1:2|1:2,0:0:0:0:
111,280,23694,5,0,1:0:0:0:
89,374,23881,1,6,1:2:0:0:
184,353,24069,1,6,1:2:0:0:
184,353,24443,6,0,L|337:356,1,140,2|10,1:2|1:2,0:0:0:0:
401,294,25005,1,0,1:0:0:0:
401,294,25192,2,0,P|419:334|415:372,2,70,2|0|10,1:2|1:0|1:2,0:0:0:0:
378,109,25941,1,0,1:0:0:0:
204,17,26315,6,0,P|149:21|118:42,1,70,10|0,1:2|0:0,0:0:0:0:
41,3,26690,2,0,P|28:51|75:140,1,140,2|10,1:2|1:2,0:0:0:0:
222,244,27438,2,0,B|288:267|351:243|321:178|397:122|465:158,2,280,0|0|0,1:0|1:0|1:0,0:0:0:0:
171,166,29123,1,0,1:0:0:0:
171,166,29310,1,8,1:2:0:0:
12,296,29685,2,0,L|9:377,2,70,2|0|10,1:2|1:0|1:2,0:0:0:0:
12,296,30247,1,2,0:0:0:0:
103,332,30434,6,0,L|191:335,1,70,2|0,1:2|1:0,0:0:0:0:
254,279,30808,1,10,1:2:0:0:
254,279,30995,1,2,0:0:0:0:
289,370,31183,2,0,B|332:343|350:299|342:240,2,140,2|10|0,1:2|1:2|1:0,0:0:0:0:
112,283,32306,6,0,P|68:253|52:217,1,70,10|2,1:2|0:0,0:0:0:0:
80,143,32680,2,0,P|121:165|141:193,1,70,2|0,1:2|1:0,0:0:0:0:
217,237,33055,1,10,1:2:0:0:
385,336,33429,2,0,L|463:357,2,70,0|0|8,1:0|1:0|1:2,0:0:0:0:
404,140,34178,2,0,L|489:129,2,70,0|0|8,1:0|1:0|1:2,0:0:0:0:
404,140,34740,1,0,1:0:0:0:
318,90,34927,6,0,P|279:78|241:80,1,70,10|0,1:1|1:0,0:0:0:0:
168,23,35301,2,0,P|156:62|158:100,1,70,10|0,1:1|1:0,0:0:0:0:
101,173,35676,2,0,P|140:185|178:183,1,70,10|0,1:1|1:0,0:0:0:0:
251,240,36050,2,0,P|263:201|261:163,1,70,10|0,1:1|1:0,0:0:0:0:
339,315,36424,5,4,1:0:0:0:
339,315,36612,1,0,1:0:0:0:
339,315,36799,2,0,B|436:318,1,83.9999974365235,10|0,1:1|2:0,0:0:0:0:
466,218,37173,2,2,L|286:210,1,167.999994873047,10|4,1:0|1:1,0:1:0:0:
298,210,37735,1,0,0:0:0:0:
193,212,37922,6,0,P|145:231|116:264,1,83.9999974365235,0|0,1:0|1:0,0:0:0:0:
49,325,38296,1,8,1:2:0:0:
144,371,38484,1,2,0:1:0:0:
144,371,38577,1,0,0:0:0:0:
144,371,38671,2,0,P|198:362|288:287,1,167.999994873047,10|10,1:1|1:1,0:0:0:0:
478,203,39420,5,4,1:0:0:0:
478,203,39607,1,0,1:0:0:0:
478,203,39794,2,0,L|487:83,1,83.9999974365235,10|0,1:1|2:0,0:0:0:0:
397,43,40169,2,2,L|374:233,1,167.999994873047,10|4,1:1|1:0,0:1:0:0:
255,38,40917,5,0,1:0:0:0:
164,44,41105,1,0,1:0:0:0:
171,136,41292,1,8,1:2:0:0:
262,127,41479,1,0,1:0:0:0:
225,212,41666,2,0,B|242:258|247:311|227:381,1,167.999994873047,10|10,1:1|1:1,0:0:0:0:
69,208,42415,5,4,1:0:0:0:
69,208,42602,1,0,1:0:0:0:
69,208,42789,2,0,P|47:250|43:304,1,83.9999974365235,10|0,1:1|2:0,0:0:0:0:
104,344,43164,2,2,P|134:304|149:175,1,167.999994873047,10|4,1:1|1:0,0:1:0:0:
152,189,43725,1,0,1:0:0:0:
199,114,43913,5,0,1:0:0:0:
110,119,44100,1,0,1:0:0:0:
147,37,44287,1,8,1:2:0:0:
147,37,44474,1,0,1:0:0:0:
235,31,44662,2,0,B|283:52|338:56|401:33,1,167.999994873047,10|10,1:1|1:1,0:0:0:0:
482,201,45410,6,0,L|475:289,1,83.9999974365235,8|0,1:2|1:0,0:0:0:0:
390,304,45785,1,8,1:2:0:0:
390,304,45972,2,0,L|206:293,1,167.999994873047,0|0,1:0|1:0,0:0:0:0:
144,348,46534,1,8,1:2:0:0:
144,348,46721,1,0,1:0:0:0:
57,313,46908,2,0,B|28:268|16:217|61:146,1,167.999994873047,8|8,1:2|1:2,0:0:0:0:
131,208,47470,5,0,1:0:0:0:
210,263,47657,1,8,1:2:0:0:
276,196,47844,1,0,1:0:0:0:
358,250,48031,1,8,1:2:0:0:
419,185,48218,1,0,1:0:0:0:
487,269,48406,5,4,1:0:0:0:
487,269,48593,1,0,1:0:0:0:
487,269,48780,2,0,B|460:329|389:318,1,83.9999974365235,10|0,1:1|2:0,0:0:0:0:
355,384,49154,2,2,B|330:327|333:272|375:221,1,167.999994873047,10|4,1:0|1:1,0:1:0:0:
371,225,49716,1,0,0:0:0:0:
283,187,49903,6,0,L|194:192,1,83.9999974365235,0|0,1:0|1:0,0:0:0:0:
125,133,50278,1,8,1:2:0:0:
79,50,50465,1,2,0:1:0:0:
79,50,50559,1,0,0:0:0:0:
79,50,50652,2,0,B|122:14|176:8|237:45,1,167.999994873047,10|10,1:1|1:1,0:0:0:0:
472,24,51401,5,4,1:0:0:0:
472,24,51588,1,0,1:0:0:0:
472,24,51775,2,0,B|498:67|486:134,1,83.9999974365235,10|0,1:1|2:0,0:0:0:0:
400,84,52150,2,2,P|390:150|404:257,1,167.999994873047,10|4,1:1|1:0,0:1:0:0:
246,207,52899,5,0,1:0:0:0:
177,153,53086,1,0,1:0:0:0:
169,238,53273,1,8,1:2:0:0:
102,190,53460,1,0,1:0:0:0:
21,202,53647,2,0,L|31:374,1,167.999994873047,10|10,1:1|1:1,0:0:0:0:
219,264,54396,5,4,1:0:0:0:
219,264,54584,1,0,1:0:0:0:
219,264,54771,2,0,P|287:276|386:263,2,167.999994873047,10|10|4,1:1|1:1|1:0,0:0:0:0:
140,276,55707,5,0,1:0:0:0:
78,221,55894,1,2,1:1:0:0:
150,183,56081,1,2,1:1:0:0:
90,126,56268,1,8,1:2:0:0:
159,77,56456,1,2,1:1:0:0:
102,18,56643,2,0,L|15:13,2,83.9999974365235,10|2|10,1:1|1:1|1:1,0:0:0:0:
272,164,57392,6,0,B|244:223|247:265|303:326,1,167.999994873047,8|8,1:2|1:2,0:0:0:0:
373,263,57953,2,2,L|385:170,1,83.9999974365235,0|8,1:0|1:2,0:1:0:0:
442,107,58328,1,0,1:0:0:0:
442,107,58515,2,0,L|454:14,1,83.9999974365235,8|0,1:2|1:0,0:0:0:0:
355,20,58889,2,2,B|296:-4|245:0|188:48,2,167.999994873047,8|8|0,1:2|1:2|1:0,0:1:0:0:
395,120,59825,1,8,1:2:0:0:
395,120,60013,1,8,1:2:0:0:
483,325,60574,5,2,1:2:0:0:
483,325,60761,2,0,L|405:339,1,70,10|2,1:2|0:0,0:0:0:0:
337,381,61136,2,0,P|312:330|320:232,1,140,2|10,1:2|1:2,0:0:0:0:
313,248,61697,1,2,0:0:0:0:
387,179,61885,2,0,B|406:135|408:96|378:37,1,140,2|10,1:2|1:2,0:0:0:0:
202,18,62633,2,0,B|183:62|181:101|211:160,1,140,0|8,1:0|1:2,0:0:0:0:
315,286,63382,6,0,L|321:360,1,70,0|0,1:0|1:0,0:0:0:0:
226,371,63757,2,0,L|219:285,1,70,8|0,1:2|0:0,0:0:0:0:
146,258,64131,2,0,L|1:269,1,140,0|8,1:0|1:2,0:0:0:0:
24,100,64880,6,0,P|59:113|100:108,1,70,0|0,1:0|1:0,0:0:0:0:
103,22,65254,2,0,P|156:43|174:69,1,70,8|0,1:2|0:0,0:0:0:0:
241,99,65629,2,0,B|292:95|333:74|352:13,2,140,0|8|0,1:0|1:2|1:0,0:0:0:0:
171,162,66565,5,2,1:2:0:0:
171,162,66752,2,0,P|151:203|149:242,1,70,10|0,1:2|0:0,0:0:0:0:
204,304,67126,2,0,P|216:345|213:379,2,70,2|2|10,1:2|0:0|1:2,0:0:0:0:
254,225,67688,1,2,0:0:0:0:
319,285,67875,2,0,B|359:304|405:310|469:293,1,140,2|10,1:2|1:2,0:0:0:0:
470,122,68624,2,0,B|430:103|384:97|320:114,1,140,0|8,1:0|1:2,0:0:0:0:
173,31,69373,5,0,1:0:0:0:
173,31,69560,1,0,1:0:0:0:
173,31,69747,1,8,1:2:0:0:
0,101,70122,2,0,P|35:121|83:115,1,70,2|0,1:2|1:0,0:0:0:0:
135,176,70496,1,8,1:2:0:0:
135,176,70683,2,0,B|194:126|271:147|315:216,1,210,2|8,1:2|1:2,0:0:0:0:
406,317,71619,5,0,1:0:0:0:
490,257,71807,1,6,1:2:0:0:
391,221,71994,1,6,1:2:0:0:
391,221,72368,6,0,P|373:168|384:75,1,140,2|10,1:2|1:2,0:0:0:0:
435,13,72930,1,2,0:0:0:0:
435,13,73117,2,0,P|481:21|510:46,2,70,2|0|10,1:2|1:0|1:2,0:0:0:0:
259,81,73866,1,0,1:0:0:0:
165,243,74240,6,0,L|172:314,1,70,10|0,1:2|0:0,0:0:0:0:
92,374,74615,2,0,L|64:229,1,140,2|10,1:2|1:2,0:0:0:0:
11,97,75364,2,0,B|72:-18|202:7|199:132,2,280,0|0|0,1:0|1:0|1:0,0:0:0:0:
36,190,77048,1,0,1:0:0:0:
36,190,77236,1,8,1:2:0:0:
189,292,77610,2,0,P|193:332|187:368,2,70,2|0|10,1:2|1:0|1:2,0:0:0:0:
189,292,78172,1,2,0:0:0:0:
256,225,78359,6,0,L|332:220,1,70,2|0,1:2|1:0,0:0:0:0:
401,163,78733,1,10,1:2:0:0:
401,163,78920,1,2,0:0:0:0:
477,216,79108,2,0,L|490:367,2,140,2|10|0,1:2|1:2|1:0,0:0:0:0:
498,38,80231,6,0,P|463:23|429:27,1,70,10|2,1:2|0:0,0:0:0:0:
344,5,80605,2,0,P|344:46|360:80,1,70,2|0,1:2|1:0,0:0:0:0:
397,149,80980,1,10,1:2:0:0:
295,293,81354,2,0,L|302:379,2,70,0|0|8,1:0|1:0|1:2,0:0:0:0:
110,250,82103,2,0,L|100:330,2,70,0|0|8,1:0|1:0|1:2,0:0:0:0:
110,250,82665,1,0,1:0:0:0:
28,201,82852,6,0,P|11:161|12:116,1,70,10|0,1:1|1:0,0:0:0:0:
96,113,83226,2,0,P|136:96|181:97,1,70,10|0,1:1|1:0,0:0:0:0:
213,174,83601,1,10,1:1:0:0:
277,262,83788,1,0,1:0:0:0:
277,262,83881,1,0,1:0:0:0:
277,262,83975,2,0,L|283:305,2,35,0|0|0,1:0|1:0|1:0,0:0:0:0:
314,170,84349,6,0,L|320:81,1,83.9999974365235,4|0,1:0|1:0,0:0:0:0:
404,204,84724,2,0,B|456:214|494:244|505:325,2,167.999994873047,10|10|4,1:1|1:0|1:1,0:0:0:0:
195,292,85847,2,0,L|188:377,1,83.9999974365235,0|0,1:0|1:0,0:0:0:0:
91,334,86222,1,8,1:2:0:0:
23,248,86409,1,2,0:1:0:0:
23,248,86502,1,0,0:0:0:0:
23,248,86596,2,0,L|6:79,1,167.999994873047,10|10,1:1|1:1,0:0:0:0:
216,143,87345,5,4,1:0:0:0:
216,143,87532,1,0,1:0:0:0:
216,143,87719,2,0,P|262:164|385:143,2,167.999994873047,10|10|4,1:1|1:1|1:0,0:0:0:0:
63,25,88842,5,0,1:0:0:0:
22,106,89030,1,0,1:0:0:0:
113,98,89217,1,8,1:2:0:0:
73,181,89404,1,0,1:0:0:0:
149,218,89591,2,0,P|166:258|139:378,1,167.999994873047,10|10,1:1|1:1,0:0:0:0:
344,350,90340,5,4,1:0:0:0:
344,350,90527,1,0,1:0:0:0:
344,350,90715,2,0,L|520:367,2,167.999994873047,10|10|4,1:1|1:1|1:0,0:0:0:0:
344,350,91651,1,0,1:0:0:0:
263,281,91838,5,0,1:0:0:0:
245,380,92025,1,0,1:0:0:0:
154,353,92212,1,8,1:2:0:0:
173,258,92399,1,0,1:0:0:0:
242,185,92587,2,0,P|269:123|253:17,1,167.999994873047,10|10,1:1|1:1,0:0:0:0:
72,80,93335,6,0,P|66:126|73:162,1,83.9999974365235,8|0,1:2|1:0,0:0:0:0:
161,112,93710,1,8,1:2:0:0:
161,112,93897,2,0,P|215:135|334:105,1,167.999994873047,0|0,1:0|1:0,0:0:0:0:
385,50,94459,1,8,1:2:0:0:
385,50,94646,1,0,1:0:0:0:
461,98,94833,2,0,B|499:142|503:199|461:265,1,167.999994873047,8|8,1:2|1:2,0:0:0:0:
405,181,95395,5,0,1:0:0:0:
326,229,95582,1,8,1:2:0:0:
272,144,95769,1,0,1:0:0:0:
203,201,95956,1,8,1:2:0:0:
146,127,96144,1,0,1:0:0:0:
112,220,96331,5,4,1:0:0:0:
112,220,96518,1,0,1:0:0:0:
112,220,96705,2,0,B|92:277|94:312|113:384,2,167.999994873047,10|10|4,1:1|1:0|1:1,0:0:0:0:
83,17,97828,2,0,L|-7:10,1,83.9999974365235,0|0,1:0|1:0,0:0:0:0:
35,108,98203,1,8,1:2:0:0:
137,141,98390,1,2,0:1:0:0:
137,141,98484,1,0,0:0:0:0:
137,141,98577,2,0,L|321:156,1,167.999994873047,10|10,1:1|1:1,0:0:0:0:
450,350,99326,6,0,B|499:308|510:258|472:193,2,167.999994873047,10|10|10,1:1|1:1|1:1,0:0:0:0:
450,350,100449,1,4,1:0:0:0:
308,224,100824,1,0,1:0:0:0:
276,313,101011,1,0,1:0:0:0:
185,283,101198,1,8,1:2:0:0:
217,194,101385,1,0,1:0:0:0:
119,209,101573,2,0,B|66:222|34:279|37:348,1,167.999994873047,10|10,1:1|1:1,0:0:0:0:
235,327,102321,5,4,1:0:0:0:
235,327,102509,1,0,1:0:0:0:
235,327,102696,2,0,L|408:318,2,167.999994873047,10|10|4,1:1|1:1|1:0,0:0:0:0:
235,327,103632,1,0,1:0:0:0:
124,338,103819,5,2,1:1:0:0:
186,263,104006,1,2,1:1:0:0:
93,228,104193,1,8,1:2:0:0:
166,160,104381,1,2,1:1:0:0:
82,121,104568,2,0,L|-8:105,2,83.9999974365235,10|2|10,1:1|1:1|1:1,0:0:0:0:
238,36,105317,6,0,B|299:16|351:26|396:72,1,167.999994873047,0|8,1:0|1:2,0:0:0:0:
339,142,105878,2,0,P|292:156|253:148,1,83.9999974365235,0|0,0:0|1:0,0:0:0:0:
180,194,106253,1,0,1:0:0:0:
180,194,106440,2,0,P|141:181|109:145,1,83.9999974365235,8|0,1:2|1:0,0:0:0:0:
20,94,106814,2,0,B|-10:151|-14:200|19:263,2,167.999994873047,0|8|0,1:0|1:2|1:0,0:0:0:0:
119,75,107750,1,12,1:2:0:0:
124,181,107938,1,8,1:2:0:0:
229,149,108125,1,0,1:0:0:0:
239,259,108302,6,0,P|235:315|239:347,1,83.9999974365235,8|0,1:2|1:0,0:0:0:0:
327,267,108676,2,0,P|331:211|327:179,1,83.9999974365235,8|0,1:2|1:0,0:0:0:0:
419,280,109051,2,0,P|415:336|419:368,1,83.9999974365235,8|0,1:2|1:0,0:0:0:0:
507,288,109426,2,0,P|511:232|507:200,1,83.9999974365235,8|0,1:2|1:0,0:0:0:0:
467,98,109800,5,8,1:2:0:0:
390,26,109988,1,0,1:0:0:0:
370,118,110175,2,0,L|363:219,1,83.9999974365235,8|0,1:2|1:0,0:0:0:0:
298,291,110550,1,8,1:2:0:0:
227,360,110737,1,0,1:0:0:0:
206,264,110924,2,0,L|196:162,1,83.9999974365235,8|0,1:2|1:0,0:0:0:0:
168,79,111299,6,0,P|116:85|66:70,1,83.9999974365235,8|0,1:2|1:0,0:0:0:0:
0,173,111674,2,0,P|52:167|102:182,1,83.9999974365235,8|0,1:2|1:0,0:0:0:0:
177,256,112049,2,0,P|125:262|75:247,1,83.9999974365235,8|0,1:2|1:0,0:0:0:0:
9,350,112423,2,0,P|61:344|111:359,1,83.9999974365235,8|0,1:2|1:0,0:0:0:0:
209,354,112798,5,8,1:2:0:0:
270,282,112985,1,0,1:0:0:0:
304,366,113173,2,0,L|394:363,1,83.9999974365235,8|0,1:2|1:0,0:0:0:0:
498,288,113547,1,8,1:2:0:0:
474,198,113735,1,0,1:0:0:0:
405,259,113922,2,0,L|317:248,1,83.9999974365235,8|0,1:2|1:0,0:0:0:0:
226,247,114297,6,0,B|212:297|173:341|98:340,1,167.999994873047,8|8,1:2|1:2,0:0:0:0:
2,296,114859,1,0,1:0:0:0:
2,296,115046,2,0,B|16:246|55:202|130:203,1,167.999994873047,8|8,1:2|1:2,0:0:0:0:
242,182,115608,5,0,1:0:0:0:
242,182,115796,2,0,B|299:214|358:212|413:177,1,167.999994873047,8|8,1:2|1:2,0:0:0:0:
509,100,116358,1,0,1:0:0:0:
509,100,116545,2,0,B|452:68|393:70|338:105,1,167.999994873047,8|8,1:2|1:2,0:0:0:0:
137,34,117294,6,0,L|146:209,1,167.999994873047,8|8,1:2|1:2,0:0:0:0:
62,268,117857,1,0,1:0:0:0:
62,268,118044,2,0,L|56:358,2,83.9999974365235,8|0|8,1:2|1:0|1:2,0:0:0:0:
6,187,118606,5,0,1:0:0:0:
82,124,118793,2,0,P|135:108|257:126,1,167.999994873047,8|8,1:2|1:2,0:0:0:0:
316,191,119355,1,0,1:0:0:0:
362,291,119543,1,4,1:2:0:0:
362,291,119730,1,4,1:2:0:0:
362,291,119917,1,4,1:2:0:0:
485,172,120292,6,0,P|502:235|496:321,2,140,2|8|0,1:0|1:2|1:0,0:0:0:0:
428,101,121228,1,0,1:0:0:0:
428,101,121415,1,8,1:2:0:0:
331,258,121789,2,0,P|265:276|179:263,1,140,2|8,1:0|1:2,0:0:0:0:
114,301,122351,1,0,1:0:0:0:
114,301,122538,2,0,P|52:271|-2:188,1,140,2|8,1:0|1:2,0:0:0:0:
0,124,123100,6,0,B|71:79|172:124|123:232|216:278|291:237,1,350,2|0,1:0|1:0,0:0:0:0:
365,189,124223,1,0,1:0:0:0:
365,189,124410,1,8,1:2:0:0:
459,228,124597,2,0,L|470:80,1,140,2|2,1:0|1:0,0:0:0:0:
218,76,125533,6,0,L|213:3,2,70,2|2|8,1:0|1:0|1:2,0:0:0:0:
117,38,126095,2,0,B|39:74|24:148|86:235,1,210,2|8,1:0|1:2,0:0:0:0:
217,308,127031,2,0,L|225:383,2,70,2|2|8,1:0|1:0|1:2,0:0:0:0:
287,244,127593,2,0,B|333:304|405:322|474:266,1,210,2|8,1:0|1:2,0:0:0:0:
506,108,128529,1,0,1:0:0:0:
506,108,128716,1,0,1:0:0:0:
506,108,128903,1,8,1:2:0:0:
428,43,129090,6,2,P|411:104|429:193,1,140,2|0,1:0|1:0,0:1:0:0:
351,247,129652,1,8,1:2:0:0:
266,200,129839,2,2,P|283:140|258:55,1,140,2|0,1:0|1:0,0:1:0:0:
182,17,130401,1,8,1:2:0:0:
116,86,130588,1,0,1:0:0:0:
19,62,130775,6,0,L|10:12,15,35,10|0|0|0|0|0|0|0|0|0|0|0|0|0|0|0,1:1|1:0|1:0|1:0|1:0|1:0|1:0|1:0|1:0|1:0|1:0|1:0|1:0|1:0|1:0|1:0,0:0:0:0:
1,98,132273,6,0,P|6:142|30:182,1,83.9999974365235,4|0,1:0|1:0,0:0:0:0:
100,114,132647,2,2,P|146:92|173:61,1,83.9999974365235,8|0,1:2|0:0,0:0:0:0:
263,23,133022,1,0,1:0:0:0:
263,23,133209,1,0,1:0:0:0:
367,13,133396,1,4,1:1:0:0:
380,114,133583,2,2,P|388:172|367:303,1,167.999994873047,2|0,1:0|1:0,0:0:0:0:
290,341,134145,6,0,L|191:348,1,83.9999974365235,8|0,1:2|0:0,0:0:0:0:
120,293,134519,2,0,L|27:303,2,83.9999974365235,0|0|4,1:0|1:0|1:1,0:0:0:0:
201,233,135081,2,2,P|224:178|261:74,1,167.999994873047,2|0,0:0|1:0,0:0:0:0:
357,38,135643,1,8,1:2:0:0:
506,202,136017,6,0,P|502:247|481:287,1,83.9999974365235,0|0,1:0|1:0,0:0:0:0:
397,366,136391,2,0,P|391:307|403:269,1,83.9999974365235,4|0,1:1|0:0,0:0:0:0:
387,185,136766,1,0,1:0:0:0:
387,185,136953,1,0,1:0:0:0:
284,196,137140,1,8,1:2:0:0:
284,196,137327,1,0,0:0:0:0:
273,99,137515,2,0,L|261:12,2,83.9999974365235,0|0|4,1:0|1:0|1:1,0:0:0:0:
376,86,138076,2,2,L|354:262,1,167.999994873047,2|0,0:0|1:0,0:0:0:0:
324,354,138638,1,8,1:2:0:0:
106,310,139012,6,0,L|14:319,1,83.9999974365235,0|0,1:0|1:0,0:0:0:0:
78,215,139387,1,4,1:1:0:0:
78,215,139574,2,2,P|140:188|263:196,1,167.999994873047,2|0,0:0|1:0,0:0:0:0:
317,250,140135,1,8,1:2:0:0:
317,250,140323,1,0,0:0:0:0:
403,301,140510,2,0,P|447:304|499:298,2,83.9999974365235,0|0|4,1:0|1:0|1:1,0:0:0:0:
221,368,141259,5,8,1:2:0:0:
49,228,141633,1,10,1:1:0:0:
155,60,142008,1,10,1:1:0:0:
255,42,142195,1,2,1:1:0:0:
223,142,142382,1,10,1:1:0:0:
435,208,142756,6,0,L|414:110,1,83.9999974365235,8|0,1:2|1:0,0:0:0:0:
443,23,143131,2,0,L|360:40,1,83.9999974365235,8|0,1:2|1:0,0:0:0:0:
258,15,143505,2,0,L|275:97,1,83.9999974365235,8|0,1:2|1:0,0:0:0:0:
250,200,143880,2,0,L|332:182,1,83.9999974365235,8|0,1:2|1:0,0:0:0:0:
435,208,144254,6,0,P|458:250|460:298,1,83.9999974365235,0|0,1:0|1:0,0:0:0:0:
427,376,144628,2,2,P|386:350|365:308,1,83.9999974365235,8|0,1:2|0:0,0:0:0:0:
282,267,145003,1,0,1:0:0:0:
282,267,145190,1,0,1:0:0:0:
183,279,145377,1,4,1:1:0:0:
170,177,145565,2,2,P|173:131|151:7,1,167.999994873047,2|0,0:0|1:0,0:0:0:0:
61,32,146126,6,0,L|17:117,1,83.9999974365235,8|0,1:2|0:0,0:0:0:0:
62,188,146501,2,0,L|48:277,2,83.9999974365235,0|0|4,1:0|1:0|1:1,0:0:0:0:
150,152,147062,2,2,P|206:183|293:266,1,167.999994873047,2|0,0:0|1:0,0:0:0:0:
356,329,147624,1,8,1:2:0:0:
501,171,147998,6,0,L|493:77,1,83.9999974365235,0|0,1:0|1:0,0:0:0:0:
415,19,148373,2,0,L|407:123,1,83.9999974365235,4|0,1:1|0:0,0:0:0:0:
343,170,148747,1,0,1:0:0:0:
343,170,148934,1,0,1:0:0:0:
281,90,149121,1,8,1:2:0:0:
281,90,149309,1,0,0:0:0:0:
193,129,149496,2,0,L|107:124,2,83.9999974365235,0|0|4,1:0|1:0|1:1,0:0:0:0:
254,200,150057,2,2,B|285:259|285:308|221:363,1,167.999994873047,2|0,0:0|1:0,0:0:0:0:
144,335,150619,1,8,1:2:0:0:
3,158,150994,6,0,P|45:144|84:154,1,83.9999974365235,0|0,1:0|1:0,0:0:0:0:
161,224,151368,1,4,1:1:0:0:
161,224,151555,2,2,B|186:178|201:134|180:57,1,167.999994873047,2|0,0:0|1:0,0:0:0:0:
99,7,152117,1,8,1:2:0:0:
99,7,152304,1,0,0:0:0:0:
31,78,152491,2,0,P|22:118|27:165,2,83.9999974365235,0|0|4,1:0|1:0|1:1,0:0:0:0:
244,11,153240,5,8,1:2:0:0:
377,182,153614,1,10,1:1:0:0:
164,208,153989,1,10,1:1:0:0:
81,257,154176,1,2,1:0:0:0:
160,300,154363,1,10,1:1:0:0:
350,263,154738,5,4,1:2:0:0:
350,263,154925,2,0,P|348:212|346:169,1,83.9999974365235,4|0,1:2|0:0,0:0:0:0:
441,134,155299,1,4,1:2:0:0:
441,134,155487,2,0,P|443:185|445:228,1,83.9999974365235,4|0,1:2|0:0,0:0:0:0:
449,305,155861,5,4,1:2:0:0:
434,41,156235,1,4,1:0:0:0:
208,9,156607,6,0,P|152:25|121:46,1,83.9999974365235,10|0,1:1|1:0,0:0:0:0:
19,10,156979,2,2,B|11:60|22:105|95:157,1,167.999994873047,10|4,1:0|1:1,0:0:0:0:
88,152,157537,1,0,1:0:0:0:
33,241,157723,6,0,L|40:333,1,83.9999974365235,0|0,1:0|1:0,0:0:0:0:
133,272,158095,1,8,1:2:0:0:
212,352,158281,1,2,0:1:0:0:
212,352,158374,1,0,0:0:0:0:
212,352,158467,2,0,L|311:346,1,83.9999974365235,10|0,1:1|1:0,0:0:0:0:
378,281,158839,2,2,L|380:104,1,167.999994873047,10|4,1:1|1:0,0:0:0:0:
186,15,159583,6,0,P|181:64|199:101,1,83.9999974365235,10|0,1:1|1:0,0:0:0:0:
93,104,159955,2,2,B|115:158|147:195|216:218,1,167.999994873047,10|4,1:1|1:0,0:0:0:0:
334,358,160700,5,0,1:0:0:0:
430,342,160886,1,0,1:0:0:0:
414,240,161072,1,8,1:2:0:0:
318,259,161258,1,0,1:0:0:0:
357,166,161444,2,0,B|394:129|409:85|374:7,2,167.999994873047,10|10|4,1:1|1:1|1:0,0:0:0:0:
460,338,162560,6,0,L|370:345,1,83.9999974365235,10|0,1:1|1:0,0:0:0:0:
297,288,162932,2,2,L|113:299,1,167.999994873047,10|4,1:1|1:0,0:0:0:0:
129,298,163490,1,0,1:0:0:0:
63,369,163676,5,0,1:0:0:0:
0,283,163862,1,0,1:0:0:0:
75,194,164048,1,8,1:2:0:0:
0,108,164235,1,0,1:0:0:0:
72,22,164421,2,0,B|242:42,1,167.999994873047,10|10,1:1|1:1,0:0:0:0:
405,33,165165,6,0,P|448:21|490:37,1,83.9999974365235,8|0,1:2|1:0,0:0:0:0:
322,82,165537,2,0,P|279:94|237:78,1,83.9999974365235,8|0,1:2|1:0,0:0:0:0:
400,142,165909,2,0,P|443:130|485:146,1,83.9999974365235,8|0,1:2|1:0,0:0:0:0:
317,191,166281,2,0,P|274:203|232:187,1,83.9999974365235,8|0,1:2|1:0,0:0:0:0:
114,160,166653,6,0,L|64:139,3,41.9999987182618,8|0|0|0,1:2|0:0|1:0|1:0,0:0:0:0:
83,203,167025,2,0,L|23:209,3,41.9999987182618,0|0|0|0,1:0|1:0|1:0|1:0,0:0:0:0:
111,253,167397,2,0,L|68:286,3,41.9999987182618,0|0|0|0,1:0|1:0|1:0|1:0,0:0:0:0:
151,270,167769,2,0,L|141:316,3,41.9999987182618,0|0|0|0,1:0|1:0|1:0|1:0,0:0:0:0:
186,298,168141,6,0,L|195:382,1,83.9999974365235,4|0,1:0|1:0,0:0:0:0:
312,316,168514,2,2,B|368:303|440:312|486:354,2,167.999994873047,10|10|4,1:1|1:0|1:1,0:0:0:0:
312,316,169444,1,0,1:0:0:0:
222,358,169630,5,0,1:0:0:0:
239,258,169816,1,0,1:0:0:0:
146,295,170002,1,8,1:2:0:0:
163,195,170188,1,2,0:1:0:0:
65,235,170374,2,2,B|43:265|39:296|50:333,1,83.9999974365235,10|0,1:1|1:0,0:0:0:0:
163,195,170746,2,2,B|224:184|277:211|296:278,1,167.999994873047,10|4,1:1|1:0,0:0:0:0:
467,364,171490,6,2,P|434:331|422:281,1,83.9999974365235,10|0,1:1|1:0,0:0:0:0:
512,283,171862,2,2,B|522:219|496:165|427:139,1,167.999994873047,10|4,1:1|1:0,0:0:0:0:
441,144,172421,1,0,1:0:0:0:
374,224,172607,5,0,1:0:0:0:
282,250,172793,1,0,1:0:0:0:
345,132,172979,1,8,1:2:0:0:
255,162,173165,1,0,1:0:0:0:
255,162,173258,1,0,0:0:0:0:
255,162,173351,2,2,L|167:180,1,83.9999974365235,10|0,1:1|1:0,0:0:0:0:
93,77,173723,2,2,L|280:64,1,167.999994873047,10|4,1:1|1:0,0:0:0:0:
390,246,174467,6,2,B|374:170|394:127|423:87,2,167.999994873047,10|10|4,1:1|1:1|1:0,0:0:0:0:
390,246,175397,1,2,1:0:0:0:
473,309,175583,5,2,1:1:0:0:
383,361,175769,1,2,1:1:0:0:
295,308,175955,1,10,1:1:0:0:
205,361,176141,1,2,1:1:0:0:
117,306,176328,2,0,P|77:294|28:295,2,83.9999974365235,10|2|10,1:1|1:1|1:1,0:0:0:0:
104,114,177072,6,0,P|100:66|84:25,1,83.9999974365235,8|0,1:0|1:0,0:0:0:0:
202,39,177445,2,0,P|250:35|291:19,1,83.9999974365235,10|0,1:0|1:0,0:0:0:0:
277,137,177819,2,0,P|281:185|297:226,1,83.9999974365235,8|0,1:0|1:0,0:0:0:0:
179,212,178193,2,0,P|131:216|90:232,1,83.9999974365235,10|0,1:0|1:0,0:0:0:0:
159,308,178567,5,10,1:0:0:0:
159,308,178754,1,2,1:0:0:0:
242,362,178941,1,8,1:0:0:0:
242,362,179128,1,2,1:0:0:0:
326,299,179314,1,8,1:0:0:0:
326,299,179501,1,2,1:0:0:0:
408,355,179688,1,8,1:0:0:0:
408,355,179875,1,0,1:0:0:0:
505,287,180062,6,0,L|512:361,1,70,4|4,1:2|1:2,0:0:0:0:
