osu file format v14

[General]
AudioFilename: audio.mp3
AudioLeadIn: 0
PreviewTime: -1
Countdown: 1
SampleSet: Soft
StackLeniency: 0.6
Mode: 0
LetterboxInBreaks: 1
EpilepsyWarning: 1
WidescreenStoryboard: 1

[Editor]
Bookmarks: 23224,92344,96184,176824,213784
DistanceSpacing: 0.8
BeatDivisor: 6
GridSize: 32
TimelineZoom: 2.2

[Metadata]
Title:Lie
TitleUnicode:Lie
Artist:Jimin (BTS)
ArtistUnicode:Jimin (BTS)
Creator:Soula Evans
Version:L I A R
Source:
Tags:bts bantan jimin caught in a lie smooth like a snake
BeatmapID:1577616
BeatmapSetID:748921

[Difficulty]
HPDrainRate:10
CircleSize:6
OverallDifficulty:10
ApproachRate:10
SliderMultiplier:1.4
SliderTickRate:2

[Events]
//Background and Video events
0,0,"jimin__2_lie_wallpaper_by_marcelinetheturtle-dah8jng.png",0,0
//Break Periods
//Storyboard Layer 0 (Background)
//Storyboard Layer 1 (Fail)
//Storyboard Layer 2 (Pass)
//Storyboard Layer 3 (Foreground)
//Storyboard Layer 4 (Overlay)
//Storyboard Sound Samples

[TimingPoints]
6720,480,4,2,0,20,1,0
15544,480,4,2,0,20,1,0
23224,-100,4,3,0,50,0,0
53944,-133.333333333333,4,2,0,50,0,0
61624,-100,4,1,0,80,0,1
73144,-100,4,2,0,80,0,0
76984,-100,4,1,0,80,0,1
90424,-100,4,2,0,80,0,0
92344,-100,4,2,0,20,0,0
96184,-133.333333333333,4,2,0,50,0,0
103864,-100,4,3,0,50,0,0
126904,-133.333333333333,4,2,0,50,0,0
134104,-100,4,1,0,80,0,1
147544,-100,4,2,0,80,0,0
149944,-100,4,1,0,80,0,1
159544,-100,4,2,0,80,0,0
165304,-133.333333333333,4,2,0,20,0,0
171064,-100,4,3,0,50,0,0
178744,-133.333333333333,4,2,0,20,0,0
194104,-100,4,3,0,50,0,0
195544,-100,4,1,0,80,0,1
211384,-100,4,2,0,80,0,0

[Colours]
Combo1 : 128,128,255
Combo2 : 0,217,217
Combo3 : 0,128,192
Combo4 : 0,64,128

[HitObjects]
320,256,6720,6,0,P|256:263|153:211,1,140
64,224,7360,1,0,0:0:0:0:
64,96,7520,2,0,P|128:96|224:64,1,140
320,128,8160,1,0,0:0:0:0:
320,256,8320,2,0,P|384:320|416:320,1,93.3333333333333
442,242,8800,1,0,0:0:0:0:
416,128,8960,2,0,P|480:128|512:192,1,140
384,256,9600,6,0,L|416:192,1,46.6666666666667
352,128,9920,2,0,L|384:64,1,46.6666666666667
256,64,10240,2,0,L|192:128,1,46.6666666666667
192,160,10560,1,0,0:0:0:0:
96,128,10720,2,0,L|32:128,1,46.6666666666667
27,197,11040,2,0,L|475:197,1,420
448,224,12640,2,0,L|448:288,8,46.6666666666667
450,123,14080,2,0,L|482:123,13,23.3333333333333
448,192,15360,6,2,P|416:256|352:288,1,140,6|2,0:0|0:0,0:0:0:0:
36,155,16024,5,0,0:0:0:0:
109,192,16184,1,0,0:0:0:0:
182,155,16344,1,0,0:0:0:0:
182,82,16504,1,0,0:0:0:0:
256,82,16664,1,0,0:0:0:0:
329,82,16824,1,0,0:0:0:0:
329,155,16984,1,0,0:0:0:0:
329,228,17144,1,0,0:0:0:0:
146,265,17304,5,0,0:0:0:0:
182,338,17464,1,0,0:0:0:0:
256,338,17624,1,0,0:0:0:0:
329,338,17784,1,0,0:0:0:0:
402,301,17944,1,0,0:0:0:0:
475,338,18104,1,0,0:0:0:0:
511,265,18264,1,0,0:0:0:0:
416,256,18424,1,0,0:0:0:0:
512,192,18584,1,0,0:0:0:0:
416,160,18744,1,0,0:0:0:0:
448,96,18904,2,0,L|544:96,2,70,0|0|4,0:0|0:0|0:0,0:0:0:0:
352,320,19544,6,2,L|352:224,1,70
192,128,20024,5,0,0:0:0:0:
224,64,20184,1,0,0:0:0:0:
288,64,20344,1,0,0:0:0:0:
320,128,20504,1,0,0:0:0:0:
352,192,20664,1,0,0:0:0:0:
320,256,20824,1,0,0:0:0:0:
288,320,20984,1,0,0:0:0:0:
224,352,21144,1,0,0:0:0:0:
160,320,21304,1,0,0:0:0:0:
128,256,21464,1,0,0:0:0:0:
64,224,21624,1,0,0:0:0:0:
0,192,21784,1,0,0:0:0:0:
0,128,21944,1,0,0:0:0:0:
64,96,22104,2,0,L|192:256,1,186.666666666667
320,288,23064,1,0,0:0:0:0:
288,128,23224,6,0,P|352:64|416:32,1,140
352,160,24024,2,0,L|320:256,1,93.3333333333333
224,256,24504,1,0,0:0:0:0:
192,160,24664,2,0,L|96:128,1,93.3333333333333
64,192,25304,1,0,0:0:0:0:
64,224,25464,1,0,0:0:0:0:
96,320,25624,2,0,P|160:288|192:224,1,140
224,96,26264,1,0,0:0:0:0:
288,96,26424,1,0,0:0:0:0:
352,128,26584,1,0,0:0:0:0:
320,224,26744,2,0,P|384:256|480:256,1,140
288,192,27544,6,0,L|352:160,2,46.6666666666667
192,192,28024,2,0,L|128:224,2,46.6666666666667
192,160,28504,1,0,0:0:0:0:
96,128,28664,1,0,0:0:0:0:
64,224,28824,1,0,0:0:0:0:
128,256,28984,2,0,L|192:320,1,46.6666666666667
224,224,29304,2,0,L|192:160,1,46.6666666666667
192,96,29624,2,0,L|256:128,1,46.6666666666667
256,160,29944,1,8,0:0:0:0:
320,128,30104,1,0,0:0:0:0:
384,128,30264,1,0,0:0:0:0:
448,256,30424,6,0,P|448:192|352:160,1,140
128,96,31224,5,0,0:0:0:0:
96,160,31384,1,0,0:0:0:0:
32,192,31544,1,0,0:0:0:0:
0,128,31704,2,0,P|64:128|128:192,1,140
64,256,32344,1,0,0:0:0:0:
128,288,32504,1,0,0:0:0:0:
192,256,32664,1,0,0:0:0:0:
160,192,32824,2,0,L|96:192,2,46.6666666666667
192,160,33304,1,0,0:0:0:0:
192,160,33464,1,0,0:0:0:0:
256,96,33624,1,0,0:0:0:0:
256,96,33784,1,0,0:0:0:0:
320,224,33944,2,2,P|352:160|320:64,1,140
192,160,34584,6,0,L|288:160,1,93.3333333333333
448,288,35064,2,0,L|352:288,1,93.3333333333333
224,288,35544,1,0,0:0:0:0:
96,224,35704,2,0,L|96:96,1,93.3333333333333
160,192,36184,2,0,B|160:288|160:288|224:320|224:320|256:288|288:320,1,233.333333333333
352,288,37144,2,0,L|416:320,1,46.6666666666667
384,256,37464,2,0,L|448:256,1,46.6666666666667,8|0,0:0|0:0,0:0:0:0:
384,192,37784,2,0,P|416:128|416:32,1,140
160,256,38424,6,0,P|160:160|224:64,1,186.666666666667
256,128,39304,1,0,0:0:0:0:
352,160,39464,1,0,0:0:0:0:
320,256,39624,1,0,0:0:0:0:
384,192,39784,6,0,L|352:192,1,23.3333333333333
224,160,39944,2,0,L|256:160,1,23.3333333333333
128,128,40104,2,0,L|160:128,1,23.3333333333333
352,128,40264,2,0,L|320:128,1,23.3333333333333
160,224,40424,2,0,L|192:224,1,23.3333333333333
352,224,40584,2,0,L|320:224,5,23.3333333333333
128,160,41064,2,0,L|160:160,6,23.3333333333333
192,128,41704,1,0,0:0:0:0:
288,96,41944,1,0,0:0:0:0:
320,288,42264,6,0,P|384:192|384:160,1,140
384,160,42904,1,0,0:0:0:0:
256,128,43064,1,0,0:0:0:0:
288,256,43224,1,0,0:0:0:0:
320,256,43384,1,0,0:0:0:0:
96,256,43544,1,0,0:0:0:0:
128,256,43704,1,0,0:0:0:0:
32,192,43864,2,0,L|96:192,2,46.6666666666667
32,160,44344,1,0,0:0:0:0:
128,224,44504,1,0,0:0:0:0:
192,128,44664,1,0,0:0:0:0:
192,128,44824,6,2,L|352:128,1,140
384,192,45464,1,0,0:0:0:0:
384,192,45624,1,0,0:0:0:0:
288,320,45784,1,0,0:0:0:0:
288,320,45944,1,0,0:0:0:0:
96,160,46104,2,0,P|128:96|256:32,1,186.666666666667
224,128,46984,1,0,0:0:0:0:
352,192,47144,1,0,0:0:0:0:
224,256,47304,1,0,0:0:0:0:
128,192,47464,2,0,L|128:160,1,23.3333333333333
160,96,47624,2,0,L|160:128,1,23.3333333333333
224,64,47784,2,0,L|224:32,1,23.3333333333333
320,64,47944,2,0,L|320:32,1,23.3333333333333
416,160,48104,2,0,L|416:128,1,23.3333333333333
352,256,48264,2,0,L|352:224,1,23.3333333333333
256,320,48424,2,0,L|256:288,3,23.3333333333333
64,160,48744,6,0,P|64:192|96:256,1,105
160,288,49284,1,0,0:0:0:0:
224,224,49404,1,0,0:0:0:0:
256,64,49624,2,0,P|320:64|352:128,1,140
384,224,50264,1,0,0:0:0:0:
448,160,50424,1,0,0:0:0:0:
320,160,50584,1,0,0:0:0:0:
384,256,50744,2,0,L|448:256,1,46.6666666666667
384,320,51064,1,0,0:0:0:0:
288,352,51224,1,0,0:0:0:0:
192,320,51384,1,0,0:0:0:0:
96,288,51544,1,0,0:0:0:0:
0,320,51704,1,0,0:0:0:0:
32,224,51864,2,0,L|96:224,1,46.6666666666667
256,192,52184,2,0,L|192:192,1,46.6666666666667
64,128,52504,2,0,L|224:128,1,140
192,96,53304,1,0,0:0:0:0:
320,128,53624,2,0,P|352:192|352:256,1,93.3333333333333
192,224,54104,5,0,0:0:0:0:
192,96,54264,2,0,P|256:96|320:128,1,105.000004005432
352,224,54904,1,0,0:0:0:0:
192,288,55064,2,0,P|224:320|256:320,2,70.0000026702882
256,224,55864,1,0,0:0:0:0:
64,224,56024,1,0,0:0:0:0:
32,128,56184,2,0,P|96:96|128:128,1,105.000004005432
128,192,56824,1,8,0:0:0:0:
224,96,56984,1,0,0:0:0:0:
288,160,57144,2,0,P|320:160|352:128,1,70.0000026702882
352,128,57624,1,4,0:0:0:0:
416,224,57784,6,0,L|320:224,2,70.0000026702882
448,224,58584,1,8,0:0:0:0:
352,288,58744,2,0,L|384:352,1,70.0000026702882
320,224,59224,1,0,0:0:0:0:
256,192,59384,2,0,L|224:128,1,70.0000026702882
256,256,59864,1,0,0:0:0:0:
192,320,60024,2,0,P|192:256|192:224,1,70.0000026702882
320,192,60504,6,0,L|384:192,1,35.0000013351441
128,192,60824,2,0,L|64:192,1,35.0000013351441
160,96,61144,1,0,0:0:0:0:
192,96,61224,1,0,0:0:0:0:
224,96,61304,1,0,0:0:0:0:
320,96,61464,1,0,0:0:0:0:
288,320,61624,6,2,P|352:256|384:160,1,186.666666666667
192,224,62424,1,0,0:0:0:0:
160,160,62584,1,0,0:0:0:0:
192,96,62744,1,0,0:0:0:0:
64,192,62904,2,2,P|96:256|160:320,2,140
128,192,64024,1,0,0:0:0:0:
192,192,64184,2,0,P|192:128|320:32,1,233.333333333333
480,224,65304,6,0,P|416:192|352:192,1,93.3333333333333
288,288,65784,2,0,P|256:224|224:192,1,93.3333333333333
128,256,66264,1,0,0:0:0:0:
128,128,66424,2,0,P|160:96|160:32,1,93.3333333333333
320,96,66904,1,0,0:0:0:0:
256,256,67064,1,4,0:0:0:0:
448,288,67224,2,0,P|448:224|352:160,1,186.666666666667
224,128,68024,1,0,0:0:0:0:
224,128,68344,1,0,0:0:0:0:
224,128,68664,1,0,0:0:0:0:
128,192,68824,6,0,L|96:96,1,93.3333333333333
64,192,69304,2,0,L|0:256,1,46.6666666666667
64,256,69624,1,0,0:0:0:0:
128,192,69784,2,0,P|160:256|128:288,1,93.3333333333333
256,64,70264,1,8,0:0:0:0:
352,256,70584,1,0,0:0:0:0:
416,224,70744,2,0,L|512:224,2,93.3333333333333
384,160,71544,1,0,0:0:0:0:
352,96,71704,2,0,P|320:160|352:224,1,140
448,256,72344,1,8,0:0:0:0:
288,288,72664,1,0,0:0:0:0:
256,320,72984,1,0,0:0:0:0:
192,320,73144,6,0,L|256:224,1,93.3333333333333
160,224,73624,1,0,0:0:0:0:
160,128,73784,2,0,L|64:224,1,93.3333333333333
32,160,74264,1,0,0:0:0:0:
96,96,74424,1,0,0:0:0:0:
192,64,74584,1,0,0:0:0:0:
256,160,74744,2,0,P|320:192|384:192,2,93.3333333333333
352,128,75544,1,0,0:0:0:0:
416,192,75704,1,0,0:0:0:0:
352,256,75864,1,0,0:0:0:0:
256,256,76024,2,0,L|192:352,1,93.3333333333333,8|0,0:0|0:0,0:0:0:0:
160,256,76504,2,0,L|64:320,1,93.3333333333333,8|0,0:0|0:0,0:0:0:0:
384,128,76984,6,0,P|320:192|288:288,1,186.666666666667
352,288,77784,1,0,0:0:0:0:
416,224,77944,1,0,0:0:0:0:
320,192,78104,1,0,0:0:0:0:
224,128,78264,2,2,P|288:96|384:128,2,140
224,192,79384,1,8,0:0:0:0:
96,224,79864,6,0,L|96:128,1,93.3333333333333
160,160,80344,2,0,L|160:256,1,93.3333333333333
192,320,80824,1,0,0:0:0:0:
192,320,80984,1,0,0:0:0:0:
192,320,81144,1,0,0:0:0:0:
224,288,81304,2,0,L|288:288,1,46.6666666666667
384,288,81624,2,0,L|320:288,1,46.6666666666667
224,256,81944,1,0,0:0:0:0:
320,224,82104,1,0,0:0:0:0:
224,192,82264,1,0,0:0:0:0:
160,128,82424,2,0,P|256:96|320:128,1,140
320,192,83224,2,0,L|384:192,2,46.6666666666667
320,256,83704,1,0,0:0:0:0:
256,288,83864,1,0,0:0:0:0:
192,96,84184,6,0,L|288:96,2,93.3333333333333
64,192,84984,1,0,0:0:0:0:
192,224,85304,1,0,0:0:0:0:
352,160,85464,2,0,L|352:256,2,93.3333333333333,8|0|0,0:0|0:0|0:0,0:0:0:0:
416,160,86264,1,0,0:0:0:0:
416,320,86584,1,0,0:0:0:0:
224,288,86744,2,0,L|320:224,2,93.3333333333333,8|0|0,0:0|0:0|0:0,0:0:0:0:
128,288,87544,1,0,0:0:0:0:
224,192,87864,1,0,0:0:0:0:
128,128,88024,2,0,P|128:192|160:256,1,93.3333333333333
256,288,88504,2,0,P|320:288|384:256,1,93.3333333333333
352,128,88984,2,0,P|384:192|384:224,1,93.3333333333333
352,288,89464,1,0,0:0:0:0:
256,192,89624,12,0,91224,0:0:0:0:
192,224,91544,5,0,0:0:0:0:
160,160,91704,1,0,0:0:0:0:
224,128,91864,1,0,0:0:0:0:
288,160,92024,1,0,0:0:0:0:
352,160,92184,2,0,L|384:224,4,46.6666666666667
288,288,92984,1,0,0:0:0:0:
160,256,93144,2,0,L|224:224,4,46.6666666666667
128,128,93944,1,0,0:0:0:0:
224,96,94104,2,0,L|288:128,4,46.6666666666667
256,192,94904,12,0,95704,0:0:0:0:
320,160,96024,5,0,0:0:0:0:
288,288,96184,1,0,0:0:0:0:
160,256,96344,2,0,P|160:192|192:128,1,105.000004005432
224,192,96984,1,0,0:0:0:0:
288,160,97144,1,0,0:0:0:0:
352,128,97304,1,0,0:0:0:0:
384,192,97464,2,0,L|448:256,1,70.0000026702882
384,288,97944,2,0,L|320:224,1,70.0000026702882
256,224,98424,1,0,0:0:0:0:
224,224,98584,1,0,0:0:0:0:
192,224,98744,1,0,0:0:0:0:
128,224,98904,2,0,P|128:160|160:64,1,140.000005340576
192,128,99704,1,0,0:0:0:0:
224,128,99864,1,0,0:0:0:0:
256,128,100024,1,0,0:0:0:0:
288,160,100184,2,0,P|352:160|448:224,1,175.00000667572
384,320,101144,5,0,0:0:0:0:
192,288,101304,2,0,P|192:224|224:128,1,140.000005340576
256,160,102104,2,0,L|288:192,1,35.0000013351441
288,128,102364,2,0,L|320:160,1,35.0000013351441
320,96,102624,2,0,L|352:128,1,35.0000013351441
384,160,102904,1,0,0:0:0:0:
448,192,103024,1,0,0:0:0:0:
416,256,103144,1,0,0:0:0:0:
288,256,103264,2,2,L|320:128,1,131.25000500679
192,160,104024,6,0,L|224:96,1,46.6666666666667
384,224,104344,2,0,L|448:256,1,46.6666666666667
192,288,104664,2,2,L|64:288,1,93.3333333333333
32,256,105144,1,0,0:0:0:0:
160,192,105304,1,0,0:0:0:0:
96,128,105464,2,0,L|96:64,1,46.6666666666667
224,224,105784,2,0,L|224:288,1,46.6666666666667
224,320,106104,1,0,0:0:0:0:
224,320,106264,1,0,0:0:0:0:
320,96,106424,2,2,L|320:256,1,140
480,224,107224,5,0,0:0:0:0:
384,64,107544,1,0,0:0:0:0:
224,64,107864,1,0,0:0:0:0:
128,128,108184,1,0,0:0:0:0:
96,256,108504,1,0,0:0:0:0:
160,320,108664,2,0,L|256:352,1,93.3333333333333
320,320,109144,1,0,0:0:0:0:
320,224,109304,2,0,P|416:224|512:320,1,233.333333333333
128,128,110264,6,0,L|160:128,10,23.3333333333333
224,352,111224,6,0,P|160:320|128:160,1,233.333333333333
160,128,112184,1,0,0:0:0:0:
192,96,112344,1,0,0:0:0:0:
224,64,112504,1,0,0:0:0:0:
256,64,112664,2,0,L|256:96,1,23.3333333333333
320,160,112824,2,0,L|320:128,1,23.3333333333333
384,224,112984,2,0,L|384:256,1,23.3333333333333
448,256,113144,2,0,L|448:224,1,23.3333333333333
384,160,113304,2,0,L|416:160,1,23.3333333333333
288,224,113464,2,0,L|320:224,1,23.3333333333333
160,288,113624,2,0,L|192:288,4,23.3333333333333
384,320,114104,5,0,0:0:0:0:
288,288,114264,1,0,0:0:0:0:
160,320,114424,1,0,0:0:0:0:
32,224,114584,2,8,L|128:224,1,93.3333333333333
64,160,115064,1,0,0:0:0:0:
128,128,115224,1,0,0:0:0:0:
192,64,115384,2,0,L|224:128,1,46.6666666666667
128,160,115704,1,0,0:0:0:0:
192,256,115864,2,0,L|256:192,1,46.6666666666667
352,256,116184,1,0,0:0:0:0:
352,160,116344,2,0,L|416:192,1,46.6666666666667
448,192,116664,1,0,0:0:0:0:
448,256,116824,1,0,0:0:0:0:
384,288,116984,1,0,0:0:0:0:
224,224,117144,6,0,L|288:256,1,46.6666666666667
160,128,117464,2,0,L|96:160,1,46.6666666666667
64,224,117784,1,0,0:0:0:0:
96,256,117944,2,0,L|32:320,1,46.6666666666667
160,288,118264,1,0,0:0:0:0:
160,288,118424,1,0,0:0:0:0:
288,320,118744,1,8,0:0:0:0:
288,64,118904,6,0,P|352:128|384:288,1,233.333333333333
224,288,119864,1,0,0:0:0:0:
320,224,120024,1,0,0:0:0:0:
416,192,120184,1,0,0:0:0:0:
320,128,120344,2,0,L|256:160,1,46.6666666666667
64,96,120664,2,0,L|96:64,1,23.3333333333333
192,96,120824,2,0,L|224:128,1,23.3333333333333
96,192,120984,2,0,L|64:160,1,23.3333333333333
224,128,121144,2,0,L|256:160,1,23.3333333333333
160,224,121304,2,0,L|128:256,1,23.3333333333333
288,224,121464,2,0,L|320:192,1,23.3333333333333
192,288,121624,2,0,L|160:320,2,23.3333333333333
64,128,121944,5,0,0:0:0:0:
256,64,122104,1,0,0:0:0:0:
224,224,122264,1,0,0:0:0:0:
64,192,122424,2,0,L|192:128,1,140
160,224,123064,1,0,0:0:0:0:
256,224,123224,1,0,0:0:0:0:
320,288,123384,1,0,0:0:0:0:
384,224,123544,2,0,L|448:288,1,46.6666666666667
320,192,123864,1,0,0:0:0:0:
320,192,124024,1,0,0:0:0:0:
416,160,124184,2,0,L|352:160,1,46.6666666666667
288,128,124504,1,0,0:0:0:0:
192,128,124664,2,0,L|192:64,1,46.6666666666667
128,96,124984,1,0,0:0:0:0:
64,192,125144,2,0,L|128:192,1,46.6666666666667
128,256,125464,1,0,0:0:0:0:
160,320,125624,2,0,B|288:384|416:320,1,233.333333333333
320,224,126744,1,4,0:0:0:0:
224,128,126904,6,0,L|128:192,1,105.000004005432
128,192,127464,1,4,0:0:0:0:
96,288,127704,1,0,0:0:0:0:
192,320,128024,1,0,0:0:0:0:
320,256,128344,1,0,0:0:0:0:
352,224,128504,2,0,L|416:224,1,35.0000013351441
448,192,128824,1,0,0:0:0:0:
416,128,128984,2,0,L|352:128,1,35.0000013351441
320,128,129304,1,4,0:0:0:0:
128,288,129624,2,0,P|96:192|96:128,1,140.000005340576
96,160,130424,1,8,0:0:0:0:
352,288,130744,2,0,P|384:256|384:192,1,105.000004005432
384,160,131384,1,4,0:0:0:0:
96,96,131704,2,0,L|160:32,2,70.0000026702882
96,160,132664,5,0,0:0:0:0:
416,160,132984,5,0,0:0:0:0:
160,256,133304,5,0,0:0:0:0:
192,128,133464,1,0,0:0:0:0:
352,128,133624,5,0,0:0:0:0:
384,192,133784,1,0,0:0:0:0:
384,192,133944,1,0,0:0:0:0:
64,64,134104,6,2,P|32:128|96:320,1,280
160,192,135384,1,0,0:0:0:0:
384,192,135704,1,0,0:0:0:0:
160,192,136024,2,0,P|192:128|448:160,1,373.333333333333
416,256,137464,1,0,0:0:0:0:
352,160,137624,2,0,L|352:256,1,93.3333333333333
256,192,138104,1,0,0:0:0:0:
192,128,138264,2,0,L|96:128,1,93.3333333333333
32,192,138744,1,0,0:0:0:0:
96,224,138904,1,0,0:0:0:0:
160,192,139064,1,0,0:0:0:0:
0,256,139224,2,2,L|64:288,1,46.6666666666667
128,224,139544,2,2,L|192:256,1,46.6666666666667
224,192,139864,2,2,L|288:224,2,46.6666666666667
160,160,140344,1,0,0:0:0:0:
160,160,140504,1,0,0:0:0:0:
160,160,140664,1,0,0:0:0:0:
384,96,140824,5,0,0:0:0:0:
192,128,141144,1,0,0:0:0:0:
32,160,141464,2,0,L|32:224,2,46.6666666666667
96,160,141944,1,0,0:0:0:0:
160,192,142104,2,0,P|224:160|320:128,1,140
448,96,142744,1,4,0:0:0:0:
288,96,143064,2,0,L|192:96,2,93.3333333333333
352,160,144024,1,0,0:0:0:0:
96,160,144344,1,0,0:0:0:0:
256,320,144664,2,2,P|320:288|352:224,1,140
256,160,145464,1,0,0:0:0:0:
320,128,145624,1,0,0:0:0:0:
384,160,145784,1,0,0:0:0:0:
320,224,145944,2,0,L|416:256,2,93.3333333333333
224,160,146744,1,0,0:0:0:0:
128,128,146904,2,0,P|96:192|128:256,1,140
256,192,147544,12,0,148264,0:0:0:0:
128,224,148504,6,0,L|128:128,1,93.3333333333333
352,128,148984,1,8,0:0:0:0:
192,192,149304,1,8,0:0:0:0:
416,192,149464,2,0,L|416:96,1,93.3333333333333
288,64,149944,6,2,P|416:96|544:224,1,280
448,128,151064,1,0,0:0:0:0:
352,96,151224,1,0,0:0:0:0:
256,96,151384,2,0,P|160:160|128:256,1,186.666666666667
64,256,152184,2,2,P|96:320|128:352,1,93.3333333333333
160,288,152664,1,0,0:0:0:0:
96,192,152824,2,0,L|96:128,1,46.6666666666667
128,96,153144,1,0,0:0:0:0:
224,96,153304,2,0,L|288:96,2,46.6666666666667
288,256,153784,2,0,L|448:256,1,140
480,224,154424,1,0,0:0:0:0:
160,224,154584,2,0,L|320:224,1,140
384,192,155224,2,0,P|320:160|224:160,1,140
192,192,155864,1,0,0:0:0:0:
192,192,156024,1,0,0:0:0:0:
224,96,156184,6,0,P|160:128|128:192,1,140,8|8,0:0|0:0,0:0:0:0:
64,224,156824,2,0,L|64:288,1,46.6666666666667
128,288,157144,1,0,0:0:0:0:
416,256,157464,1,0,0:0:0:0:
96,224,157784,1,0,0:0:0:0:
416,160,158104,2,2,P|384:96|320:64,1,140
128,64,158744,1,0,0:0:0:0:
448,128,159064,1,0,0:0:0:0:
96,160,159384,1,0,0:0:0:0:
96,160,159544,1,0,0:0:0:0:
352,320,159704,2,0,P|352:256|320:192,1,93.3333333333333
256,160,160184,1,4,0:0:0:0:
32,192,160504,5,0,0:0:0:0:
64,128,160664,1,0,0:0:0:0:
128,96,160824,2,0,L|128:160,2,46.6666666666667
192,192,161304,1,0,0:0:0:0:
128,256,161464,1,0,0:0:0:0:
32,192,161624,2,0,L|96:192,1,46.6666666666667
224,160,161944,2,0,L|160:160,1,46.6666666666667
224,96,162264,1,0,0:0:0:0:
320,128,162424,1,0,0:0:0:0:
288,224,162584,1,0,0:0:0:0:
256,192,162744,12,0,163944,0:0:0:0:
288,288,164184,5,0,0:0:0:0:
352,288,164344,1,0,0:0:0:0:
384,224,164504,1,0,0:0:0:0:
384,160,164664,1,0,0:0:0:0:
352,96,164824,2,0,L|320:128,2,35,0|4|0,0:0|0:0|0:0,0:0:0:0:
256,160,165184,1,0,0:0:0:0:
256,128,165304,1,0,0:0:0:0:
160,64,165424,6,0,L|160:160,2,78.7500030040742
64,96,166264,1,0,0:0:0:0:
64,96,166384,1,0,0:0:0:0:
64,96,166504,1,0,0:0:0:0:
224,192,166624,1,0,0:0:0:0:
224,192,166744,1,0,0:0:0:0:
224,192,166864,1,0,0:0:0:0:
32,224,166984,2,0,P|64:288|96:288,1,105.000004005432
192,224,167584,1,0,0:0:0:0:
320,224,167704,1,0,0:0:0:0:
192,160,167824,1,0,0:0:0:0:
288,96,167944,1,0,0:0:0:0:
384,160,168064,2,0,B|416:128|416:128|448:160,1,78.7500030040742
416,320,168664,1,4,0:0:0:0:
192,288,168904,5,0,0:0:0:0:
192,288,169024,1,0,0:0:0:0:
192,288,169144,1,0,0:0:0:0:
96,192,169264,2,0,L|96:160,1,26.2500010013581
192,96,169504,1,0,0:0:0:0:
192,96,169624,1,0,0:0:0:0:
192,96,169744,1,0,0:0:0:0:
320,192,169864,2,0,L|352:192,1,26.2500010013581
480,96,170104,1,0,0:0:0:0:
480,96,170224,1,0,0:0:0:0:
480,96,170344,1,0,0:0:0:0:
320,128,170464,2,0,L|288:128,2,26.2500010013581
384,288,170824,2,0,L|416:288,2,26.2500010013581
96,288,171184,5,4,0:0:0:0:
92,224,171304,1,0,0:0:0:0:
89,160,171424,1,0,0:0:0:0:
117,94,171544,2,0,B|179:58|179:58|212:88,1,93.3333333333333
256,160,172024,1,0,0:0:0:0:
384,96,172344,1,0,0:0:0:0:
288,256,172504,1,0,0:0:0:0:
480,288,172824,1,0,0:0:0:0:
160,256,172984,2,0,L|160:192,1,46.6666666666667
64,64,173304,1,8,0:0:0:0:
320,128,173464,2,0,L|384:160,1,46.6666666666667
352,288,173784,5,0,0:0:0:0:
64,320,173944,1,0,0:0:0:0:
160,192,174104,2,0,L|224:192,1,46.6666666666667
384,288,174424,2,0,L|448:288,1,46.6666666666667
160,96,174744,2,0,L|224:96,1,46.6666666666667
448,160,175064,1,0,0:0:0:0:
320,288,175224,1,0,0:0:0:0:
224,160,175384,1,0,0:0:0:0:
0,224,175544,2,0,L|0:288,1,46.6666666666667
160,256,175864,1,0,0:0:0:0:
96,64,176024,1,0,0:0:0:0:
256,256,176184,1,0,0:0:0:0:
352,96,176344,6,0,L|352:128,5,23.3333333333333
96,320,176864,6,0,L|64:320,5,23.3333333333333
448,224,177384,6,0,L|449:208,6,8.75
224,288,177624,6,0,L|225:272,9,8.75
128,96,177944,6,0,L|138:84,8,8.75
320,224,178264,6,0,L|330:212,10,8.75
384,96,178664,1,0,0:0:0:0:
96,128,178784,2,0,L|128:128,1,26.2500010013581
256,192,179064,12,0,179704,0:0:0:0:
320,224,179944,5,0,0:0:0:0:
115,144,180184,2,0,P|133:229|364:318,1,315.000012016297
384,160,182104,1,8,0:0:0:0:
320,96,183544,2,0,L|384:64,2,52.5000020027161
256,128,184264,2,0,L|160:128,1,52.5000020027161
160,192,184744,1,0,0:0:0:0:
64,192,184984,1,0,0:0:0:0:
128,256,185224,1,0,0:0:0:0:
192,288,185464,2,0,P|256:320|352:320,1,157.500006008148
256,192,187384,5,0,0:0:0:0:
128,64,187624,1,0,0:0:0:0:
352,64,187864,1,0,0:0:0:0:
256,192,188104,1,0,0:0:0:0:
448,224,188344,2,8,L|512:288,1,52.5000020027161
96,320,188824,1,0,0:0:0:0:
256,224,189064,1,0,0:0:0:0:
384,320,189304,1,0,0:0:0:0:
160,256,189544,2,8,L|96:288,1,52.5000020027161
384,224,190024,2,8,L|448:224,1,52.5000020027161
160,160,190504,2,8,L|96:128,1,52.5000020027161
160,128,191224,5,0,0:0:0:0:
256,96,191464,1,0,0:0:0:0:
352,160,191704,1,0,0:0:0:0:
320,256,191944,1,0,0:0:0:0:
304,284,192184,1,0,0:0:0:0:
281,307,192424,1,0,0:0:0:0:
251,321,192544,1,0,0:0:0:0:
219,325,192664,1,0,0:0:0:0:
192,320,192784,1,0,0:0:0:0:
288,320,192904,1,0,0:0:0:0:
308,310,193024,1,0,0:0:0:0:
327,297,193144,1,0,0:0:0:0:
344,282,193264,1,0,0:0:0:0:
358,264,193384,1,0,0:0:0:0:
224,256,193504,1,0,0:0:0:0:
209,239,193624,1,0,0:0:0:0:
196,220,193744,1,0,0:0:0:0:
186,199,193864,1,8,0:0:0:0:
180,178,193984,1,8,0:0:0:0:
177,156,194104,1,8,0:0:0:0:
448,160,194344,6,8,L|384:160,1,35
96,160,194584,2,8,L|160:160,1,35
384,224,194824,2,8,L|384:160,1,35
128,192,195064,2,8,L|128:256,2,35
224,64,195544,6,2,P|160:128|128:224,1,186.666666666667
288,128,196344,1,0,0:0:0:0:
352,192,196504,1,0,0:0:0:0:
320,288,196664,1,0,0:0:0:0:
448,192,196824,2,2,P|416:128|352:64,2,140
384,160,197944,1,0,0:0:0:0:
288,160,198104,2,0,P|288:224|160:320,1,233.333333333333
320,288,199064,1,0,0:0:0:0:
128,192,199224,6,0,P|192:224|256:224,1,93.3333333333333
128,128,199704,2,0,P|160:192|192:224,1,93.3333333333333
352,320,200184,1,0,0:0:0:0:
448,160,200344,2,0,P|404:148|348:180,1,93.3333333333333
288,256,200824,1,0,0:0:0:0:
160,128,200984,1,4,0:0:0:0:
32,192,201144,2,0,P|32:256|128:320,1,186.666666666667
160,128,201864,1,0,0:0:0:0:
256,224,201944,2,0,L|288:192,3,23.3333333333333
416,160,202344,1,0,0:0:0:0:
320,64,202504,2,0,L|352:32,2,23.3333333333333
320,224,202824,6,0,L|352:320,1,93.3333333333333
128,256,203304,2,0,L|192:256,1,46.6666666666667
384,224,203624,1,0,0:0:0:0:
160,192,203784,2,2,P|128:128|160:96,1,93.3333333333333
352,128,204264,1,0,0:0:0:0:
288,320,204504,1,0,0:0:0:0:
128,160,204664,2,0,L|32:160,2,93.3333333333333
160,288,205464,1,0,0:0:0:0:
448,288,205624,2,2,P|480:224|448:160,1,140
192,128,206264,1,0,0:0:0:0:
224,96,206584,1,0,0:0:0:0:
256,64,206904,1,0,0:0:0:0:
192,128,207064,2,0,B|160:160|160:160|192:192,1,70
352,128,207424,2,0,B|384:160|384:160|352:192,1,70
320,256,207784,2,0,L|288:224,1,35
192,224,208024,2,0,L|160:192,1,23.3333333333333
256,128,208264,2,0,L|224:96,2,35
320,64,208624,2,0,P|352:96|384:160,1,105
256,192,209104,12,0,210904,0:0:0:0:
261,153,211144,5,4,0:0:0:0:
256,288,211384,5,0,0:0:0:0:
212,288,211504,1,0,0:0:0:0:
168,288,211624,1,0,0:0:0:0:
125,288,211744,1,0,0:0:0:0:
81,288,211864,1,0,0:0:0:0:
37,288,211984,1,0,0:0:0:0:
64,256,212104,1,0,0:0:0:0:
95,225,212224,1,0,0:0:0:0:
126,194,212344,1,0,0:0:0:0:
157,163,212464,1,0,0:0:0:0:
187,132,212584,1,0,0:0:0:0:
218,101,212704,1,0,0:0:0:0:
249,70,212824,1,0,0:0:0:0:
280,40,212944,1,0,0:0:0:0:
309,57,213064,1,0,0:0:0:0:
337,91,213184,1,0,0:0:0:0:
365,124,213304,1,0,0:0:0:0:
392,158,213424,1,0,0:0:0:0:
420,192,213544,1,0,0:0:0:0:
448,225,213664,1,0,0:0:0:0:
