osu file format v14

[General]
AudioFilename: audio.mp3
AudioLeadIn: 0
PreviewTime: 55206
Countdown: 0
SampleSet: Normal
StackLeniency: 0.7
Mode: 0
LetterboxInBreaks: 0
WidescreenStoryboard: 0

[Editor]
DistanceSpacing: 1
BeatDivisor: 4
GridSize: 4
TimelineZoom: 1.8

[Metadata]
Title:The Light In Us All
TitleUnicode:The Light In Us All
Artist:Jim Guthrie & JJ Ipsen
ArtistUnicode:Jim Guthrie & JJ Ipsen
Creator:Woey
Version:Zero Gs
Source:
Tags:planet coaster
BeatmapID:1160154
BeatmapSetID:547788

[Difficulty]
HPDrainRate:6
CircleSize:4
OverallDifficulty:7.5
ApproachRate:8.5
SliderMultiplier:1.6
SliderTickRate:1

[Events]
//Background and Video events
0,0,"bg.jpg",0,0
//Break Periods
2,127506,141231
//Storyboard Layer 0 (Background)
//Storyboard Layer 1 (Fail)
//Storyboard Layer 2 (Pass)
//Storyboard Layer 3 (Foreground)
//Storyboard Sound Samples

[TimingPoints]
306,600,7,1,0,5,1,0
8706,-66.6666666666667,7,1,0,60,0,0
20706,-80,7,1,0,60,0,0
21306,-100,7,1,0,60,0,0
21906,600,7,1,0,30,1,0
38706,-66.6666666666667,7,1,0,45,0,0
55506,600,4,1,0,65,1,1
55506,-57.1428571428571,4,1,0,65,0,1
74706,600,7,1,0,60,1,0
74706,-66.6666666666667,7,1,0,60,0,0
90306,-80,7,1,0,45,0,0
90906,-100,7,1,0,30,0,0
99906,-66.6666666666667,7,1,0,45,0,0
108306,600,4,1,0,50,1,0
108306,-66.6666666666667,4,1,0,50,0,0
117906,-57.1428571428571,4,1,0,65,0,1
126306,-57.1428571428571,4,1,0,30,0,0
127506,600,3,1,0,15,1,0
155706,-50,3,1,0,40,0,0
156306,-50,3,1,0,70,0,1
181506,-100,3,1,0,100,0,0

[Colours]
Combo1 : 128,128,128
Combo2 : 0,0,255
Combo3 : 128,0,0
Combo4 : 128,255,255
Combo5 : 255,128,255

[HitObjects]
104,144,306,5,0,0:0:0:0:
123,244,606,2,0,P|195:189|199:110,1,160
366,93,1506,2,0,P|317:114|280:151,1,80
334,305,2106,2,0,P|431:161|397:341,1,480
153,339,4506,5,0,0:0:0:0:
70,275,4806,2,0,B|69:193|69:193|106:174|160:192,1,160
257,168,5706,2,0,P|237:132|198:107,1,80
52,116,6306,2,0,B|98:36|183:0|275:44|311:114|311:114|364:137|402:130|452:86|446:34,1,480
357,37,8706,5,0,0:0:0:0:
424,135,9006,1,0,0:0:0:0:
443,172,9156,2,0,P|384:200|335:254,1,120
278,291,9606,1,0,0:0:0:0:
236,289,9756,1,0,0:0:0:0:
202,263,9906,1,0,0:0:0:0:
144,98,10206,1,0,0:0:0:0:
186,92,10356,1,0,0:0:0:0:
223,111,10506,5,0,0:0:0:0:
65,161,10806,2,0,P|50:60|108:2,1,180.000006866455
144,98,11406,1,0,0:0:0:0:
159,136,11556,1,0,0:0:0:0:
158,177,11706,1,0,0:0:0:0:
241,276,12006,2,0,L|266:216,2,60.0000022888184
394,120,12606,2,0,L|370:175,1,60.0000022888184
444,106,12906,5,0,0:0:0:0:
417,259,13206,1,0,0:0:0:0:
389,290,13356,2,0,L|263:246,1,120.000004577637
257,177,13806,1,0,0:0:0:0:
221,198,13956,1,0,0:0:0:0:
203,236,14106,1,0,0:0:0:0:
93,337,14406,1,0,0:0:0:0:
77,298,14556,1,0,0:0:0:0:
61,260,14706,5,0,0:0:0:0:
92,97,15006,2,0,B|208:63|208:63|274:84,1,180.000006866455
350,112,15606,1,0,0:0:0:0:
331,149,15756,1,0,0:0:0:0:
298,175,15906,1,0,0:0:0:0:
155,232,16206,1,0,0:0:0:0:
189,254,16356,1,0,0:0:0:0:
231,260,16506,1,0,0:0:0:0:
386,316,16806,2,0,P|369:286|332:269,1,60.0000022888184
290,343,17106,6,0,B|170:329|170:329|143:365|109:373|84:365|60:361|35:346|25:309|22:281|27:258|35:234|72:222,1,360.000013732911
196,132,18306,2,0,B|159:226|159:226|97:294,1,180.000006866455
100,93,19206,1,0,0:0:0:0:
254,222,19506,2,0,B|299:111|299:111|352:220|352:220|397:109,1,360.000013732911
426,236,20706,2,0,P|394:288|330:297,1,100
204,151,21306,2,0,L|246:48,1,80
501,64,21906,5,0,0:0:0:0:
487,101,22056,2,0,L|455:199,1,80
410,342,22806,1,0,0:0:0:0:
381,184,23106,2,0,L|435:26,1,160
297,89,24306,1,0,0:0:0:0:
253,109,24906,1,0,0:0:0:0:
210,131,25506,1,0,0:0:0:0:
69,339,26106,5,0,0:0:0:0:
54,303,26256,2,0,P|74:268|45:224,1,80
62,53,27006,1,0,0:0:0:0:
127,195,27306,2,0,P|148:242|115:351,1,160
295,323,28506,1,0,0:0:0:0:
342,315,29106,1,0,0:0:0:0:
390,306,29706,1,0,0:0:0:0:
217,173,30306,5,0,0:0:0:0:
214,132,30456,2,0,P|171:129|196:161,1,80
261,238,31206,1,0,0:0:0:0:
218,48,31506,2,0,P|138:60|100:130,1,160
299,91,32706,1,0,0:0:0:0:
351,82,33306,1,0,0:0:0:0:
403,73,33906,1,0,0:0:0:0:
300,208,34206,5,0,0:0:0:0:
204,345,34506,2,0,B|184:338|159:321|147:298|144:273|139:243|148:226|156:212|156:212|176:193|188:167|175:145|164:119,1,240
82,312,35706,2,0,B|64:246|79:188|106:161|106:161|69:135|47:104|55:62|60:38|77:31|77:31|81:25|81:25|87:31|87:31|131:25|168:34|176:60|207:69|258:75,1,480
452,337,38106,5,0,0:0:0:0:
406,66,38706,5,0,0:0:0:0:
372,90,38856,2,0,L|308:72,1,60.0000022888184
289,0,39156,2,0,P|237:56|253:118,1,120.000004577637
223,172,39606,2,0,P|255:173|307:146,1,60.0000022888184
346,211,39906,2,0,P|277:250|168:232,1,180.000006866455
80,188,40506,2,0,P|52:124|191:67,1,240.000009155274
338,329,41706,2,0,P|444:304|432:196,1,240.000009155274
63,46,42906,5,0,0:0:0:0:
83,99,43056,2,0,L|181:72,1,60.0000022888184
199,130,43356,2,0,L|80:97,1,120.000004577637
141,145,43806,2,0,L|239:118,1,60.0000022888184
307,199,44106,2,0,B|220:192|220:192|140:144,1,180.000006866455
280,116,44706,2,0,B|311:128|340:115|340:115|366:70|413:61|413:61|429:113|387:176,1,240.000009155274
280,268,45906,2,0,B|311:255|340:268|340:268|366:313|413:322|413:322|429:270|387:207,1,240.000009155274
137,340,47106,5,0,0:0:0:0:
162,306,47256,2,0,L|219:278,1,60.0000022888184
261,345,47556,2,0,B|325:373|325:373|401:365,1,120.000004577637
405,287,48006,2,0,L|334:294,1,60.0000022888184
215,279,48306,2,0,P|172:225|269:176,1,180.000006866455
94,190,48906,2,0,P|134:121|295:99,1,240.000009155274
120,37,50106,2,0,P|225:9|352:47,1,240.000009155274
230,120,51006,5,0,0:0:0:0:
427,32,51306,2,0,B|458:76|465:98|448:140|449:149|449:149|488:258|488:258|430:288|403:255|395:219,1,360.000013732911
350,298,52506,2,0,B|325:259|295:216|321:171|350:144|386:153|391:98|371:86|371:86|344:68|344:68|300:103|266:128|245:161|224:212|254:228|261:253|236:295|326:363|243:282|188:381|175:419|147:367|107:356|50:330|13:293|60:147|172:127|223:192|258:246,1,960.000036621095
171,270,55206,1,0,0:0:0:0:
205,31,55506,6,0,B|91:39|153:113|16:113,1,210.000002002716,0|0,0:0|0:0,0:3:0:0:
17,30,56106,2,0,B|130:38|68:112|205:112,1,210.000002002716,0|0,0:0|0:0,0:3:0:0:
338,229,56706,2,0,P|178:315|48:209,1,350.00000333786
162,181,57606,2,0,P|199:188|247:175,1,70.000000667572
414,130,57906,6,0,L|340:105,1,70.000000667572
98,130,58206,2,0,L|172:105,1,70.000000667572
431,163,58506,2,0,L|357:138,1,70.000000667572
81,163,58806,2,0,L|155:138,1,70.000000667572
317,212,59106,2,0,B|330:251|330:251|329:307,1,70.000000667572
242,226,59406,2,0,B|255:265|255:265|254:321,1,70.000000667572
165,241,59706,2,0,B|178:280|178:280|177:336,1,70.000000667572
317,212,60006,1,0,0:0:0:0:
135,172,60156,1,0,0:0:0:0:
292,135,60306,6,0,P|369:149|392:238,1,140.000001335144
230,280,60906,2,0,L|167:239,2,70.000000667572
128,111,61506,2,0,L|186:149,1,70.000000667572
281,203,61806,1,0,0:0:0:0:
49,153,62106,2,0,P|45:78|170:32,1,210.000002002716
128,111,62706,6,0,P|203:106|247:41,1,140.000001335144
123,201,63306,1,0,0:0:0:0:
192,202,63456,1,0,0:0:0:0:
258,181,63606,2,0,P|289:154|310:125,1,70.000000667572
245,254,63906,1,0,0:0:0:0:
69,340,64206,1,0,0:0:0:0:
50,131,64506,1,0,0:0:0:0:
98,80,64656,1,0,0:0:0:0:
167,82,64806,2,0,L|241:43,1,70.000000667572
348,0,65106,6,0,P|371:92|371:221,1,210.000002002716
328,353,65706,2,0,P|305:261|305:132,1,210.000002002716
403,82,66306,2,0,B|426:174|384:288|384:288|361:201|386:103,1,350.00000333786
473,246,67206,2,0,P|463:286|449:324,1,70.000000667572
277,76,67506,6,0,P|299:108|308:151,1,70.000000667572
276,308,67806,2,0,P|297:279|307:246,1,70.000000667572
236,65,68106,2,0,P|258:97|267:140,1,70.000000667572
236,319,68406,2,0,P|258:286|267:243,1,70.000000667572
183,133,68706,2,0,B|157:110|157:110|111:102,1,70.000000667572
147,200,69006,2,0,B|121:177|121:177|75:169,1,70.000000667572
114,267,69306,2,0,B|88:244|88:244|42:236,1,70.000000667572
183,133,69606,1,0,0:0:0:0:
180,311,69756,1,0,0:0:0:0:
256,163,69906,6,0,P|247:88|165:56,1,140.000001335144
403,127,70506,2,0,L|474:153,2,70.000000667572
343,250,71106,2,0,L|330:175,1,70.000000667572
429,279,71406,1,0,0:0:0:0:
275,296,71706,2,0,L|250:156,1,140.000001335144
314,103,72156,1,0,0:0:0:0:
277,28,72306,6,0,P|202:18|134:59,1,140.000001335144
464,28,72906,2,0,L|493:106,2,70.000000667572
303,123,73506,6,0,P|326:97|337:54,1,70.000000667572
295,200,73806,2,0,P|329:194|365:168,1,70.000000667572
238,254,74106,2,0,P|267:272|311:275,1,70.000000667572
160,259,74406,2,0,P|171:291|202:322,1,70.000000667572
152,182,74706,6,0,P|216:155|213:65,1,120.000004577637
91,108,75156,2,0,B|68:165|68:165|60:239,1,120.000004577637
162,76,75606,2,0,L|137:11,1,60.0000022888184
235,124,75906,1,0,0:0:0:0:
412,74,76206,2,0,L|437:9,1,60.0000022888184
467,158,76506,6,0,P|516:206|508:262,1,120.000004577637
437,230,76956,2,0,P|388:182|396:126,1,120.000004577637
287,196,77406,2,0,L|315:130,1,60.0000022888184
247,46,77706,1,0,0:0:0:0:
138,156,78006,2,0,L|181:213,1,60.0000022888184
287,196,78306,1,0,0:0:0:0:
151,70,78606,2,0,L|79:78,1,60.0000022888184
62,184,78906,6,0,P|126:212|193:192,1,120.000004577637
231,266,79356,2,0,B|192:290|192:290|178:324|178:324|123:367,1,120.000004577637
76,297,79806,2,0,L|155:317,1,60.0000022888184
263,335,80106,1,0,0:0:0:0:
472,291,80406,2,0,L|413:276,1,60.0000022888184
335,223,80706,6,0,P|393:182|449:188,1,120.000004577637
270,267,81156,2,0,P|263:196|296:150,1,120.000004577637
437,124,81606,2,0,L|439:206,1,60.0000022888184
335,223,81906,1,0,0:0:0:0:
221,70,82206,2,0,L|287:48,1,60.0000022888184
196,173,82506,1,0,0:0:0:0:
407,247,82806,2,0,P|390:277|359:296,1,60.0000022888184
283,277,83106,6,0,B|303:197|303:197|340:224,1,120.000004577637
237,161,83556,2,0,P|279:122|362:148,1,120.000004577637
186,223,84006,2,0,L|156:158,1,60.0000022888184
47,89,84306,1,0,0:0:0:0:
27,223,84606,2,0,L|52:277,1,60.0000022888184
167,302,84906,6,0,P|243:287|267:216,1,120.000004577637
315,111,85356,2,0,P|373:107|416:146,1,120.000004577637
281,182,85806,2,0,P|246:149|240:132,1,60.0000022888184
255,30,86106,1,0,0:0:0:0:
366,173,86406,2,0,P|354:219|343:233,1,60.0000022888184
247,271,86706,1,0,0:0:0:0:
151,135,87006,2,0,L|190:84,1,60.0000022888184
64,105,87306,6,0,P|73:180|128:218,1,120.000004577637
240,286,87756,2,0,P|239:227|200:182,1,120.000004577637
157,334,88206,2,0,L|219:364,1,60.0000022888184
386,321,88506,1,0,0:0:0:0:
240,286,88806,2,0,L|302:256,1,60.0000022888184
468,177,89106,6,0,B|406:140|406:140|419:109|444:124,1,120.000004577637
345,177,89556,2,0,B|332:161|329:148|329:148|334:107|351:74|388:57,1,120.000004577637
266,73,90006,2,0,B|229:89|229:89|203:92,1,60.0000022888184
75,54,90306,1,0,0:0:0:0:
247,162,90606,2,0,B|226:173|226:173|199:176,1,50
103,147,90906,1,0,0:0:0:0:
237,245,91206,2,0,B|221:254|221:254|198:256,1,40
128,233,91506,5,0,0:0:0:0:
130,272,91656,2,0,B|151:316|151:316|211:324,1,80
402,299,92406,1,0,0:0:0:0:
128,233,92706,2,0,B|111:194|107:157|107:157|67:160|21:145,1,160
224,49,93906,1,0,0:0:0:0:
286,61,94506,1,0,0:0:0:0:
348,74,95106,1,0,0:0:0:0:
384,233,95706,5,0,0:0:0:0:
382,272,95856,2,0,P|356:317|301:324,1,80
110,299,96606,1,0,0:0:0:0:
384,233,96906,2,0,P|394:172|490:145,1,160
266,179,98106,1,0,0:0:0:0:
204,191,98706,1,0,0:0:0:0:
142,204,99306,1,0,0:0:0:0:
224,62,99906,5,0,0:0:0:0:
274,47,100056,2,0,L|337:24,1,60.0000022888184
428,36,100356,2,0,B|405:72|405:72|406:108|406:108|381:161,1,120.000004577637
292,155,100806,2,0,L|329:102,1,60.0000022888184
332,237,101106,2,0,P|256:237|202:142,1,180.000006866455
227,313,101706,2,0,B|335:259|335:259|450:324,1,240.000009155274
285,71,102906,2,0,B|177:125|177:125|62:60,1,240.000009155274
304,146,103806,5,0,0:0:0:0:
256,192,104106,12,0,105006,0:0:0:0:
256,192,105306,12,0,107706,0:0:0:0:
256,192,108006,5,0,0:0:0:0:
256,40,108306,5,0,0:0:0:0:
368,40,108906,1,0,0:0:0:0:
484,236,109506,1,0,0:0:0:0:
372,236,110406,1,0,0:0:0:0:
184,40,110706,5,0,0:0:0:0:
296,40,111006,1,0,0:0:0:0:
248,140,111306,1,0,0:0:0:0:
360,140,111606,1,0,0:0:0:0:
481,337,111906,5,0,0:0:0:0:
369,337,112206,1,0,0:0:0:0:
417,237,112506,1,0,0:0:0:0:
305,237,112806,5,0,0:0:0:0:
360,140,112956,1,0,0:0:0:0:
297,314,113106,6,0,P|247:288|231:216,1,120.000004577637
201,75,113706,2,0,L|238:22,2,60.0000022888184
123,205,114306,2,0,P|90:213|42:206,1,60.0000022888184
109,109,114606,1,0,0:0:0:0:
249,166,114906,2,0,B|358:196|334:145|458:177,1,180.000006866455
399,31,115506,6,0,P|352:44|308:127,1,120.000004577637
489,156,116106,2,0,L|512:100,1,60.0000022888184
400,188,116406,2,0,L|376:243,1,60.0000022888184
475,274,116706,2,0,P|449:223|378:181,1,120.000004577637
285,335,117306,1,0,0:0:0:0:
269,295,117456,1,0,0:0:0:0:
253,255,117606,2,0,L|186:240,1,60.0000022888184
84,291,117906,6,0,P|79:215|207:152,1,210.000002002716
82,74,118506,2,0,P|77:150|205:213,1,210.000002002716
269,144,119106,2,0,B|267:276|267:276|267:285|282:297|302:305|321:299|337:287|337:274|337:274|338:140,1,350.00000333786
195,91,120006,2,0,L|194:163,1,70.000000667572
449,192,120306,6,0,B|443:157|443:157|416:114,1,70.000000667572
316,63,120606,2,0,B|282:50|282:50|231:52,1,70.000000667572
127,129,120906,2,0,B|160:116|160:116|211:118,1,70.000000667572
305,179,121206,2,0,B|332:201|332:201|356:246,1,70.000000667572
225,313,121506,2,0,L|266:254,1,70.000000667572
126,326,121806,2,0,L|167:267,1,70.000000667572
23,339,122106,2,0,L|64:280,1,70.000000667572
225,313,122406,1,0,0:0:0:0:
108,215,122556,1,0,0:0:0:0:
311,188,122706,6,0,B|379:174|379:174|431:118,1,140.000001335144
184,136,123306,2,0,L|269:117,2,70.000000667572
447,248,123906,2,0,P|472:218|468:176,1,70.000000667572
270,251,124206,1,0,0:0:0:0:
470,341,124506,2,0,P|401:317|359:242,1,140.000001335144
360,179,124956,1,0,0:0:0:0:
292,129,125106,5,0,0:0:0:0:
278,132,125406,1,0,0:0:0:0:
264,136,125706,1,0,0:0:0:0:
250,140,126006,1,0,0:0:0:0:
237,145,126306,1,0,0:0:0:0:
190,210,141906,6,0,P|195:133|276:220,1,240
260,45,143106,2,0,P|317:69|338:95,1,80
154,282,143706,2,0,B|116:255|90:192|82:137|112:121|142:90|150:64|135:33|103:11|72:11|52:17|30:42|6:97|85:114,1,400
194,209,145506,6,0,P|231:252|99:334,1,240
286,360,146706,2,0,P|308:306|305:252,1,80
389,321,147306,2,0,B|411:250|367:201|319:204|319:204|288:139|323:81|404:90|426:154|398:212,1,400
421,53,149106,6,0,P|441:10|436:86,1,240
331,50,150306,2,0,P|281:41|244:55,1,80
103,95,150906,2,0,B|80:128|73:152|73:173|94:189|135:210|154:231|154:272|140:305|105:311|50:300|33:233|60:203|100:184|125:169|163:170|213:201,1,400
204,273,152706,6,0,P|175:320|5:279,1,240
134,246,153906,2,0,P|169:206|210:197,1,80
240,341,154506,2,0,B|266:308|300:288|349:287|388:304|422:327|422:327|409:299|404:260|415:227|423:217,1,300
437,206,155706,6,0,L|484:198,7,40
474,120,156306,6,0,B|396:137|396:137|310:110,1,160
333,37,156756,2,0,P|255:75|253:149,1,160
215,213,157206,2,0,L|253:132,1,80
94,189,157506,1,0,0:0:0:0:
248,285,157806,2,0,L|210:204,1,80
339,220,158106,6,0,B|345:283|384:322|384:322|415:271,1,160
438,178,158556,2,0,B|443:115|482:76|482:76|514:127,1,160
379,98,159006,2,0,P|411:42|436:15,1,80
296,140,159306,1,0,0:0:0:0:
126,94,159606,2,0,P|108:58|84:26,1,80
77,214,159906,6,0,B|144:166|144:166|230:155,1,160
326,189,160356,2,0,B|259:237|259:237|173:248,1,160
201,79,160806,2,0,L|288:68,1,80
397,129,161106,1,0,0:0:0:0:
220,320,161406,2,0,L|140:330,1,80
344,360,161706,6,0,P|317:281|248:216,1,160
99,151,162156,2,0,B|103:149|75:139|57:149|57:149|62:172|81:203|81:203|76:234|53:252,1,160
178,146,162606,2,0,P|165:108|128:78,1,80
216,16,162906,1,0,0:0:0:0:
332,147,163206,2,0,P|347:108|384:78,1,80
364,248,163506,6,0,L|204:192,1,160
313,347,163956,2,0,L|473:291,1,160
436,140,164406,2,0,P|391:99|346:112,1,80
192,157,164706,2,0,P|178:216|212:248,1,80
328,359,165006,2,0,P|386:340|397:295,1,80
318,193,165306,6,0,L|235:40,1,160
103,36,165756,2,0,P|63:114|76:195,1,160
215,148,166206,2,0,L|126:120,1,80
179,216,166506,2,0,L|255:240,1,80
236,35,166806,2,0,L|158:53,1,80
316,71,167106,6,0,B|396:47|396:47|462:90,1,160
403,221,167556,2,0,B|354:190|354:190|302:209|295:274,1,160
460,291,168006,1,0,0:0:0:0:
477,221,168156,1,0,0:0:0:0:
461,150,168306,1,0,0:0:0:0:
410,99,168456,1,0,0:0:0:0:
340,80,168606,1,0,0:0:0:0:
270,98,168756,1,0,0:0:0:0:
318,173,168906,6,0,P|233:180|184:80,1,160
55,309,169506,2,0,P|142:316|197:215,1,160
457,309,170106,2,0,P|370:316|315:215,1,160
448,75,170706,6,0,L|405:237,1,160
256,20,171306,2,0,L|256:200,1,160
64,75,171906,2,0,L|107:237,1,160
309,245,172506,6,0,P|355:173|304:94,1,160
220,250,173106,2,0,P|261:321|349:326,1,160
266,173,173706,2,0,P|185:168|131:252,1,160
63,46,174306,6,0,L|219:78,1,160
469,132,174906,2,0,L|312:164,1,160
71,204,175506,2,0,L|227:236,1,160
29,336,176106,6,0,L|115:353,1,80
193,367,176406,2,0,P|248:328|276:323,1,80
347,321,176706,2,0,L|311:236,1,80
287,162,177006,2,0,B|269:112|269:112|284:77,1,80
310,4,177306,2,0,L|211:34,1,80
161,78,177606,2,0,P|152:123|187:165,1,80
114,242,177906,6,0,L|79:165,1,80
42,266,178206,2,0,P|82:312|121:318,1,80
200,296,178506,2,0,B|228:291|228:291|259:297|259:297|286:287,1,80
363,349,178806,2,0,L|452:322,1,80
370,247,179106,2,0,P|351:210|364:160,1,80
390,74,179406,2,0,L|305:113,1,80
217,140,179706,5,0,0:0:0:0:
155,94,179856,1,0,0:0:0:0:
80,113,180006,1,0,0:0:0:0:
48,184,180156,1,0,0:0:0:0:
82,253,180306,1,0,0:0:0:0:
158,269,180456,1,0,0:0:0:0:
143,180,180606,5,0,0:0:0:0:
222,178,180756,1,0,0:0:0:0:
293,211,180906,1,0,0:0:0:0:
356,258,181056,1,0,0:0:0:0:
436,257,181206,1,0,0:0:0:0:
483,195,181356,1,0,0:0:0:0:
478,116,181506,1,0,0:0:0:0:
256,192,181656,12,0,186306,0:0:0:0:
