osu file format v14

[General]
AudioFilename: Yes, My Master My Lord.mp3
AudioLeadIn: 0
PreviewTime: 71496
Countdown: 0
SampleSet: Soft
StackLeniency: 0.4
Mode: 0
LetterboxInBreaks: 0
WidescreenStoryboard: 0

[Editor]
Bookmarks: 4378,12513,20649,22683,38954,55225,71496,73530,89801,108106,116242,132513,148784,165055,167089,183361,201666,217937,234208,236242,252513,264716,270818,278954
DistanceSpacing: 1
BeatDivisor: 4
GridSize: 16
TimelineZoom: 1.2

[Metadata]
Title:Yes,my master my lord
TitleUnicode:Yes,my master my lord
Artist:Jibril (CV: Tamura Yukari)
ArtistUnicode:ジブリール (CV: 田村 ゆかり)
Creator:Vignette-
Version:Insane
Source:ノーゲーム・ノーライフ
Tags:コンプリートソングス no game life complete songs ost flugel character song vigne -luminate kukkai [_-kukkai-_] anime japanese
BeatmapID:1629609
BeatmapSetID:750690

[Difficulty]
HPDrainRate:5.4
CircleSize:4.4
OverallDifficulty:8
ApproachRate:9
SliderMultiplier:2.2
SliderTickRate:1

[Events]
//Background and Video events
0,0,"Jibril.jpg",0,0
//Break Periods
2,12714,20049
2,108307,113609
2,234408,235643
//Storyboard Layer 0 (Background)
//Storyboard Layer 1 (Fail)
//Storyboard Layer 2 (Pass)
//Storyboard Layer 3 (Foreground)
//Storyboard Layer 4 (Overlay)
//Storyboard Sound Samples

[TimingPoints]
310,508.474576271186,4,2,1,5,1,0
818,-100,4,2,1,10,0,0
1326,-100,4,2,1,25,0,0
1835,-100,4,2,1,40,0,0
2343,-100,4,2,1,45,0,0
2852,-100,4,2,1,50,0,0
3360,-100,4,2,1,55,0,0
3869,-100,4,2,1,5,0,0
4123,-100,4,2,1,55,0,0
4377,-100,4,2,4,65,0,0
5394,-100,4,2,6,65,0,0
6411,-100,4,2,9,65,0,0
7428,-100,4,2,8,65,0,0
7937,-100,4,2,3,65,0,0
8445,-100,4,2,2,65,0,0
9462,-100,4,2,8,65,0,0
9971,-100,4,2,7,65,0,0
10479,-100,4,2,4,65,0,0
11496,-100,4,2,5,65,0,0
12259,-100,4,2,1,70,0,0
12513,-100,4,2,1,75,0,0
22428,-100,4,2,1,75,0,0
22555,-100,4,2,1,5,0,0
22682,-100,4,2,1,50,0,0
23064,-100,4,2,1,44,0,0
24716,-100,4,2,1,50,0,0
25225,-100,4,2,1,44,0,0
26750,-100,4,2,1,50,0,0
27259,-100,4,2,1,44,0,0
28784,-100,4,2,1,50,0,0
29293,-100,4,2,1,44,0,0
30818,-100,4,2,1,50,0,0
31326,-100,4,2,1,44,0,0
32852,-100,4,2,1,50,0,0
33360,-100,4,2,1,44,0,0
34886,-100,4,2,1,50,0,0
35267,-100,4,2,1,44,0,0
36920,-100,4,2,1,50,0,0
37301,-100,4,2,1,44,0,0
38954,-100,4,2,1,60,0,0
44547,-100,4,2,1,60,0,0
44928,-100,4,2,1,50,0,0
55225,-100,4,2,1,58,0,0
56750,-100,4,2,1,58,0,0
57259,-100,4,2,1,58,0,0
59293,-100,4,2,1,70,0,0
60818,-133.333333333333,4,2,1,70,0,0
61326,-100,4,2,1,58,0,0
62598,-100,4,2,1,60,0,0
63360,-111.111111111111,4,2,1,60,0,0
67428,-100,4,2,1,70,0,0
68445,-95.2380952380952,4,2,1,70,0,0
69462,-90.9090909090909,4,2,1,75,0,0
71496,-200,4,2,1,40,0,0
73530,-83.3333333333333,4,2,1,83,0,1
89801,-83.3333333333333,4,2,1,75,0,0
102004,-83.3333333333333,4,2,1,68,0,0
106072,-83.3333333333333,4,2,1,65,0,0
108106,-100,4,2,1,70,0,0
116242,-100,4,2,1,70,0,0
116496,-100,4,2,1,55,0,0
132513,-100,4,2,1,60,0,0
138106,-100,4,2,1,60,0,0
138487,-100,4,2,1,60,0,0
148784,-100,4,2,1,65,0,0
150309,-100,4,2,1,65,0,0
150818,-100,4,2,1,60,0,0
152852,-111.111111111111,4,2,1,75,0,0
154377,-133.333333333333,4,2,1,70,0,0
154886,-100,4,2,1,62,0,0
156920,-111.111111111111,4,2,1,65,0,0
160987,-100,4,2,1,70,0,0
162004,-95.2380952380952,4,2,1,70,0,0
163021,-90.9090909090909,4,2,1,75,0,0
165055,-200,4,2,1,40,0,0
167089,-83.3333333333333,4,2,1,80,0,1
183360,-83.3333333333333,4,2,1,75,0,0
195564,-83.3333333333333,4,2,1,70,0,0
199632,-83.3333333333333,4,2,1,70,0,0
201157,-100,4,2,1,70,0,0
201665,-100,4,2,1,70,0,0
202047,-100,4,2,1,40,0,0
202174,-100,4,2,1,58,0,0
205733,-100,4,2,1,60,0,0
206750,-100,4,2,1,62,0,0
207767,-100,4,2,1,63,0,0
208784,-100,4,2,1,63,0,0
209801,-100,4,2,1,65,0,0
217937,-100,4,2,1,62,0,0
219462,-133.333333333333,4,2,1,62,0,0
219971,-100,4,2,1,62,0,0
221496,-133.333333333333,4,2,1,62,0,0
222004,-100,4,2,1,62,0,0
223530,-133.333333333333,4,2,1,62,0,0
224038,-100,4,2,1,62,0,0
226072,-117.647058823529,4,2,1,65,0,0
229504,-117.647058823529,4,2,1,65,0,0
230140,-100,4,2,1,70,0,0
232174,-90.9090909090909,4,2,1,75,0,0
236242,-76.9230769230769,4,2,1,80,0,1
252513,-83.3333333333333,4,2,1,75,0,0
264716,-100,4,2,1,70,0,0
268784,-100,4,2,1,60,0,0
270818,-100,4,2,1,70,0,0
278954,-100,4,2,2,60,0,0
279335,-100,4,2,2,40,0,0
279971,-100,4,2,8,60,0,0
280479,-100,4,2,8,40,0,0
280987,-100,4,2,4,50,0,0
282132,-100,4,2,4,35,0,0
285818,-100,4,2,1,15,0,0

[Colours]
Combo1 : 213,0,213
Combo2 : 255,128,255

[HitObjects]
256,192,311,12,0,3870,0:0:0:0:
77,282,4124,6,0,L|159:288,1,55,0|0,0:0|0:0,0:0:0:0:
196,328,4378,2,0,P|279:321|314:268,1,110,2|0,0:0|0:0,0:0:0:0:
304,312,4760,1,0,0:0:0:0:
312,318,4887,1,0,0:0:0:0:
471,259,5141,1,0,0:0:0:0:
401,354,5395,2,0,B|387:298|387:298|397:200,1,110,2|0,0:0|0:0,0:0:0:0:
388,235,5777,1,0,0:0:0:0:
384,224,5904,1,0,0:0:0:0:
423,109,6158,1,0,0:0:0:0:
425,98,6285,1,0,0:0:0:0:
427,87,6412,6,0,L|418:4,3,55,2|0|0|0,0:0|0:0|0:0|0:0,0:0:0:0:
345,67,6921,2,0,L|354:150,3,55,0|0|0|0,0:0|0:0|0:0|0:0,0:0:0:0:
272,97,7429,2,0,L|267:47,4,27.5,2|0|0|0|0,0:0|0:0|0:0|0:0|0:0,0:0:0:0:
201,137,7810,1,0,0:0:0:0:
201,137,7938,2,0,P|131:128|96:83,1,110,2|0,0:0|0:0,0:0:0:0:
21,44,8319,1,0,0:0:0:0:
21,44,8383,1,0,0:0:0:0:
21,44,8446,6,0,B|14:93|14:93|26:159,1,110,2|0,0:0|0:0,0:0:0:0:
47,231,8827,1,0,0:0:0:0:
47,231,8955,2,0,L|46:316,1,55,0|0,0:0|0:0,0:0:0:0:
128,283,9209,2,0,L|127:337,1,55,0|0,0:0|0:0,0:0:0:0:
201,374,9463,2,0,P|287:356|309:319,1,110,2|0,0:0|0:0,0:0:0:0:
380,335,9844,1,0,0:0:0:0:
380,335,9972,2,0,L|448:340,1,55,2|0,0:0|0:0,0:0:0:0:
464,262,10226,2,0,L|409:257,1,55,0|0,0:0|0:0,0:0:0:0:
373,183,10480,6,0,P|360:116|383:59,1,110,2|0,0:0|0:0,0:0:0:0:
439,29,10861,1,0,0:0:0:0:
439,29,10988,2,0,L|506:33,1,55,0|0,0:0|0:0,0:0:0:0:
371,77,11243,2,0,L|316:73,1,55,0|0,0:0|0:0,0:0:0:0:
244,32,11497,1,2,0:0:0:0:
256,192,11624,12,14,12514,0:0:0:0:
256,192,20649,12,0,22429,0:0:0:0:
405,42,22683,5,12,0:0:0:0:
344,196,22938,1,8,0:3:0:0:
413,55,23192,2,0,B|413:96|413:96|427:125|427:125|427:170,1,110,2|0,0:0|0:0,0:0:0:0:
454,239,23573,2,0,P|465:303|435:369,2,110,2|0|0,0:0|0:0|0:0,0:0:0:0:
427,161,24209,2,0,B|381:148|381:148|291:172,1,110,2|0,0:0|0:0,0:0:0:0:
163,213,24717,5,10,0:0:0:0:
223,58,24972,1,8,0:3:0:0:
156,201,25226,2,0,B|144:254|144:254|162:352,1,110,2|0,0:0|0:0,0:0:0:0:
211,367,25607,1,2,0:0:0:0:
211,367,25988,2,0,B|255:367|255:367|279:379|279:379|350:379,2,110,2|2|0,0:0|0:0|0:0,0:0:0:0:
56,307,26751,5,10,0:0:0:0:
86,145,27005,1,8,0:3:0:0:
51,327,27260,2,0,P|133:323|177:278,1,110,2|0,0:0|0:0,0:0:0:0:
188,147,27768,2,0,P|106:151|62:196,1,110,2|0,0:0|0:0,0:0:0:0:
278,229,28277,2,0,B|286:175|286:175|272:121,1,110,8|2,0:0|0:0,0:0:0:0:
144,18,28785,5,8,0:0:0:0:
306,45,29039,1,8,0:3:0:0:
136,34,29294,2,0,B|127:87|127:87|141:141,1,110,2|0,0:0|0:0,0:0:0:0:
17,250,29802,2,0,P|96:259|159:214,1,110,10|0,0:0|0:0,0:0:0:0:
256,344,30310,2,0,L|201:338,3,55,10|0|10|0,0:0|0:0|0:0|0:0,0:0:0:0:
283,327,30819,5,8,0:0:0:0:
444,359,31073,1,8,0:3:0:0:
367,213,31327,2,0,B|357:258|357:258|374:353,1,110,2|0,0:0|0:0,0:0:0:0:
443,255,31709,2,0,B|453:210|453:210|436:115,2,110,2|0|0,0:0|0:0|0:0,0:0:0:0:
367,213,32344,2,0,P|296:214|237:261,1,110,2|0,0:0|0:0,0:0:0:0:
101,268,32853,5,8,0:0:0:0:
258,316,33107,1,8,0:0:0:0:
110,359,33361,2,0,B|103:304|103:304|119:215,1,110,2|0,0:0|0:0,0:0:0:0:
173,193,33743,1,2,0:0:0:0:
173,193,34124,2,0,P|176:121|144:56,2,110,2|0|2,0:0|0:0|0:2,0:0:0:0:
73,52,34887,6,0,P|118:7|229:21,2,165,10|0|0,0:0|0:0|0:0,0:0:0:0:
173,193,35904,2,0,P|167:235|172:263,2,55,2|0|0,0:0|0:0|0:0,0:0:0:0:
245,154,36285,2,0,B|314:152|314:152|344:165|344:165|424:162,1,165,2|0,0:0|0:0,0:0:0:0:
471,9,36921,6,0,B|464:54|464:54|486:139,1,110,10|8,0:0|0:3,0:0:0:0:
506,194,37302,2,0,P|478:300|402:281,1,165,2|0,0:0|0:0,0:0:0:0:
281,261,37938,2,0,P|196:281|166:370,1,165,2|0,0:0|0:0,0:0:0:0:
74,329,38446,1,10,0:0:0:0:
77,350,38573,1,0,0:0:0:0:
80,371,38700,1,8,0:3:0:0:
26,214,38955,6,0,P|110:213|160:263,1,110,14|0,0:0|0:0,0:0:0:0:
200,277,39336,1,0,0:0:0:0:
200,277,39463,2,0,L|312:282,1,110,10|0,0:0|0:0,0:0:0:0:
390,265,39844,2,0,P|404:329|388:388,2,110,2|2|0,0:0|0:0|0:0,0:0:0:0:
309,281,40480,2,0,B|294:236|294:236|302:126,1,110,10|0,0:0|0:0,0:0:0:0:
437,84,40988,6,0,P|353:83|303:133,1,110,10|0,0:0|0:0,0:0:0:0:
298,173,41370,1,0,0:0:0:0:
298,173,41497,2,0,L|177:170,1,110,10|0,0:0|0:0,0:0:0:0:
195,252,41878,2,0,L|140:251,1,55,0|10,0:0|0:0,0:0:0:0:
29,128,42260,2,0,B|18:70|18:70|30:2,2,110,2|10|0,0:0|0:0|0:0,0:0:0:0:
140,251,43022,6,0,P|147:320|124:376,1,110,10|0,0:0|0:0,0:0:0:0:
23,234,43531,2,0,P|16:165|39:109,1,110,10|0,0:0|0:0,0:0:0:0:
163,54,44039,2,0,B|231:50|231:50|258:68|258:68|368:61,1,165,10|0,0:0|3:0,0:0:0:0:
396,117,44548,2,0,P|408:53|378:-9,1,110,10|0,0:0|0:0,0:0:0:0:
322,63,44929,1,0,3:0:0:0:
322,63,45056,6,0,P|310:127|340:189,1,110,10|0,0:0|0:0,0:0:0:0:
463,234,45565,2,0,B|478:287|478:287|463:371,1,110,10|0,0:0|0:0,0:0:0:0:
389,337,45946,1,0,3:0:0:0:
389,337,46073,2,0,P|349:329|325:329,2,55,10|0|0,0:0|0:0|0:0,0:0:0:0:
231,285,46582,2,0,L|237:343,1,55,10|0,0:0|0:0,0:0:0:0:
158,366,46836,2,0,L|152:311,1,55,4|0,0:3|0:0,0:0:0:0:
73,334,47090,6,0,B|68:288|68:288|76:267|76:267|69:194,1,110,10|0,0:0|0:0,0:0:0:0:
114,156,47472,1,0,0:0:0:0:
114,156,47599,2,0,P|173:138|262:173,1,110,10|0,0:0|0:0,0:0:0:0:
296,175,47980,2,0,P|350:182|401:164,2,110,2|2|0,0:0|0:0|0:0,0:0:0:0:
219,145,48616,2,0,B|205:95|205:95|212:8,1,110,10|0,0:0|0:0,0:0:0:0:
296,175,49124,6,0,B|310:225|310:225|303:312,1,110,10|2,0:0|0:0,0:0:0:0:
238,330,49505,1,0,3:0:0:0:
238,330,49633,2,0,L|90:325,2,110,10|0|10,0:0|0:0|0:0,0:0:0:0:
397,371,50395,1,2,0:0:0:0:
250,295,50649,1,8,0:0:0:0:
243,310,50777,1,0,0:0:0:0:
237,325,50904,2,0,L|243:405,1,55,8|0,0:3|0:3,0:0:0:0:
161,356,51158,6,0,B|158:287|158:287|171:261|171:261|166:163,2,165,10|0|2,0:0|0:0|0:0,0:0:0:0:
86,208,52175,2,0,L|81:123,1,55,10|0,0:0|0:0,0:0:0:0:
27,92,52429,2,0,P|89:69|160:118,1,110,2|8,0:0|0:0,0:0:0:0:
202,117,52810,1,0,3:0:0:0:
202,117,52938,2,0,L|280:118,1,55,2|0,0:0|0:0,0:0:0:0:
332,151,53192,6,0,B|342:197|342:197|326:298,1,110,10|0,0:0|0:0,0:0:0:0:
258,306,53573,2,0,B|248:260|248:260|264:159,1,110,2|0,0:0|0:0,0:0:0:0:
256,117,53955,2,0,L|270:40,1,55,2|0,0:0|0:0,0:0:0:0:
338,23,54209,2,0,P|411:27|468:88,1,110,10|0,0:0|0:0,0:0:0:0:
410,208,54717,1,10,0:0:0:0:
412,224,54844,1,8,0:0:0:0:
414,240,54972,1,12,0:3:0:0:
302,361,55226,6,0,B|177:402|204:309|84:347,1,220,14|10,0:0|0:0,0:0:0:0:
223,267,55988,1,0,0:0:0:0:
90,344,56243,2,0,L|86:281,1,55,10|0,0:0|0:0,0:0:0:0:
44,224,56497,2,0,B|29:173|29:173|41:76,1,110,0|0,0:0|1:0,0:0:0:0:
152,0,57005,6,0,B|169:58|169:58|155:168,1,165,2|0,0:0|0:0,0:0:0:0:
194,235,57514,2,0,P|260:248|325:214,2,110,0|10|0,0:0|0:0|0:0,0:0:0:0:
50,161,58277,2,0,P|102:146|155:160,1,110,10|0,0:0|0:0,0:0:0:0:
299,234,58785,2,0,L|298:320,1,55,0|0,1:0|0:0,0:0:0:0:
377,265,59039,2,0,L|376:319,1,55,8|0,0:3|0:0,0:0:0:0:
452,354,59294,6,0,B|452:287|452:287|465:262|465:262|466:192,1,165,12|0,0:0|0:0,0:0:0:0:
488,112,59802,1,8,1:0:0:0:
345,28,60056,2,0,B|259:5|281:69|169:36,1,165,12|0,0:0|0:0,0:0:0:0:
114,84,60565,1,8,1:0:0:0:
39,182,60819,6,0,B|27:121|27:121|41:32,1,123.750004720688,12|0,0:0|0:0,0:0:0:0:
114,84,61327,1,8,0:0:0:0:
31,195,61582,1,2,0:0:0:0:
190,151,61836,2,0,L|247:145,2,55,10|0|2,0:0|0:0|0:0,0:0:0:0:
336,226,62344,2,0,L|281:231,1,55,10|0,0:0|0:0,0:0:0:0:
119,359,62599,2,0,P|116:331|120:304,1,55,8|0,1:0|0:0,0:0:0:0:
200,236,62853,2,0,P|197:263|201:290,1,55,8|0,1:0|0:0,0:0:0:0:
265,342,63107,1,8,0:0:0:0:
272,349,63234,1,8,0:0:0:0:
279,356,63361,6,0,B|388:398|376:322|477:370,1,197.99999395752,12|0,0:0|0:0,0:0:0:0:
353,275,64124,1,8,0:0:0:0:
471,367,64378,2,0,B|477:315|477:315|459:244,1,98.9999969787599,8|0,1:0|0:0,0:0:0:0:
347,177,64887,2,0,B|341:229|341:229|359:300,1,98.9999969787599,0|8,0:0|0:0,0:0:0:0:
437,121,65395,5,10,0:0:0:0:
292,87,65649,1,0,0:0:0:0:
439,97,65904,1,2,0:0:0:0:
291,110,66158,1,8,0:0:0:0:
493,40,66412,2,0,B|443:21|443:21|358:41,1,98.9999969787599,8|8,1:0|0:0,0:0:0:0:
326,12,66794,1,8,0:0:0:0:
326,12,66921,2,0,L|245:16,1,49.4999984893799,8|8,1:0|0:0,0:0:0:0:
218,60,67175,2,0,L|134:67,1,49.4999984893799,8|8,0:0|0:0,0:0:0:0:
96,24,67429,6,0,P|31:46|18:130,1,110,12|2,0:0|0:0,0:0:0:0:
90,107,67810,1,8,0:0:0:0:
90,107,67938,2,0,L|95:188,1,55,8|0,1:0|0:0,0:0:0:0:
19,225,68192,2,0,L|14:144,1,55,2|0,0:0|0:0,0:0:0:0:
96,284,68446,2,0,P|169:310|242:264,1,115.49999647522,10|2,0:0|0:0,0:0:0:0:
298,326,68827,1,8,0:0:0:0:
298,326,68955,2,0,P|301:266|290:234,1,57.7499982376099,8|0,1:0|0:0,0:0:0:0:
388,243,69209,2,0,P|362:188|337:165,1,57.7499982376099,2|0,0:0|0:0,0:0:0:0:
382,102,69463,6,0,P|311:77|238:114,1,121.000003692627,10|8,0:1|0:0,0:0:0:0:
188,129,69844,1,8,0:0:0:0:
106,88,69972,2,0,P|103:20|108:1,1,60.5000018463135,8|0,0:1|0:0,0:0:0:0:
196,143,70226,2,0,P|199:75|194:56,1,60.5000018463135,8|8,0:0|0:0,0:0:0:0:
69,209,70480,2,0,P|16:219|-7:233,1,60.5000018463135,8|0,0:1|0:0,0:0:0:0:
196,273,70734,2,0,P|249:263|272:249,1,60.5000018463135,8|8,0:0|0:0,0:0:0:0:
392,286,70988,1,8,0:1:0:0:
420,255,71115,1,8,0:0:0:0:
439,217,71242,1,8,0:0:0:0:
445,175,71369,1,8,0:0:0:0:
439,133,71497,6,0,P|427:60|448:15,3,110,10|0|2|0,0:0|0:0|0:0|0:0,0:0:0:0:
439,27,73531,6,0,B|380:28|380:28|357:41|357:41|285:42,1,131.99999597168,14|0,0:0|0:0,0:0:0:0:
214,20,73912,1,10,0:0:0:0:
214,20,74039,2,0,P|138:34|102:54,1,65.9999979858399,10|0,1:0|0:0,0:0:0:0:
39,94,74294,2,0,P|115:108|151:128,1,65.9999979858399,8|0,0:0|0:0,0:0:0:0:
181,165,74548,2,0,B|193:213|193:213|180:296,1,131.99999597168,10|0,0:0|0:0,0:0:0:0:
103,356,74929,2,0,B|91:308|91:308|104:225,1,131.99999597168,2|0,0:0|0:0,0:0:0:0:
181,165,75310,2,0,P|257:181|274:194,1,65.9999979858399,2|0,0:0|0:0,0:0:0:0:
336,215,75565,6,0,P|418:207|454:125,1,131.99999597168,10|0,0:0|0:0,0:0:0:0:
356,132,75946,2,0,P|342:62|359:5,1,131.99999597168,2|0,0:0|0:0,0:0:0:0:
438,107,76327,2,0,P|444:184|421:225,1,65.9999979858399,2|0,0:0|0:0,0:0:0:0:
389,253,76582,2,0,B|383:318|383:318|400:396,2,131.99999597168,10|0|8,0:0|0:0|1:0,0:0:0:0:
195,295,77344,2,0,P|134:310|112:329,1,65.9999979858399,2|2,0:0|0:0,0:0:0:0:
48,365,77599,6,0,P|29:286|47:227,1,131.99999597168,10|0,0:0|0:0,0:0:0:0:
125,184,77980,2,0,P|144:263|126:322,1,131.99999597168,2|0,0:0|0:0,0:0:0:0:
198,374,78361,2,0,P|259:359|281:340,1,65.9999979858399,2|2,0:0|0:0,0:0:0:0:
335,303,78616,2,0,P|421:317|464:375,1,131.99999597168,10|0,0:0|0:0,0:0:0:0:
500,268,78997,2,0,B|515:213|515:213|493:85,1,131.99999597168,2|0,0:0|0:0,0:0:0:0:
418,176,79378,2,0,L|404:90,1,65.9999979858399,2|0,0:0|0:0,0:0:0:0:
339,46,79633,6,0,P|255:28|189:74,1,131.99999597168,10|0,0:0|0:0,0:0:0:0:
160,120,80014,1,8,0:0:0:0:
160,120,80141,2,0,P|216:128|245:143,1,65.9999979858399,10|0,1:0|0:0,0:0:0:0:
100,195,80395,2,0,P|68:204|35:206,1,65.9999979858399,8|0,0:0|0:0,0:0:0:0:
117,285,80649,2,0,P|123:341|149:392,1,65.9999979858399,10|0,0:0|0:0,0:0:0:0:
224,131,80904,2,0,P|218:187|192:238,1,65.9999979858399,8|0,1:0|0:0,0:0:0:0:
288,351,81158,1,8,0:0:0:0:
336,358,81285,1,8,1:0:0:0:
382,342,81412,1,8,1:0:0:0:
416,307,81539,1,8,1:0:0:0:
430,260,81666,6,0,P|412:193|427:126,1,131.99999597168,14|0,0:0|0:0,0:0:0:0:
448,45,82048,1,8,0:0:0:0:
448,45,82175,2,0,P|393:49|350:69,1,65.9999979858399,10|0,1:0|0:0,0:0:0:0:
308,106,82429,2,0,P|275:98|242:98,1,65.9999979858399,8|0,0:0|0:0,0:0:0:0:
176,34,82683,2,0,P|100:38|49:132,1,131.99999597168,10|0,0:0|0:0,0:0:0:0:
3,147,83065,2,0,P|52:188|117:187,1,131.99999597168,2|0,0:0|0:0,0:0:0:0:
168,264,83446,2,0,P|212:225|220:181,1,65.9999979858399,2|0,0:0|0:0,0:0:0:0:
301,189,83700,6,0,P|290:116|277:95,2,65.9999979858399,10|2|2,0:0|0:0|0:0,0:0:0:0:
351,267,84082,2,0,P|423:317|490:300,1,131.99999597168,2|2,0:0|0:0,0:0:0:0:
436,225,84463,2,0,P|429:165|436:137,1,65.9999979858399,2|0,0:0|0:0,0:0:0:0:
384,79,84717,2,0,B|323:76|323:76|300:89|300:89|207:85,2,131.99999597168,10|2|8,0:0|0:0|1:0,0:0:0:0:
457,248,85480,2,0,P|464:308|457:336,1,65.9999979858399,2|0,0:0|0:0,0:0:0:0:
384,361,85734,6,0,B|329:365|329:365|306:353|306:353|254:357,1,131.99999597168,10|0,0:0|0:0,0:0:0:0:
108,243,86243,2,0,B|99:300|99:300|118:384,1,131.99999597168,10|0,1:0|0:0,0:0:0:0:
210,214,86751,2,0,B|219:157|219:157|200:73,1,131.99999597168,10|0,0:0|0:0,0:0:0:0:
128,28,87133,1,8,0:0:0:0:
128,28,87260,2,0,P|62:41|40:53,1,65.9999979858399,10|0,1:0|0:0,0:0:0:0:
202,84,87514,2,0,P|268:71|290:59,1,65.9999979858399,0|0,0:0|0:0,0:0:0:0:
375,8,87768,6,0,B|365:69|365:69|385:175,1,131.99999597168,14|0,0:0|0:0,0:0:0:0:
441,211,88149,1,0,0:0:0:0:
441,211,88277,2,0,P|455:277|435:359,1,131.99999597168,10|0,1:0|0:0,0:0:0:0:
267,283,88785,2,0,P|224:286|187:308,1,65.9999979858399,10|8,0:0|0:0,0:0:0:0:
108,345,89039,1,8,1:0:0:0:
102,348,89166,1,0,1:0:0:0:
96,350,89294,2,0,P|84:285|88:258,1,65.9999979858399,10|8,0:0|1:0,0:0:0:0:
173,138,89548,2,0,P|170:170|160:202,1,65.9999979858399,8|8,1:0|1:0,0:0:0:0:
34,72,89802,6,0,P|91:40|184:68,1,131.99999597168,14|0,0:0|0:0,0:0:0:0:
243,75,90183,2,0,B|300:76|300:76|323:65|323:65|429:68,1,131.99999597168,10|0,0:0|0:0,0:0:0:0:
454,23,90565,2,0,P|461:83|452:116,1,65.9999979858399,2|0,0:0|0:0,0:0:0:0:
392,150,90819,2,0,P|384:211|404:283,1,131.99999597168,10|0,0:0|0:0,0:0:0:0:
479,333,91200,2,0,P|404:371|352:361,1,131.99999597168,2|0,0:0|0:0,0:0:0:0:
272,333,91582,2,0,P|209:338|185:348,1,65.9999979858399,2|0,0:0|0:0,0:0:0:0:
124,380,91836,6,0,B|109:320|109:320|117:214,1,131.99999597168,10|2,0:0|0:0,0:0:0:0:
46,187,92217,2,0,L|53:108,2,65.9999979858399,2|8|0,0:0|1:0|0:0,0:0:0:0:
114,250,92599,2,0,P|172:240|194:220,1,65.9999979858399,2|0,0:0|0:0,0:0:0:0:
264,207,92853,2,0,P|269:277|279:309,1,65.9999979858399,10|0,0:0|0:0,0:0:0:0:
360,274,93107,2,0,P|355:344|345:376,1,65.9999979858399,2|0,0:0|0:0,0:0:0:0:
487,234,93361,2,0,P|482:164|472:132,1,65.9999979858399,8|0,1:0|0:0,0:0:0:0:
391,167,93615,2,0,P|396:97|406:65,1,65.9999979858399,2|0,0:0|0:0,0:0:0:0:
317,50,93870,6,0,P|235:25|166:68,1,131.99999597168,10|0,0:0|0:0,0:0:0:0:
109,5,94251,2,0,B|99:68|99:68|122:159,1,131.99999597168,2|0,0:0|0:0,0:0:0:0:
171,208,94633,2,0,L|168:295,1,65.9999979858399,2|0,0:0|0:0,0:0:0:0:
92,368,94887,2,0,B|93:317|93:317|85:296|85:296|88:236,1,131.99999597168,10|0,0:0|0:0,0:0:0:0:
176,359,95268,2,0,P|263:360|306:299,1,131.99999597168,2|0,0:0|0:0,0:0:0:0:
375,292,95649,2,0,P|438:315|459:342,1,65.9999979858399,2|0,0:0|0:0,0:0:0:0:
292,240,95904,6,0,P|275:163|289:96,1,131.99999597168,10|2,0:0|0:0,0:0:0:0:
442,18,96412,2,0,P|459:95|445:162,1,131.99999597168,10|0,1:0|0:0,0:0:0:0:
387,214,96794,1,2,0:0:0:0:
387,214,96921,2,0,L|308:211,1,65.9999979858399,10|0,0:0|0:0,0:0:0:0:
243,261,97175,1,8,1:0:0:0:
238,265,97302,1,8,1:0:0:0:
233,269,97429,2,0,P|201:205|207:165,1,65.9999979858399,10|8,0:0|1:0,0:0:0:0:
110,221,97683,2,0,P|111:149|135:116,1,65.9999979858399,8|0,1:0|1:0,0:0:0:0:
29,69,97938,6,0,P|95:29|180:58,1,131.99999597168,14|0,0:0|0:0,0:0:0:0:
229,76,98319,2,0,B|293:78|293:78|311:71|311:71|382:72,1,131.99999597168,2|0,0:0|0:0,0:0:0:0:
431,129,98700,2,0,P|437:198|432:223,1,65.9999979858399,2|0,0:0|0:0,0:0:0:0:
359,71,98955,2,0,P|353:2|358:-23,1,65.9999979858399,10|0,0:0|0:0,0:0:0:0:
326,158,99209,1,2,0:0:0:0:
326,158,99336,2,0,B|279:180|279:180|179:164,1,131.99999597168,2|0,0:0|0:0,0:0:0:0:
113,133,99717,2,0,P|120:195|117:225,1,65.9999979858399,2|0,0:0|0:0,0:0:0:0:
38,311,99972,6,0,P|38:278|44:245,1,65.9999979858399,14|0,0:0|0:0,0:0:0:0:
125,353,100226,1,2,0:0:0:0:
125,353,100353,2,0,P|212:353|268:286,1,131.99999597168,2|0,0:0|0:0,0:0:0:0:
319,235,100734,2,0,P|328:304|343:333,1,65.9999979858399,2|0,0:0|0:0,0:0:0:0:
404,371,100988,2,0,P|413:302|428:273,1,65.9999979858399,10|8,0:0|0:1,0:0:0:0:
460,226,101243,1,10,0:1:0:0:
460,226,101370,2,8,B|469:170|469:170|446:48,1,131.99999597168,10|8,0:1|0:0,0:0:0:0:
364,42,101751,2,0,L|287:40,1,65.9999979858399,10|8,1:0|1:0,0:0:0:0:
181,62,102005,5,12,0:0:0:0:
180,94,103022,5,12,0:0:0:0:
179,126,104039,5,12,0:0:0:0:
256,192,104166,12,8,105819,0:0:0:0:
178,158,106073,5,12,0:0:0:0:
256,192,106200,12,14,108107,0:0:0:0:
256,192,114209,12,8,115988,1:0:0:0:
422,93,116243,6,0,P|365:93|310:138,1,110,14|0,0:0|0:0,0:0:0:0:
263,172,116624,1,0,0:0:0:0:
263,172,116751,2,0,L|122:166,1,110,10|0,0:0|0:0,0:0:0:0:
87,125,117133,2,0,B|74:78|74:78|86:3,2,110,2|0|0,0:0|0:0|0:0,0:0:0:0:
153,167,117768,2,0,B|166:214|166:214|154:289,1,110,10|0,0:0|0:0,0:0:0:0:
27,359,118277,6,0,P|88:341|158:361,1,110,10|0,0:0|0:0,0:0:0:0:
204,375,118658,1,0,3:0:0:0:
204,375,118785,2,0,L|334:369,1,110,10|0,0:0|0:0,0:0:0:0:
377,326,119166,2,0,L|441:321,1,55,0|10,0:0|0:0,0:0:0:0:
491,179,119548,2,0,B|499:133|499:133|476:36,2,110,2|10|2,0:0|0:0|0:0,0:0:0:0:
431,321,120310,6,0,P|346:317|296:262,1,110,10|0,0:0|0:0,0:0:0:0:
258,166,120819,2,0,P|343:170|393:225,1,110,10|0,0:0|0:0,0:0:0:0:
247,325,121327,2,0,B|182:322|182:322|161:306|161:306|87:303,1,165,10|0,0:0|3:0,0:0:0:0:
10,254,121836,2,0,P|0:322|18:364,1,110,10|8,0:0|0:0,0:0:0:0:
87,303,122217,1,0,3:0:0:0:
87,303,122344,6,0,P|97:235|79:193,1,110,10|0,0:0|0:0,0:0:0:0:
13,59,122853,2,0,B|55:43|55:43|162:70,1,110,10|0,0:0|0:0,0:0:0:0:
188,90,123234,1,0,3:0:0:0:
188,90,123361,2,0,P|227:94|259:85,2,55,10|0|8,0:0|0:0|0:0,0:0:0:0:
333,37,123870,2,0,L|336:91,1,55,10|0,0:0|0:0,0:0:0:0:
411,109,124124,2,0,L|407:54,1,55,4|0,0:3|0:0,0:0:0:0:
489,25,124378,6,0,B|492:70|492:70|486:90|486:90|491:180,1,110,10|0,0:0|0:0,0:0:0:0:
465,210,124760,1,0,0:0:0:0:
465,210,124887,2,0,P|383:212|342:167,1,110,10|0,0:0|0:0,0:0:0:0:
300,153,125268,2,0,P|216:160|175:213,2,110,2|0|0,0:0|0:0|0:0,0:0:0:0:
363,197,125904,2,0,B|374:242|374:242|362:331,1,110,10|0,0:0|0:0,0:0:0:0:
222,361,126412,6,0,B|211:316|211:316|223:227,1,110,10|0,0:0|0:0,0:0:0:0:
198,174,126794,1,0,3:0:0:0:
198,174,126921,2,0,P|207:115|185:42,2,110,10|0|8,0:0|0:0|0:0,0:0:0:0:
51,220,127683,1,2,0:0:0:0:
189,151,127938,1,10,0:0:0:0:
193,161,128065,1,0,0:0:0:0:
197,171,128192,2,0,L|261:173,1,55,2|0,0:0|0:0,0:0:0:0:
319,208,128446,6,0,P|403:210|454:143,2,165,10|0|2,0:0|0:0|0:0,0:0:0:0:
251,68,129463,2,0,L|196:66,1,55,10|0,0:0|0:0,0:0:0:0:
127,30,129717,1,0,0:0:0:0:
127,30,129844,2,0,B|116:73|116:73|133:172,1,110,2|0,0:0|0:0,0:0:0:0:
63,182,130226,2,0,L|73:251,1,55,2|0,0:0|0:0,0:0:0:0:
54,311,130480,6,0,P|122:313|176:366,1,110,10|0,0:0|0:0,0:0:0:0:
222,373,130861,2,0,L|362:368,1,110,2|0,0:0|0:0,0:0:0:0:
384,312,131243,2,0,L|451:309,1,55,2|0,0:0|0:0,0:0:0:0:
486,249,131497,2,0,B|495:204|495:204|473:108,1,110,10|0,0:0|0:0,0:0:0:0:
359,47,132005,1,10,0:0:0:0:
357,63,132132,1,8,0:0:0:0:
355,79,132260,1,12,0:3:0:0:
191,132,132514,6,0,B|176:69|176:69|185:24,1,110,14|0,0:0|0:0,0:0:0:0:
265,83,132895,1,0,0:0:0:0:
265,83,133022,2,0,B|279:145|279:145|270:190,1,110,10|0,0:0|0:0,0:0:0:0:
211,241,133404,2,0,B|158:239|69:234,2,110,2|0|0,0:0|0:0|0:0,0:0:0:0:
282,269,134039,2,0,P|366:258|400:209,1,110,10|2,0:0|0:0,0:0:0:0:
491,133,134548,6,0,P|445:104|391:107,1,110,10|0,0:0|0:0,0:0:0:0:
331,154,134929,1,0,3:0:0:0:
331,154,135056,2,0,L|183:149,1,110,10|0,0:0|0:0,0:0:0:0:
167,206,135438,2,0,L|100:203,1,55,0|10,0:0|0:0,0:0:0:0:
20,80,135819,2,0,B|8:131|8:131|25:226,2,110,0|10|0,0:0|0:0|0:0,0:0:0:0:
112,203,136582,6,0,B|122:259|122:259|110:310,1,110,10|0,0:0|0:0,0:0:0:0:
257,355,137090,2,0,L|385:351,1,110,10|0,0:0|0:0,0:0:0:0:
500,273,137599,2,0,B|434:275|434:275|408:259|408:259|319:261,1,165,10|0,0:0|0:0,0:0:0:0:
259,212,138107,2,0,P|250:275|276:329,1,110,10|0,0:0|0:0,0:0:0:0:
339,260,138488,1,0,3:0:0:0:
339,260,138616,6,0,P|348:197|322:143,1,110,10|0,0:0|0:0,0:0:0:0:
242,29,139124,2,0,L|120:23,1,110,10|0,0:0|0:0,0:0:0:0:
72,70,139505,1,0,3:0:0:0:
72,70,139633,2,0,P|18:65|-24:87,2,55,10|8|0,0:0|0:0|0:0,0:0:0:0:
129,212,140141,2,0,L|134:278,1,55,10|0,0:0|0:0,0:0:0:0:
207,286,140395,2,0,L|202:231,1,55,4|0,0:3|0:0,0:0:0:0:
261,132,140649,6,0,B|264:176|264:176|275:196|275:196|279:238,1,110,10|0,0:0|0:0,0:0:0:0:
325,306,141031,1,0,0:0:0:0:
325,306,141158,2,0,P|421:319|458:293,1,110,10|8,0:0|0:0,0:0:0:0:
481,259,141539,2,0,B|489:216|489:216|466:106,2,110,2|0|0,0:0|0:0|0:0,0:0:0:0:
412,222,142175,2,0,B|398:157|398:157|406:114,1,110,8|0,0:0|0:0,0:0:0:0:
274,34,142683,6,0,P|191:43|154:105,1,110,10|0,0:0|0:0,0:0:0:0:
120,114,143065,1,0,3:0:0:0:
120,114,143192,2,0,L|1:109,2,110,10|0|10,0:0|0:0|0:0,0:0:0:0:
261,175,143955,1,0,0:0:0:0:
83,194,144209,1,10,0:0:0:0:
81,204,144336,1,0,0:0:0:0:
79,214,144463,2,0,L|85:293,1,55,8|8,0:3|0:0,0:0:0:0:
5,306,144717,6,0,P|71:358|159:319,2,165,10|2|2,0:0|0:0|0:0,0:0:0:0:
83,194,145734,2,0,P|119:195|163:217,1,55,10|0,0:0|0:0,0:0:0:0:
195,258,145988,1,0,0:0:0:0:
195,258,146116,2,0,L|341:253,1,110,2|0,0:0|0:0,0:0:0:0:
362,203,146497,2,0,L|425:200,1,55,8|0,0:0|0:0,0:0:0:0:
488,172,146751,6,0,B|494:119|494:119|468:19,1,110,10|0,0:0|0:0,0:0:0:0:
401,19,147133,2,0,B|395:72|395:72|421:172,1,110,2|0,0:0|0:0,0:0:0:0:
416,200,147514,2,0,L|415:267,1,55,8|0,0:3|0:0,0:0:0:0:
359,308,147768,2,0,P|285:310|236:263,1,110,10|0,0:0|0:0,0:0:0:0:
127,207,148277,1,10,0:0:0:0:
142,209,148404,1,8,0:0:0:0:
158,210,148530,1,12,0:3:0:0:
41,368,148785,6,0,B|12:309|48:262|48:262|15:203|48:145,1,220,14|10,0:0|0:0,0:0:0:0:
129,285,149548,1,0,0:0:0:0:
41,158,149802,2,0,L|37:97,1,55,10|0,0:0|0:0,0:0:0:0:
85,43,150056,2,0,P|154:39|208:85,1,110,0|8,0:0|1:0,0:0:0:0:
247,200,150565,6,0,P|333:183|366:105,1,165,2|0,0:0|0:0,0:0:0:0:
274,111,151073,2,0,B|264:62|264:62|273:2,2,110,0|10|0,0:0|0:0|0:0,0:0:0:0:
364,227,151836,2,0,B|374:178|374:178|365:118,1,110,10|0,0:0|0:0,0:0:0:0:
477,13,152344,2,0,L|466:85,1,55,8|0,1:0|0:0,0:0:0:0:
446,141,152599,2,0,L|457:213,1,55,8|0,0:3|0:0,0:0:0:0:
448,278,152853,6,0,P|394:324|292:291,1,148.49999546814,12|0,0:0|0:0,0:0:0:0:
263,256,153361,1,8,1:0:0:0:
156,345,153616,2,0,B|88:341|88:341|66:355|66:355|-10:353,1,148.49999546814,12|0,0:0|0:0,0:0:0:0:
35,278,154124,1,8,1:0:0:0:
161,333,154378,6,0,B|176:283|176:283|157:174,1,123.750004720688,12|0,0:0|0:0,0:0:0:0:
206,147,154887,1,8,0:0:0:0:
58,190,155141,1,2,0:0:0:0:
165,79,155395,2,0,P|163:52|149:16,2,55,10|0|0,0:0|0:0|0:0,0:0:0:0:
283,177,155904,2,0,P|285:149|293:123,1,55,10|0,0:0|0:0,0:0:0:0:
337,13,156158,2,0,P|399:29|419:44,1,55,8|0,1:0|0:0,0:0:0:0:
490,86,156412,2,0,P|428:102|408:117,1,55,8|0,1:0|0:0,0:0:0:0:
378,159,156666,1,8,0:0:0:0:
375,169,156794,1,8,0:0:0:0:
372,179,156921,6,0,B|351:274|419:251|389:370,1,197.99999395752,12|0,0:0|0:0,0:0:0:0:
286,277,157683,1,8,0:0:0:0:
176,359,157938,2,0,L|65:366,1,98.9999969787599,8|0,1:0|0:0,0:0:0:0:
187,283,158446,2,0,L|285:276,1,98.9999969787599,0|8,0:0|0:0,0:0:0:0:
408,343,158955,5,10,0:0:0:0:
364,211,159209,1,0,0:0:0:0:
385,346,159463,1,0,0:0:0:0:
386,207,159717,1,8,0:0:0:0:
474,384,159972,2,0,B|483:337|483:337|466:254,1,98.9999969787599,8|0,1:0|0:0,0:0:0:0:
480,210,160353,1,8,0:0:0:0:
450,138,160480,2,0,L|450:71,1,49.4999984893799,8|8,1:0|0:0,0:0:0:0:
374,78,160734,2,0,L|374:11,1,49.4999984893799,8|8,0:0|0:0,0:0:0:0:
299,10,160988,6,0,P|227:19|189:84,1,110,12|2,0:0|0:0,0:0:0:0:
140,118,161370,1,8,0:0:0:0:
140,118,161497,2,0,P|122:56|129:25,1,55,8|0,1:0|0:0,0:0:0:0:
44,25,161751,2,0,P|38:51|40:79,1,55,2|8,0:0|0:0,0:0:0:0:
21,153,162005,2,0,B|11:201|11:201|27:306,1,115.49999647522,10|2,0:0|0:0,0:0:0:0:
84,324,162387,1,8,0:0:0:0:
84,324,162514,2,0,P|135:312|152:299,1,57.7499982376099,8|0,1:0|0:0,0:0:0:0:
202,359,162768,2,0,P|231:315|234:294,1,57.7499982376099,2|0,0:0|0:0,0:0:0:0:
311,340,163022,6,0,P|385:342|442:269,1,121.000003692627,10|8,0:1|0:0,0:0:0:0:
407,231,163404,1,8,0:0:0:0:
407,231,163531,2,0,P|408:165|402:147,1,60.5000018463135,8|0,0:1|0:0,0:0:0:0:
322,153,163785,2,0,P|321:87|327:69,1,60.5000018463135,8|8,0:0|0:0,0:0:0:0:
220,40,164039,2,0,P|221:106|215:124,1,60.5000018463135,8|0,0:1|0:0,0:0:0:0:
133,140,164294,2,0,P|132:206|138:224,1,60.5000018463135,8|8,0:0|0:0,0:0:0:0:
78,312,164548,1,8,0:1:0:0:
50,281,164675,1,8,0:0:0:0:
31,243,164802,1,8,0:0:0:0:
25,201,164929,1,8,0:0:0:0:
31,159,165055,6,0,P|43:86|22:41,3,110,10|2|2|2,0:0|0:0|0:0|0:0,0:0:0:0:
30,53,167090,6,0,B|83:56|83:56|108:73|108:73|185:74,1,131.99999597168,14|0,0:0|0:0,0:0:0:0:
219,148,167472,1,8,0:0:0:0:
219,148,167599,2,0,P|275:119|287:104,1,65.9999979858399,10|0,1:0|0:0,0:0:0:0:
357,161,167853,2,0,P|379:101|378:82,1,65.9999979858399,8|0,0:0|0:0,0:0:0:0:
341,15,168107,2,0,P|427:14|476:94,1,131.99999597168,10|0,0:0|0:0,0:0:0:0:
497,126,168488,2,0,P|411:127|362:47,1,131.99999597168,2|0,0:0|0:0,0:0:0:0:
341,15,168870,2,0,L|269:22,1,65.9999979858399,2|0,0:0|0:0,0:0:0:0:
207,83,169124,6,0,B|192:135|192:135|211:250,1,131.99999597168,10|0,0:0|0:0,0:0:0:0:
279,265,169505,2,0,B|294:213|294:213|275:98,1,131.99999597168,2|2,0:0|0:0,0:0:0:0:
207,83,169887,2,0,P|140:75|116:82,1,65.9999979858399,2|0,0:0|0:0,0:0:0:0:
64,124,170141,2,0,P|40:53|52:-2,2,131.99999597168,10|0|8,0:0|0:0|1:0,0:0:0:0:
87,307,170904,2,0,P|89:268|99:236,1,65.9999979858399,2|0,0:0|0:0,0:0:0:0:
138,160,171158,6,0,B|178:182|178:182|286:168,1,131.99999597168,10|0,0:0|0:0,0:0:0:0:
344,125,171539,2,0,P|428:139|465:233,1,131.99999597168,2|0,0:0|0:0,0:0:0:0:
378,210,171921,2,0,L|381:276,1,65.9999979858399,2|2,0:0|0:0,0:0:0:0:
440,346,172175,2,0,B|400:368|400:368|292:354,1,131.99999597168,10|0,0:0|0:0,0:0:0:0:
232,314,172556,2,0,L|77:322,1,131.99999597168,2|0,0:0|0:0,0:0:0:0:
13,355,172938,2,0,P|5:322|7:290,1,65.9999979858399,2|0,0:0|0:0,0:0:0:0:
64,217,173192,6,0,P|127:194|192:210,1,131.99999597168,10|0,0:0|0:0,0:0:0:0:
266,266,173573,1,8,0:0:0:0:
266,266,173700,2,0,P|336:255|356:263,1,65.9999979858399,10|0,1:0|0:0,0:0:0:0:
420,169,173955,2,0,P|350:158|330:166,1,65.9999979858399,8|0,0:0|0:0,0:0:0:0:
254,124,174209,2,0,P|258:91|256:58,1,65.9999979858399,10|0,0:0|0:0,0:0:0:0:
158,7,174463,2,0,P|153:39|155:72,1,65.9999979858399,8|0,1:0|0:0,0:0:0:0:
79,171,174717,1,8,0:0:0:0:
64,217,174844,1,8,1:0:0:0:
73,265,174971,1,8,1:0:0:0:
102,304,175098,1,8,1:0:0:0:
146,325,175225,6,0,P|215:314|278:342,1,131.99999597168,14|0,0:0|0:0,0:0:0:0:
349,285,175607,1,8,0:0:0:0:
349,285,175734,2,0,L|353:350,1,65.9999979858399,10|0,1:0|0:0,0:0:0:0:
440,381,175988,2,0,L|436:316,1,65.9999979858399,8|0,0:0|0:0,0:0:0:0:
493,242,176243,2,0,B|504:182|504:182|481:80,1,131.99999597168,10|0,0:0|0:0,0:0:0:0:
415,56,176624,2,0,B|404:116|404:116|427:218,1,131.99999597168,2|0,0:0|0:0,0:0:0:0:
345,239,177005,2,0,P|297:235|272:215,1,65.9999979858399,2|0,0:0|0:0,0:0:0:0:
198,187,177260,6,0,P|150:191|125:211,2,65.9999979858399,10|2|2,0:0|0:0|0:0,0:0:0:0:
282,226,177641,2,0,P|293:159|277:88,1,131.99999597168,2|2,0:0|0:0,0:0:0:0:
207,40,178022,2,0,L|198:133,1,65.9999979858399,2|0,0:0|0:0,0:0:0:0:
124,158,178277,2,0,P|45:157|-1:83,2,131.99999597168,10|0|8,0:0|0:0|1:0,0:0:0:0:
282,226,179039,2,0,L|291:319,1,65.9999979858399,2|0,0:0|0:0,0:0:0:0:
362,348,179294,6,0,B|404:362|404:362|494:342,1,131.99999597168,10|0,0:0|0:0,0:0:0:0:
364,207,179802,2,0,B|322:193|322:193|232:213,1,131.99999597168,10|0,1:0|0:0,0:0:0:0:
103,339,180310,2,0,P|84:264|105:185,1,131.99999597168,10|0,0:0|0:0,0:0:0:0:
154,142,180692,1,2,0:0:0:0:
154,142,180819,2,0,P|212:154|253:142,1,65.9999979858399,10|0,1:0|0:0,0:0:0:0:
84,74,181073,2,0,P|51:74|20:85,1,65.9999979858399,0|0,0:0|0:0,0:0:0:0:
168,35,181327,6,0,P|270:41|312:107,1,131.99999597168,14|0,0:0|0:0,0:0:0:0:
354,129,181709,1,0,0:0:0:0:
354,129,181836,2,0,L|499:123,1,131.99999597168,10|2,1:0|0:0,0:0:0:0:
334,229,182344,2,0,L|221:233,1,65.9999979858399,10|8,0:0|0:0,0:0:0:0:
186,185,182599,1,8,1:0:0:0:
181,189,182726,1,0,1:0:0:0:
176,193,182853,2,0,P|165:124|172:98,1,65.9999979858399,10|8,0:0|1:0,0:0:0:0:
85,33,183107,2,0,P|83:65|73:97,1,65.9999979858399,8|8,1:0|1:0,0:0:0:0:
45,198,183361,6,0,B|32:254|32:254|53:363,1,131.99999597168,14|0,0:0|0:0,0:0:0:0:
130,365,183743,2,0,P|200:372|254:334,1,131.99999597168,10|0,0:0|0:0,0:0:0:0:
320,280,184124,2,0,P|400:297|426:321,1,65.9999979858399,2|0,0:0|0:0,0:0:0:0:
459,342,184378,2,0,B|471:287|471:287|451:158,1,131.99999597168,10|0,0:0|0:0,0:0:0:0:
384,158,184760,2,0,B|372:213|372:213|392:342,1,131.99999597168,2|0,0:0|0:0,0:0:0:0:
308,341,185141,2,0,L|294:254,1,65.9999979858399,2|0,0:0|0:0,0:0:0:0:
236,206,185395,6,0,P|170:187|83:222,1,131.99999597168,10|2,0:0|0:0,0:0:0:0:
43,267,185777,2,0,L|37:343,2,65.9999979858399,2|8|2,0:0|1:0|0:0,0:0:0:0:
110,202,186158,2,0,P|115:164|103:111,1,65.9999979858399,2|0,0:0|0:0,0:0:0:0:
90,46,186412,2,0,P|159:57|187:74,1,65.9999979858399,10|0,0:0|0:0,0:0:0:0:
222,118,186666,2,0,P|253:109|286:108,1,65.9999979858399,2|0,0:0|0:0,0:0:0:0:
362,24,186921,2,0,P|367:79|376:109,1,65.9999979858399,8|0,1:0|0:0,0:0:0:0:
445,141,187175,2,0,P|440:196|431:226,1,65.9999979858399,2|0,0:0|0:0,0:0:0:0:
478,288,187429,6,0,P|394:298|335:244,1,131.99999597168,10|2,0:0|0:0,0:0:0:0:
272,314,187810,2,0,B|258:255|258:255|266:154,1,131.99999597168,2|0,0:0|0:0,0:0:0:0:
175,214,188192,2,0,L|179:148,1,65.9999979858399,2|0,0:0|0:0,0:0:0:0:
137,66,188446,2,0,P|51:71|2:144,1,131.99999597168,10|0,0:0|0:0,0:0:0:0:
78,170,188827,2,0,B|92:229|92:229|84:330,1,131.99999597168,2|0,0:0|0:0,0:0:0:0:
3,342,189209,2,0,L|10:233,1,65.9999979858399,2|0,0:0|0:0,0:0:0:0:
142,364,189463,6,0,P|222:361|276:278,1,131.99999597168,10|0,0:0|0:0,0:0:0:0:
183,149,189972,2,0,B|168:203|168:203|187:308,1,131.99999597168,10|0,1:0|0:0,0:0:0:0:
258,328,190353,1,8,0:0:0:0:
258,328,190480,2,0,P|309:328|363:370,1,65.9999979858399,10|8,0:0|0:0,0:0:0:0:
413,362,190734,1,8,1:0:0:0:
419,364,190861,1,8,1:0:0:0:
425,366,190988,2,0,P|431:312|414:254,1,65.9999979858399,10|8,0:0|1:0,0:0:0:0:
344,164,191243,2,0,P|342:196|348:229,1,65.9999979858399,8|8,1:0|1:0,0:0:0:0:
510,116,191497,6,0,P|435:81|358:109,1,131.99999597168,14|0,0:0|0:0,0:0:0:0:
344,164,191878,2,0,B|280:166|280:166|262:159|262:159|191:160,1,131.99999597168,2|0,0:0|0:0,0:0:0:0:
124,186,192260,2,0,P|127:155|120:107,1,65.9999979858399,10|0,0:0|0:0,0:0:0:0:
43,74,192514,2,0,P|40:106|43:139,1,65.9999979858399,10|0,0:0|0:0,0:0:0:0:
24,232,192768,1,2,0:0:0:0:
24,232,192895,2,0,B|14:285|14:285|28:377,1,131.99999597168,2|0,0:0|0:0,0:0:0:0:
101,308,193277,2,0,P|140:303|176:312,1,65.9999979858399,2|0,0:0|0:0,0:0:0:0:
304,367,193531,6,0,P|265:372|229:363,1,65.9999979858399,14|0,0:0|0:0,0:0:0:0:
166,311,193785,1,2,0:0:0:0:
166,311,193912,2,0,P|151:234|171:163,1,131.99999597168,2|0,0:0|0:0,0:0:0:0:
217,65,194294,2,0,P|226:134|241:163,1,65.9999979858399,2|0,0:0|0:0,0:0:0:0:
309,200,194548,2,0,P|318:131|333:102,1,65.9999979858399,10|8,0:0|0:1,0:0:0:0:
374,63,194802,1,10,0:1:0:0:
374,63,194929,2,0,P|447:67|502:149,1,131.99999597168,10|8,0:1|0:0,0:0:0:0:
446,187,195310,2,0,L|451:271,1,65.9999979858399,10|8,1:0|1:0,0:0:0:0:
415,339,195565,5,12,0:0:0:0:
402,296,196582,5,12,0:0:0:0:
389,253,197599,5,12,0:0:0:0:
256,192,197726,12,8,199378,0:0:0:0:
376,210,199633,5,12,0:0:0:0:
256,192,199760,12,12,201158,0:1:0:0:
128,252,201412,6,0,L|135:335,1,55,0|0,0:0|0:0,0:0:0:0:
46,232,201666,2,0,P|101:172|197:205,1,165,14|0,0:0|0:0,0:0:0:0:
235,235,202175,1,8,0:0:0:0:
373,168,202429,1,2,0:0:0:0:
373,168,202683,2,0,B|362:221|362:221|377:286,1,110,10|0,0:0|0:0,0:0:0:0:
454,143,203192,2,0,B|465:90|465:90|450:25,1,110,10|0,0:0|0:0,0:0:0:0:
312,99,203700,6,0,P|251:110|185:88,1,110,10|0,0:0|0:0,0:0:0:0:
81,21,204209,2,0,P|142:10|208:32,1,110,10|0,0:0|0:0,0:0:0:0:
63,119,204717,1,10,0:0:0:0:
101,268,204972,2,0,L|105:224,2,36.6666666666667,0|0|0,0:0|0:0|0:0,0:0:0:0:
74,296,205226,2,0,B|121:283|121:283|204:310,1,110,10|0,0:0|0:0,0:0:0:0:
321,348,205734,5,10,0:0:0:0:
375,349,205861,1,0,0:0:0:0:
423,325,205988,1,0,0:0:0:0:
454,280,206115,1,0,0:0:0:0:
459,226,206243,2,0,L|449:142,3,55,10|0|0|0,0:0|0:0|0:0|0:0,0:0:0:0:
482,42,206751,5,10,0:0:0:0:
428,41,206878,1,0,0:0:0:0:
380,65,207005,1,0,0:0:0:0:
349,110,207132,1,0,0:0:0:0:
344,164,207260,2,0,L|354:248,3,55,10|0|0|0,0:0|0:0|0:0|0:0,0:0:0:0:
321,348,207768,5,10,0:0:0:0:
263,356,207895,1,0,0:0:0:0:
210,340,208022,1,0,0:0:0:0:
170,301,208149,1,0,0:0:0:0:
154,247,208277,1,10,0:0:0:0:
175,197,208404,1,0,0:0:0:0:
175,141,208531,1,2,0:0:0:0:
152,90,208658,1,0,0:0:0:0:
109,52,208785,5,10,0:0:0:0:
68,185,209039,2,0,L|20:158,2,55,0|0|10,0:0|0:0|0:0,0:0:0:0:
27,322,209548,1,10,0:0:0:0:
146,215,209802,6,0,B|261:172|237:278|387:220,1,220,10|8,0:0|0:0,0:0:0:0:
507,185,210565,1,2,0:0:0:0:
439,320,210819,2,0,B|426:260|426:260|435:184,1,110,10|0,0:0|0:0,0:0:0:0:
499,76,211327,2,0,B|512:136|512:136|503:212,1,110,10|0,0:0|0:0,0:0:0:0:
407,27,211836,6,0,B|330:23|330:23|295:40|295:40|160:36,1,220,10|8,0:0|0:0,0:0:0:0:
56,112,212599,1,2,0:0:0:0:
191,144,212853,2,0,P|202:90|190:37,1,110,10|0,0:0|0:0,0:0:0:0:
56,112,213361,2,0,P|44:165|56:218,1,110,10|0,0:0|0:0,0:0:0:0:
146,344,213870,6,0,B|133:333|133:333|96:365|46:348,2,110,10|2|10,0:0|0:0|0:0,0:0:0:0:
299,327,214633,1,0,0:0:0:0:
299,327,214760,1,0,0:0:0:0:
299,327,214887,2,0,P|363:320|425:356,2,110,10|2|10,0:0|0:0|0:0,0:0:0:0:
161,257,215649,1,0,0:0:0:0:
46,348,215904,6,0,B|36:287|36:287|47:202,1,110,10|0,0:0|0:0,0:0:0:0:
157,148,216412,2,0,B|167:209|167:209|156:294,1,110,10|0,0:0|0:0,0:0:0:0:
95,70,216921,2,0,P|154:47|220:80,1,110,10|0,0:0|0:0,0:0:0:0:
360,139,217429,2,0,P|301:162|235:129,1,110,10|0,0:0|0:0,0:0:0:0:
462,59,217938,5,14,0:0:0:0:
465,167,218192,2,0,B|474:107|474:107|452:22,1,110,0|10,0:0|0:0,0:0:0:0:
312,98,218700,1,0,0:0:0:0:
459,179,218955,1,10,0:0:0:0:
375,30,219209,1,0,0:0:0:0:
397,251,219463,2,0,L|404:338,1,82.5000031471254,8|0,1:0|0:0,0:0:0:0:
258,281,219972,5,10,0:0:0:0:
403,333,220226,2,0,P|476:328|510:290,2,110,0|10|0,0:0|0:0|0:0,0:0:0:0:
304,214,220988,1,10,0:0:0:0:
290,367,221243,1,0,0:0:0:0:
232,167,221497,2,0,L|129:159,1,82.5000031471254,8|0,1:0|0:0,0:0:0:0:
1,202,222005,5,10,0:0:0:0:
149,160,222260,2,0,P|159:220|137:287,2,110,0|10|0,0:0|0:0|0:0,0:0:0:0:
171,7,223022,1,10,0:0:0:0:
76,128,223277,1,0,0:0:0:0:
282,86,223531,2,0,L|364:92,1,82.5000031471254,8|0,1:0|0:0,0:0:0:0:
500,21,224039,6,0,B|523:107|463:90|495:185,1,165,10|0,0:0|0:0,0:0:0:0:
431,227,224548,1,8,0:0:0:0:
504,352,224802,2,0,P|450:374|366:342,1,110,2|8,0:0|0:0,0:0:0:0:
280,301,225310,1,0,0:0:0:0:
95,338,225565,1,8,1:0:0:0:
192,242,225819,1,8,0:0:0:0:
27,282,226073,6,0,B|14:205|14:205|27:109,2,140.250002675057,12|2|8,0:0|0:0|0:0,0:0:0:0:
108,178,227090,2,0,B|203:152|180:224|289:195,1,187.000003566742,8|0,1:0|3:0,0:0:0:0:
424,122,227853,1,8,0:0:0:0:
502,226,228107,6,0,B|515:149|515:149|502:53,2,140.250002675057,10|2|8,0:0|0:0|0:0,0:0:0:0:
424,122,229124,2,0,P|370:126|339:154,1,93.500001783371,8|8,1:0|0:0,0:0:0:0:
291,216,229505,1,8,0:0:0:0:
249,214,229633,1,8,1:0:0:0:
202,211,229760,1,8,0:0:0:0:
155,208,229887,1,8,0:0:0:0:
109,205,230014,1,8,0:0:0:0:
73,239,230141,6,0,P|55:168|71:115,1,110,12|0,0:0|0:0,0:0:0:0:
27,63,230522,1,8,0:0:0:0:
27,63,230649,2,0,B|64:45|64:45|176:68,1,110,10|8,1:0|0:0,0:0:0:0:
212,92,231031,1,0,0:0:0:0:
212,92,231158,2,0,L|352:89,1,110,10|0,1:0|0:0,0:0:0:0:
392,48,231539,1,8,0:0:0:0:
392,48,231666,2,0,P|467:66|469:143,1,165,10|0,1:0|0:0,0:0:0:0:
433,230,232175,6,0,P|440:297|457:336,1,60.5000018463135,8|0,0:1|0:0,0:0:0:0:
348,305,232429,2,0,P|348:335|342:365,1,60.5000018463135,8|8,0:0|0:0,0:0:0:0:
253,378,232683,2,0,P|247:348|247:317,1,60.5000018463135,8|0,0:1|0:0,0:0:0:0:
166,203,232938,2,0,P|159:270|142:309,1,60.5000018463135,8|8,0:0|0:0,0:0:0:0:
82,367,233192,1,8,0:1:0:0:
55,327,233319,1,0,0:0:0:0:
43,278,233446,1,8,0:0:0:0:
50,230,233573,1,8,0:0:0:0:
72,187,233700,1,8,0:1:0:0:
100,142,233827,1,8,0:0:0:0:
100,88,233954,1,8,0:0:0:0:
73,43,234081,1,8,0:0:0:0:
27,22,234208,5,10,0:0:0:0:
34,66,236243,6,0,P|12:127|39:216,1,142.99999345398,14|0,0:0|0:0,0:0:0:0:
7,301,236624,1,8,0:0:0:0:
7,301,236751,2,0,P|46:291|95:304,1,71.4999967269899,10|0,1:0|0:0,0:0:0:0:
173,319,237005,2,0,P|208:323|242:313,1,71.4999967269899,8|0,0:0|0:0,0:0:0:0:
328,260,237260,2,0,P|410:259|461:355,1,142.99999345398,10|0,0:0|0:0,0:0:0:0:
365,352,237641,2,0,P|283:353|232:257,1,142.99999345398,2|0,0:0|0:0,0:0:0:0:
158,258,238022,2,0,P|147:292|149:327,1,71.4999967269899,2|0,0:0|0:0,0:0:0:0:
52,354,238277,6,0,B|37:292|37:292|53:194,1,142.99999345398,10|0,0:0|0:0,0:0:0:0:
3,125,238658,2,0,P|77:108|142:142,1,142.99999345398,2|0,0:0|0:0,0:0:0:0:
222,184,239039,2,0,L|306:178,1,71.4999967269899,2|0,0:0|0:0,0:0:0:0:
385,220,239294,2,0,B|397:141|397:141|382:79,2,142.99999345398,10|0|8,0:0|0:0|1:0,0:0:0:0:
234,103,240056,2,0,L|216:20,1,71.4999967269899,2|0,0:0|0:0,0:0:0:0:
166,163,240310,6,0,P|226:198|292:177,1,142.99999345398,10|2,0:0|0:0,0:0:0:0:
364,107,240692,2,0,P|447:99|511:182,1,142.99999345398,2|0,0:0|0:0,0:0:0:0:
414,195,241073,2,0,L|411:270,1,71.4999967269899,2|2,0:0|0:0,0:0:0:0:
346,342,241327,2,0,B|295:366|295:366|200:346,1,142.99999345398,10|2,0:0|0:0,0:0:0:0:
111,367,241709,2,0,P|88:268|115:199,1,142.99999345398,2|0,0:0|0:0,0:0:0:0:
31,155,242090,2,0,P|104:127|142:138,1,71.4999967269899,2|0,0:0|0:0,0:0:0:0:
97,26,242344,6,0,P|186:36|241:118,1,142.99999345398,10|0,0:0|0:0,0:0:0:0:
252,171,242726,1,8,0:0:0:0:
252,171,242853,2,0,P|284:155|319:154,1,71.4999967269899,10|0,1:0|0:0,0:0:0:0:
448,100,243107,2,0,P|415:84|380:83,1,71.4999967269899,8|0,0:0|0:0,0:0:0:0:
420,212,243361,2,0,L|426:304,1,71.4999967269899,10|0,0:0|0:0,0:0:0:0:
341,362,243616,2,0,L|336:290,1,71.4999967269899,8|0,1:0|0:0,0:0:0:0:
231,241,243870,1,8,0:0:0:0:
178,235,243997,1,8,1:0:0:0:
127,253,244124,1,8,1:0:0:0:
89,290,244251,1,8,1:0:0:0:
70,339,244378,6,0,P|50:257|64:193,1,142.99999345398,14|0,0:0|0:0,0:0:0:0:
113,114,244760,1,8,0:0:0:0:
113,114,244887,2,0,P|178:120|204:113,1,71.4999967269899,10|0,1:0|0:0,0:0:0:0:
253,189,245141,2,0,P|313:164|333:146,1,71.4999967269899,8|0,0:0|0:0,0:0:0:0:
405,45,245395,2,0,B|396:106|396:106|420:225,1,142.99999345398,10|0,0:0|0:0,0:0:0:0:
492,247,245777,2,0,B|501:186|501:186|477:67,1,142.99999345398,2|0,0:0|0:0,0:0:0:0:
405,45,246158,2,0,L|327:43,1,71.4999967269899,2|0,0:0|0:0,0:0:0:0:
237,16,246412,6,0,L|159:14,2,71.4999967269899,10|2|2,0:0|0:0|0:0,0:0:0:0:
333,43,246794,2,0,P|350:119|296:218,1,142.99999345398,2|2,0:0|0:0,0:0:0:0:
238,215,247175,2,0,L|247:310,1,71.4999967269899,2|0,0:0|0:0,0:0:0:0:
163,344,247429,2,0,P|71:322|43:236,2,142.99999345398,10|0|8,0:0|0:0|1:0,0:0:0:0:
344,257,248192,2,0,L|350:328,1,71.4999967269899,2|0,0:0|0:0,0:0:0:0:
437,376,248446,6,0,B|451:313|451:313|434:206,1,142.99999345398,10|0,0:0|0:0,0:0:0:0:
266,130,248955,2,0,B|251:192|251:192|268:299,1,142.99999345398,10|0,1:0|0:0,0:0:0:0:
323,48,249463,2,0,P|243:32|168:97,1,142.99999345398,10|8,0:0|0:1,0:0:0:0:
117,127,249844,1,8,0:1:0:0:
117,127,249972,2,0,L|122:221,1,71.4999967269899,10|8,0:0|1:0,0:0:0:0:
45,328,250226,2,0,L|41:256,1,71.4999967269899,8|8,1:0|1:0,0:0:0:0:
225,346,250480,6,0,B|285:360|285:360|415:323,1,142.99999345398,14|0,0:0|0:0,0:0:0:0:
259,190,250861,2,0,B|199:176|199:176|69:213,1,142.99999345398,10|0,0:0|0:0,0:0:0:0:
198,262,251243,2,0,L|309:283,1,71.4999967269899,10|0,0:0|0:0,0:0:0:0:
363,337,251497,2,0,P|445:318|419:224,1,142.99999345398,2|0,1:0|0:0,0:0:0:0:
389,193,251878,1,8,0:0:0:0:
389,193,251942,1,8,0:0:0:0:
389,193,252005,2,0,P|380:119|384:103,1,71.4999967269899,8|8,0:1|0:0,0:0:0:0:
476,55,252260,2,0,P|476:90|466:124,1,71.4999967269899,8|8,0:0|0:0,0:0:0:0:
360,16,252514,6,0,P|283:20|235:106,1,131.99999597168,14|0,0:0|0:0,0:0:0:0:
172,112,252895,2,0,L|16:103,1,131.99999597168,2|0,0:0|0:0,0:0:0:0:
78,189,253277,2,0,L|159:193,1,65.9999979858399,2|0,0:0|0:0,0:0:0:0:
209,257,253531,2,0,P|305:269|358:218,1,131.99999597168,10|0,0:0|0:0,0:0:0:0:
410,300,253912,2,0,B|427:248|427:248|407:140,1,131.99999597168,2|0,0:0|0:0,0:0:0:0:
505,175,254294,2,0,L|484:82,1,65.9999979858399,2|0,0:0|0:0,0:0:0:0:
437,34,254548,6,0,P|365:7|293:36,1,131.99999597168,10|2,0:0|0:0,0:0:0:0:
228,54,254929,2,0,L|121:48,2,65.9999979858399,2|8|0,0:0|1:0|0:0,0:0:0:0:
300,110,255310,2,0,L|365:113,1,65.9999979858399,2|0,0:0|0:0,0:0:0:0:
432,178,255565,2,0,P|438:236|422:280,1,65.9999979858399,10|0,0:0|0:0,0:0:0:0:
348,271,255819,2,0,P|345:303|352:335,1,65.9999979858399,2|0,0:0|0:0,0:0:0:0:
241,369,256073,2,0,P|243:336|236:304,1,65.9999979858399,8|0,1:0|0:0,0:0:0:0:
146,283,256327,2,0,P|140:225|156:181,1,65.9999979858399,2|0,0:0|0:0,0:0:0:0:
208,143,256582,6,0,P|148:118|86:136,1,131.99999597168,10|0,0:0|0:0,0:0:0:0:
141,218,256963,2,0,P|200:242|262:224,1,131.99999597168,2|0,0:0|0:0,0:0:0:0:
344,181,257344,2,0,L|354:285,1,65.9999979858399,2|0,0:0|0:0,0:0:0:0:
434,286,257599,2,0,L|420:136,1,131.99999597168,10|0,0:0|0:0,0:0:0:0:
475,79,257980,2,0,B|427:57|427:57|345:75,1,131.99999597168,2|0,0:0|0:0,0:0:0:0:
265,111,258361,2,0,L|253:23,1,65.9999979858399,2|0,0:0|0:0,0:0:0:0:
349,73,258616,6,0,P|355:150|310:215,1,131.99999597168,10|0,0:0|0:0,0:0:0:0:
242,33,259124,2,0,B|188:13|188:13|89:33,1,131.99999597168,10|2,1:0|0:0,0:0:0:0:
52,96,259505,1,8,0:0:0:0:
52,96,259633,2,0,L|60:177,1,65.9999979858399,10|0,0:0|0:0,0:0:0:0:
34,250,259887,1,8,1:0:0:0:
36,256,260014,1,8,1:0:0:0:
37,262,260141,2,0,P|101:266|122:258,1,65.9999979858399,10|8,0:0|1:0,0:0:0:0:
171,326,260395,2,0,P|220:285|230:265,1,65.9999979858399,8|8,1:0|1:0,0:0:0:0:
282,196,260649,6,0,P|381:189|432:257,1,131.99999597168,14|2,0:0|0:0,0:0:0:0:
477,261,261031,2,0,B|488:200|488:200|467:108,1,131.99999597168,2|0,0:0|0:0,0:0:0:0:
411,62,261412,2,0,P|344:81|316:111,1,65.9999979858399,10|0,0:0|0:0,0:0:0:0:
264,117,261666,2,0,L|180:114,1,65.9999979858399,10|0,0:0|0:0,0:0:0:0:
123,58,261921,1,2,0:0:0:0:
123,58,262048,2,0,P|48:78|24:174,1,131.99999597168,2|0,0:0|0:0,0:0:0:0:
44,210,262429,1,2,0:0:0:0:
43,216,262556,1,2,0:0:0:0:
42,222,262683,6,0,L|53:323,1,65.9999979858399,14|0,0:0|0:0,0:0:0:0:
121,354,262938,1,2,0:0:0:0:
121,354,263065,2,0,P|209:344|253:285,1,131.99999597168,2|0,0:0|0:0,0:0:0:0:
315,266,263446,2,0,L|325:359,1,65.9999979858399,10|0,0:0|0:0,0:0:0:0:
409,362,263700,2,0,L|401:296,1,65.9999979858399,10|8,0:0|0:1,0:0:0:0:
449,216,263955,1,10,0:1:0:0:
449,216,264082,2,0,B|454:155|454:155|429:54,1,131.99999597168,10|8,0:1|0:0,0:0:0:0:
336,110,264463,2,0,L|261:106,1,65.9999979858399,10|8,1:0|1:0,0:0:0:0:
174,128,264717,5,12,0:0:0:0:
176,148,265734,1,12,0:0:0:0:
178,168,266751,1,12,0:0:0:0:
256,192,266878,12,8,268531,0:0:0:0:
180,188,268785,5,12,0:0:0:0:
256,192,268912,12,14,270819,0:0:0:0:
