osu file format v14

[General]
AudioFilename: audio.mp3
AudioLeadIn: 0
PreviewTime: 73518
Countdown: 0
SampleSet: Soft
StackLeniency: 0.5
Mode: 0
LetterboxInBreaks: 0
WidescreenStoryboard: 0

[Editor]
Bookmarks: 12501,22671,38942,55213,63349,71484,73518,81654,89789,101993,108094,116230,132501,148772,156908,165044,167077,175213,183349,195552,201654,217925,226061,236230,244365,252501,264704,270806,278942
DistanceSpacing: 1.6
BeatDivisor: 4
GridSize: 4
TimelineZoom: 3.199999

[Metadata]
Title:Yes, my master my lord
TitleUnicode:Yes, my master my lord
Artist:Jibril (CV: Tamura Yukari)
ArtistUnicode:ジブリール (CV: 田村 ゆかり)
Creator:StripedGoose
Version:Pure loyalty
Source:ノーゲーム・ノーライフ
Tags:no game no life コンプリートソングス complete songs flugel ost ngnl anime japanese pop j-pop jpop character song
BeatmapID:2932023
BeatmapSetID:1423728

[Difficulty]
HPDrainRate:5.4
CircleSize:4.4
OverallDifficulty:8.4
ApproachRate:8.4
SliderMultiplier:1.8
SliderTickRate:1

[Events]
//Background and Video events
0,0,"BG.jpg",0,0
//Break Periods
//Storyboard Layer 0 (Background)
//Storyboard Layer 1 (Fail)
//Storyboard Layer 2 (Pass)
//Storyboard Layer 3 (Foreground)
//Storyboard Layer 4 (Overlay)
//Storyboard Sound Samples

[TimingPoints]
4366,508.474576271186,4,2,2,40,1,0
4366,-125,4,2,2,40,0,0
12247,-125,4,2,1,30,0,0
12501,-111.111111111111,4,2,1,60,0,0
22289,-111.111111111111,4,2,1,20,0,0
22671,-142.857142857143,4,2,1,50,0,0
38942,-125,4,2,1,55,0,0
55213,-153.846153846153,4,2,1,50,0,0
56993,-117.647058823529,4,2,1,55,0,0
59281,-153.846153846153,4,2,1,50,0,0
67416,-133.333333333333,4,2,1,50,0,0
69450,-153.846153846153,4,2,1,50,0,0
71484,-499.999999999997,4,2,1,20,0,0
73518,-83.3333333333333,4,2,1,70,0,1
81654,-80,4,2,1,70,0,1
89789,-76.9230769230769,4,2,1,70,0,1
101993,-200,4,2,1,40,0,0
104027,-333.333333333333,4,2,1,30,0,0
106060,-400,4,2,1,20,0,0
107586,-400,4,2,1,40,0,0
108094,-111.111111111111,4,2,1,60,0,0
116230,-133.333333333333,4,2,1,50,0,0
132501,-125,4,2,1,55,0,0
148772,-153.846153846154,4,2,1,50,0,0
150552,-117.64705882353,4,2,1,55,0,0
152840,-153.846153846155,4,2,1,50,0,0
160976,-133.333333333334,4,2,1,50,0,0
163010,-153.846153846155,4,2,1,50,0,0
165043,-499.999999999997,4,2,1,20,0,0
167077,-76.9230769230769,4,2,1,70,0,1
175213,-74.0740740740741,4,2,1,70,0,1
183349,-71.4285714285714,4,2,1,70,0,1
195552,-166.666666666667,4,2,1,40,0,0
197586,-250.000000000001,4,2,1,30,0,0
199620,-285.714285714286,4,2,1,20,0,0
201145,-285.714285714286,4,2,1,40,0,0
201654,-100,4,2,1,60,0,0
213857,-90.9090909090909,4,2,1,61,0,0
214365,-83.3333333333333,4,2,1,62,0,0
214874,-76.9230769230769,4,2,1,63,0,0
215382,-71.4285714285714,4,2,1,64,0,0
215891,-66.6666666666667,4,2,1,65,0,0
216399,-62.5,4,2,1,66,0,0
216908,-58.8235294117647,4,2,1,67,0,0
217416,-55.5555555555556,4,2,1,68,0,0
217925,-111.111111111111,4,2,1,60,0,0
235595,-111.111111111111,4,2,1,20,0,0
236230,-71.4285714285714,4,2,1,70,0,1
244365,-68.9655172413793,4,2,1,70,0,1
252501,-66.6666666666667,4,2,1,70,0,1
264704,-142.857142857143,4,2,1,40,0,0
266738,-200,4,2,1,30,0,0
268772,-222.222222222222,4,2,1,20,0,0
270298,-222.222222222222,4,2,1,40,0,0
270806,-111.111111111111,4,2,1,60,0,0
278942,-125,4,2,2,30,0,0
280976,-166.666666666667,4,2,2,25,0,0
281993,-500,4,2,2,20,0,0

[Colours]
Combo1 : 255,0,0
Combo2 : 192,192,192
Combo3 : 96,96,96
Combo4 : 128,255,255
Combo5 : 255,128,192
Combo6 : 128,128,255
Combo7 : 210,62,143
Combo8 : 128,0,128

[HitObjects]
112,316,4111,37,0,0:0:0:0:
104,292,4238,1,0,0:0:0:0:
96,268,4366,2,0,L|80:212,1,36,2|0,0:0|0:0,0:0:0:0:
176,248,4620,5,0,0:0:0:0:
184,224,4747,1,0,0:0:0:0:
192,200,4874,2,0,L|208:144,1,36,2|0,0:0|0:0,0:0:0:0:
176,48,5128,2,0,L|167:83,1,36
104,132,5382,101,2,0:0:0:0:
104,132,5637,1,0,0:0:0:0:
136,144,5764,1,0,0:0:0:0:
167,155,5891,2,0,L|223:171,1,36,2|0,0:0|0:0,0:0:0:0:
276,72,6145,1,0,0:0:0:0:
310,81,6272,1,0,0:0:0:0:
364,80,6399,5,2,0:0:0:0:
390,115,6527,1,0,0:0:0:0:
436,144,6654,1,0,0:0:0:0:
430,186,6781,1,0,0:0:0:0:
448,236,6908,1,0,0:0:0:0:
414,262,7035,1,0,0:0:0:0:
384,308,7162,1,0,0:0:0:0:
342,301,7289,1,0,0:0:0:0:
272,316,7416,101,2,0:0:0:0:
204,352,7543,1,0,0:0:0:0:
204,352,7607,1,0,0:0:0:0:
204,352,7671,2,0,L|164:320,1,36
164,240,7925,2,0,L|193:263,1,36,2|0,0:0|0:0,0:0:0:0:
140,176,8179,1,0,0:0:0:0:
56,232,8306,1,0,0:0:0:0:
56,232,8370,1,0,0:0:0:0:
56,232,8433,6,0,L|72:184,1,36,2|0,0:0|0:0,0:0:0:0:
40,124,8688,1,0,0:0:0:0:
68,89,8815,1,0,0:0:0:0:
132,40,8942,1,0,0:0:0:0:
173,57,9069,1,0,0:0:0:0:
252,60,9196,1,0,0:0:0:0:
293,43,9323,1,0,0:0:0:0:
372,56,9450,102,0,L|412:88,1,36,2|0,0:0|0:0,0:0:0:0:
320,120,9704,1,0,0:0:0:0:
295,167,9832,1,0,0:0:0:0:
371,187,9959,1,2,0:0:0:0:
348,235,10087,1,0,0:0:0:0:
360,288,10213,1,0,0:0:0:0:
408,316,10341,1,0,0:0:0:0:
460,316,10467,6,0,P|436:332|388:348,1,72,2|0,0:0|0:0,0:0:0:0:
254,334,10849,101,0,0:0:0:0:
219,319,10976,1,0,0:0:0:0:
188,289,11103,1,0,0:0:0:0:
168,245,11230,1,0,0:0:0:0:
165,188,11357,1,0,0:0:0:0:
192,128,11484,1,2,0:0:0:0:
256,192,11611,12,2,12247,0:0:0:0:
192,128,12501,6,0,B|200:96|200:48,1,80.9999975280763,14|0,0:0|0:0,0:0:0:0:
200,16,12882,1,2,0:0:0:0:
200,16,13010,1,10,0:0:0:0:
96,80,13264,2,0,L|48:106,1,40.4999987640381,2|0,0:0|0:0,0:0:0:0:
44,112,13518,6,0,P|64:124|76:140,1,40.4999987640381,10|0,0:0|0:0,0:0:0:0:
72,176,13772,2,0,P|84:191|102:201,1,40.4999987640381,2|0,0:0|0:0,0:0:0:0:
144,200,14027,1,10,0:0:0:0:
288,176,14281,2,0,L|248:213,1,40.4999987640381,2|0,0:0|0:0,0:0:0:0:
244,219,14535,6,0,P|266:225|282:237,1,40.4999987640381,10|0,0:0|0:0,0:0:0:0:
288,274,14789,2,0,P|304:285|324:290,1,40.4999987640381,2|0,0:0|0:0,0:0:0:0:
364,277,15044,1,10,0:0:0:0:
504,240,15298,2,0,L|475:286,1,40.4999987640381,2|0,0:0|0:0,0:0:0:0:
420,236,15552,69,10,0:0:0:0:
404,208,15679,1,2,0:0:0:0:
408,176,15806,1,2,0:0:0:0:
432,156,15933,1,2,0:0:0:0:
488,204,16060,5,10,0:0:0:0:
348,140,16315,1,2,0:0:0:0:
352,132,16442,1,2,0:0:0:0:
356,124,16569,6,0,P|376:108|408:92,1,40.4999987640381,10|0,0:0|0:0,0:0:0:0:
444,40,16823,1,2,0:0:0:0:
428,28,16950,1,2,0:0:0:0:
408,24,17077,2,0,L|346:25,1,40.4999987640381,10|0,0:0|0:0,0:0:0:0:
244,28,17332,2,0,L|305:26,1,40.4999987640381,2|0,0:0|0:0,0:0:0:0:
184,88,17586,6,0,B|208:96|208:96|280:104,1,80.9999975280763,10|0,0:0|0:0,0:0:0:0:
280,104,17967,1,2,0:0:0:0:
200,168,18094,2,0,B|224:176|224:176|296:184,1,80.9999975280763,10|0,0:0|0:0,0:0:0:0:
436,224,18603,69,10,0:0:0:0:
400,256,18730,1,2,0:0:0:0:
352,272,18857,1,2,0:0:0:0:
304,272,18984,1,2,0:0:0:0:
184,280,19111,6,0,P|167:293|149:303,1,40.4999987640381,10|0,0:0|0:0,0:0:0:0:
102,311,19365,1,2,0:0:0:0:
122,268,19493,1,2,0:0:0:0:
192,168,19620,5,10,0:0:0:0:
160,128,19747,1,2,0:0:0:0:
168,72,19874,1,2,0:0:0:0:
120,24,20001,1,2,0:0:0:0:
48,48,20128,5,10,0:0:0:0:
16,120,20255,1,2,0:0:0:0:
64,192,20382,1,2,0:0:0:0:
32,280,20510,1,2,0:0:0:0:
256,192,20637,12,2,22417,0:0:0:0:
24,328,22671,38,0,P|51:348|80:356,1,62.9999980773926,14|0,0:0|0:0,0:0:0:0:
176,360,23179,1,2,0:0:0:0:
176,360,23433,1,2,0:0:0:0:
204,276,23688,1,2,0:0:0:0:
204,276,23815,1,2,0:0:0:0:
204,276,23942,1,2,0:0:0:0:
280,340,24196,1,2,0:0:0:0:
280,340,24323,1,2,0:0:0:0:
340,304,24450,1,2,0:0:0:0:
340,304,24577,1,2,0:0:0:0:
368,240,24704,6,0,P|400:232|428:220,1,62.9999980773926,10|8,0:0|0:0,0:0:0:0:
508,168,25213,1,2,0:0:0:0:
344,80,25467,2,0,L|352:24,1,31.4999990386963,2|0,0:0|0:0,0:0:0:0:
384,16,25721,2,0,L|376:72,1,31.4999990386963,2|0,0:0|0:0,0:0:0:0:
352,152,25976,101,2,0:0:0:0:
352,152,26103,1,2,0:0:0:0:
288,184,26230,1,2,0:0:0:0:
288,184,26357,1,2,0:0:0:0:
216,200,26484,1,2,0:0:0:0:
216,200,26611,1,2,0:0:0:0:
168,144,26738,6,0,P|149:172|138:204,1,62.9999980773926,10|8,0:0|0:0,0:0:0:0:
132,292,27247,1,2,0:0:0:0:
36,296,27501,2,0,L|76:260,1,31.4999990386963,2|0,0:0|0:0,0:0:0:0:
36,200,27755,101,2,0:0:0:0:
52,192,27882,1,2,0:0:0:0:
68,112,28010,1,2,0:0:0:0:
84,117,28137,1,2,0:0:0:0:
132,48,28264,1,2,0:0:0:0:
140,64,28391,1,2,0:0:0:0:
220,32,28518,1,2,0:0:0:0:
215,48,28645,1,2,0:0:0:0:
292,40,28772,6,0,P|320:59|351:69,1,62.9999980773926,10|8,0:0|0:0,0:0:0:0:
440,88,29281,1,2,0:0:0:0:
448,222,29535,102,0,L|464:180,1,31.4999990386963,2|0,0:0|0:0,0:0:0:0:
452,288,29789,2,0,L|468:330,1,31.4999990386963,2|0,0:0|0:0,0:0:0:0:
436,216,30043,2,0,L|452:174,1,31.4999990386963,2|0,0:0|0:0,0:0:0:0:
440,292,30298,2,0,L|456:334,1,31.4999990386963,2|0,0:0|0:0,0:0:0:0:
380,260,30552,1,2,0:0:0:0:
344,256,30679,1,2,0:0:0:0:
308,272,30806,6,0,P|276:256|248:236,1,62.9999980773926,10|8,0:0|0:0,0:0:0:0:
188,172,31315,1,2,0:0:0:0:
180,268,31569,1,2,0:0:0:0:
180,268,31696,1,2,0:0:0:0:
116,312,31823,1,2,0:0:0:0:
116,312,31950,1,2,0:0:0:0:
116,312,32077,2,0,L|68:284,1,31.4999990386963,2|0,0:0|0:0,0:0:0:0:
80,224,32332,101,2,0:0:0:0:
80,224,32459,1,2,0:0:0:0:
132,164,32586,1,2,0:0:0:0:
132,164,32713,1,2,0:0:0:0:
112,80,32840,6,0,L|156:88,1,31.4999990386963,10|0,0:0|0:0,0:0:0:0:
208,56,33094,2,0,L|252:64,1,31.4999990386963,8|0,0:0|0:0,0:0:0:0:
96,88,33349,1,2,0:0:0:0:
256,232,33603,2,0,L|248:188,1,31.4999990386963,2|0,0:0|0:0,0:0:0:0:
176,264,33857,2,0,L|180:220,1,31.4999990386963,2|0,0:0|0:0,0:0:0:0:
104,296,34111,1,2,0:0:0:0:
96,264,34238,1,2,0:0:0:0:
24,336,34365,1,2,0:0:0:0:
32,304,34493,1,2,0:0:0:0:
64,208,34620,2,0,L|100:188,1,31.4999990386963,2|0,0:0|0:0,0:0:0:0:
100,192,34874,102,0,P|71:191|44:167,1,62.9999980773926,10|8,0:0|0:0,0:0:0:0:
36,140,35255,1,2,0:0:0:0:
68,136,35382,1,2,0:0:0:0:
48,40,35637,2,0,L|80:56,1,31.4999990386963,2|0,0:0|0:0,0:0:0:0:
176,32,35891,5,2,0:0:0:0:
208,48,36018,1,2,0:0:0:0:
280,24,36145,1,2,0:0:0:0:
312,16,36272,1,2,0:0:0:0:
352,80,36399,1,2,0:0:0:0:
388,78,36527,1,2,0:0:0:0:
432,16,36654,1,2,0:0:0:0:
464,25,36781,1,2,0:0:0:0:
480,112,36908,102,0,L|468:156,1,31.4999990386963,10|0,0:0|0:0,0:0:0:0:
408,176,37162,2,0,L|416:208,1,31.4999990386963,8|0,0:0|0:0,0:0:0:0:
496,104,37416,1,2,0:0:0:0:
348,288,37671,2,0,L|336:248,1,31.4999990386963,2|0,0:0|0:0,0:0:0:0:
316,176,37925,5,2,0:0:0:0:
308,152,38052,1,2,0:0:0:0:
252,232,38179,1,2,0:0:0:0:
244,208,38306,1,2,0:0:0:0:
236,106,38433,101,2,0:0:0:0:
228,75,38560,1,2,0:0:0:0:
172,154,38688,1,2,0:0:0:0:
164,122,38815,1,2,0:0:0:0:
112,32,38942,22,0,P|88:80|80:136,1,108,14|0,0:0|0:0,0:0:0:0:
16,164,39450,2,0,L|44:208,1,36,10|0,0:0|0:0,0:0:0:0:
72,256,39704,1,2,0:0:0:0:
108,315,39832,1,2,0:0:0:0:
44,352,39959,2,0,L|0:328,1,36,10|0,0:0|0:0,0:0:0:0:
55,277,40213,1,2,0:0:0:0:
124,292,40340,1,2,0:0:0:0:
188,260,40467,6,0,L|168:213,1,36,10|0,0:0|0:0,0:0:0:0:
248,224,40721,1,2,0:0:0:0:
320,240,40849,1,2,0:0:0:0:
388,216,40976,86,0,L|394:166,1,36,10|0,0:0|0:0,0:0:0:0:
452,140,41230,1,2,0:0:0:0:
312,68,41484,2,0,L|331:114,1,36,10|0,0:0|0:0,0:0:0:0:
264,140,41738,1,2,0:0:0:0:
192,140,41865,1,2,0:0:0:0:
144,212,41993,6,0,L|124:165,1,36,10|0,0:0|0:0,0:0:0:0:
108,104,42247,1,2,0:0:0:0:
132,80,42374,1,2,0:0:0:0:
52,56,42501,1,10,0:0:0:0:
19,47,42628,1,2,0:0:0:0:
44,128,42755,1,2,0:0:0:0:
52,160,42882,1,2,0:0:0:0:
72,264,43010,6,0,P|33:252|0:232,1,72,10|2,0:0|0:0,0:0:0:0:
202,145,43518,2,0,L|183:175,1,36,10|0,0:0|0:0,0:0:0:0:
144,240,43772,1,2,0:0:0:0:
144,240,43899,1,0,0:0:0:0:
176,304,44027,69,10,0:0:0:0:
200,320,44154,1,2,0:0:0:0:
256,272,44281,1,2,0:0:0:0:
284,281,44408,1,2,0:0:0:0:
344,240,44535,5,10,0:0:0:0:
379,237,44662,1,2,0:0:0:0:
408,168,44789,1,2,0:0:0:0:
441,157,44916,1,2,0:0:0:0:
432,64,45043,6,0,P|471:76|504:96,1,72,10|2,0:0|0:0,0:0:0:0:
305,183,45552,2,0,L|324:153,1,36,10|0,0:0|0:0,0:0:0:0:
360,88,45806,1,2,0:0:0:0:
360,88,45933,1,0,0:0:0:0:
272,32,46060,85,10,0:0:0:0:
278,33,46188,1,2,0:0:0:0:
184,92,46315,1,2,0:0:0:0:
177,90,46442,1,2,0:0:0:0:
200,24,46569,5,10,0:0:0:0:
206,5,46696,1,2,0:0:0:0:
256,96,46823,1,10,0:0:0:0:
250,115,46950,1,2,0:0:0:0:
232,224,47077,6,0,P|277:252|332:264,1,108,10|0,0:0|0:0,0:0:0:0:
368,344,47586,2,0,L|336:360,1,36,10|0,0:0|0:0,0:0:0:0:
256,328,47840,1,2,0:0:0:0:
256,328,47967,1,2,0:0:0:0:
168,320,48094,1,10,0:0:0:0:
168,320,48221,1,2,0:0:0:0:
120,240,48349,6,0,L|168:224,1,36,2|0,0:0|0:0,0:0:0:0:
160,136,48603,2,0,L|125:129,1,36,10|0,0:0|0:0,0:0:0:0:
208,64,48857,1,2,0:0:0:0:
208,64,48984,1,2,0:0:0:0:
296,72,49111,70,0,L|332:80,1,36,10|0,0:0|0:0,0:0:0:0:
217,187,49365,2,0,L|252:176,1,36,2|0,0:0|0:0,0:0:0:0:
348,72,49620,1,10,0:0:0:0:
438,269,49874,2,0,L|448:224,1,36,2|0,0:0|0:0,0:0:0:0:
376,216,50128,2,0,L|366:171,1,36,10|0,0:0|0:0,0:0:0:0:
448,288,50382,1,2,0:0:0:0:
448,288,50510,1,2,0:0:0:0:
384,168,50637,1,10,0:0:0:0:
384,168,50764,1,2,0:0:0:0:
424,96,50891,2,0,L|457:113,1,36,2|0,0:0|0:0,0:0:0:0:
472,120,51145,22,0,P|440:72|440:16,1,108,10|0,0:0|0:0,0:0:0:0:
352,64,51654,2,0,L|326:38,1,36,10|0,0:0|0:0,0:0:0:0:
220,64,51908,2,0,L|245:89,1,36,2|0,0:0|0:0,0:0:0:0:
268,196,52162,5,10,0:0:0:0:
260,164,52289,1,2,0:0:0:0:
208,232,52416,1,2,0:0:0:0:
176,240,52543,1,2,0:0:0:0:
248,292,52671,1,10,0:0:0:0:
256,324,52798,1,2,0:0:0:0:
308,256,52925,2,0,L|367:235,1,36,2|0,0:0|0:0,0:0:0:0:
464,272,53179,86,0,P|461:297|453:313,1,36,10|0,0:0|0:0,0:0:0:0:
368,368,53433,2,0,P|371:343|379:327,1,36,2|0,0:0|0:0,0:0:0:0:
480,256,53688,1,10,0:0:0:0:
360,136,53942,2,0,L|301:157,1,36,2|0,0:0|0:0,0:0:0:0:
432,144,54196,5,10,0:0:0:0:
448,128,54323,1,2,0:0:0:0:
400,64,54450,1,2,0:0:0:0:
412,45,54577,1,2,0:0:0:0:
328,40,54704,5,10,0:0:0:0:
318,80,54832,1,2,0:0:0:0:
240,88,54959,1,10,0:0:0:0:
220,126,55086,1,2,0:0:0:0:
208,200,55213,70,0,P|240:208|312:208,1,87.749995983124,14|0,0:0|0:0,0:0:0:0:
336,192,55721,1,10,0:0:0:0:
224,280,55976,2,0,L|184:277,1,29.2499986610413,2|0,0:0|0:0,0:0:0:0:
112,280,56230,2,0,L|82:282,2,29.2499986610413,8|0|0,0:0|0:0|0:0,0:0:0:0:
56,184,56738,2,0,L|44:192,1,14.6249993305207,10|0,0:3|0:0,0:0:0:0:
152,112,56993,21,2,0:0:0:0:
312,168,57247,2,0,L|325:154,1,19.1250003647804,8|0,0:0|0:0,0:0:0:0:
152,112,57501,1,2,0:0:0:0:
320,80,57755,2,0,L|306:66,1,19.1250003647804,8|0,0:0|0:0,0:0:0:0:
152,112,58010,1,2,0:0:0:0:
296,240,58264,6,0,L|283:254,1,19.1250003647804,8|0,0:0|0:0,0:0:0:0:
400,168,58518,1,2,0:0:0:0:
416,360,58772,2,0,L|429:346,1,19.1250003647804,8|0,0:3|0:0,0:0:0:0:
264,344,59027,1,2,0:0:0:0:
264,344,59281,70,0,B|208:336|208:336|168:320,1,87.749995983124,14|0,0:0|0:0,0:0:0:0:
24,360,59789,1,10,3:0:0:0:
24,360,60043,6,0,B|17:303|17:303|22:260,1,87.749995983124,14|0,0:0|0:0,0:0:0:0:
0,120,60552,1,10,3:0:0:0:
0,120,60806,6,0,B|34:75|34:75|68:48,1,87.749995983124,14|0,0:0|0:0,0:0:0:0:
144,64,61315,2,0,L|132:55,1,14.6249993305207,10|0,0:0|0:0,0:0:0:0:
160,72,61442,2,0,L|156:94,1,14.6249993305207,2|0,0:0|0:0,0:0:0:0:
160,56,61569,2,0,L|173:50,1,14.6249993305207,2|0,0:0|0:0,0:0:0:0:
288,120,61823,2,0,L|273:121,1,14.6249993305207,10|0,0:0|0:0,0:0:0:0:
312,120,61950,2,0,L|325:138,1,14.6249993305207,2|0,0:0|0:0,0:0:0:0:
304,96,62077,2,0,L|309:82,1,14.6249993305207,2|0,0:0|0:0,0:0:0:0:
400,208,62332,2,0,L|388:216,1,14.6249993305207,10|0,0:0|0:0,0:0:0:0:
416,184,62459,2,0,L|412:161,1,14.6249993305207,2|0,0:0|0:0,0:0:0:0:
432,208,62586,5,10,3:0:0:0:
288,200,62840,1,10,0:0:0:0:
408,352,63094,1,10,0:0:0:0:
384,352,63221,1,10,0:0:0:0:
360,344,63349,70,0,P|321:322|289:293,1,87.749995983124,14|0,0:0|0:0,0:0:0:0:
208,216,63857,2,0,L|232:256,1,29.2499986610413,2|0,0:0|0:0,0:0:0:0:
216,352,64111,2,0,L|192:312,1,29.2499986610413,8|0,0:0|0:0,0:0:0:0:
136,200,64365,5,10,3:0:0:0:
56,328,64620,1,2,0:0:0:0:
56,328,64747,1,2,0:0:0:0:
56,328,64874,1,2,0:0:0:0:
112,270,65128,2,0,L|128:296,1,29.2499986610413,8|0,0:0|0:0,0:0:0:0:
48,232,65382,5,10,0:0:0:0:
48,232,65510,1,2,0:0:0:0:
48,232,65637,1,2,0:0:0:0:
88,152,65891,1,2,0:0:0:0:
216,184,66145,1,8,0:0:0:0:
152,88,66399,6,0,P|168:96|192:96,1,29.2499986610413,10|0,0:3|0:0,0:0:0:0:
192,72,66654,2,0,P|176:64|152:64,1,29.2499986610413,8|0,0:0|0:0,0:0:0:0:
248,16,66908,1,8,0:0:0:0:
268,50,67035,1,8,0:0:0:0:
273,89,67162,1,8,0:0:0:0:
261,129,67289,1,8,0:0:0:0:
220,204,67416,70,0,P|252:212|288:212,1,67.5000025749208,14|0,0:0|0:0,0:0:0:0:
320,204,67798,1,2,0:0:0:0:
408,256,67925,2,0,P|392:256|376:248,1,33.7500012874604,10|0,0:0|0:0,0:0:0:0:
248,272,68179,2,0,L|280:280,1,33.7500012874604,2|0,0:0|0:0,0:0:0:0:
220,204,68433,2,0,P|188:212|152:212,1,67.5000025749208,10|0,0:0|0:0,0:0:0:0:
120,204,68815,1,2,0:0:0:0:
32,256,68942,2,0,P|48:256|64:248,1,33.7500012874604,10|0,0:0|0:0,0:0:0:0:
80,148,69196,1,2,0:0:0:0:
80,336,69450,6,0,L|128:344,1,29.2499986610413,10|8,0:0|0:0,0:0:0:0:
132,340,69704,1,8,0:0:0:0:
152,332,69832,1,8,0:0:0:0:
168,316,69959,5,8,0:0:0:0:
196,296,70086,1,8,0:0:0:0:
232,292,70213,1,8,0:0:0:0:
264,304,70340,1,8,0:0:0:0:
288,332,70467,5,8,0:0:0:0:
324,364,70594,1,8,0:0:0:0:
372,364,70721,1,8,0:0:0:0:
408,336,70849,1,8,0:0:0:0:
412,288,70976,5,8,0:0:0:0:
376,244,71103,1,8,0:0:0:0:
368,188,71230,1,8,0:0:0:0:
380,132,71357,1,8,0:0:0:0:
396,124,71484,54,0,L|432:124,3,36,2|2|2|2,0:0|0:0|0:0|0:0,0:0:0:0:
152,24,73518,86,0,P|208:16|264:24,1,107.999996704102,14|0,0:0|0:0,0:0:0:0:
208,120,74027,2,0,P|261:126|314:118,1,107.999996704102,10|0,0:0|0:0,0:0:0:0:
258,22,74535,2,0,P|314:14|370:22,1,107.999996704102,10|0,0:0|0:0,0:0:0:0:
314,118,75043,1,10,0:0:0:0:
224,192,75298,1,2,0:0:0:0:
224,192,75552,5,10,0:0:0:0:
184,264,75679,1,2,0:0:0:0:
224,336,75806,1,2,0:0:0:0:
304,352,75933,1,2,0:0:0:0:
376,312,76060,2,0,B|368:264|368:264|368:184,1,107.999996704102,10|0,0:0|0:0,0:0:0:0:
224,192,76569,69,10,0:0:0:0:
152,232,76696,1,2,0:0:0:0:
80,192,76823,1,2,0:0:0:0:
64,112,76950,1,2,0:0:0:0:
120,48,77077,2,0,L|168:80,1,53.9999983520508,10|0,0:0|0:0,0:0:0:0:
224,192,77332,1,2,0:0:0:0:
208,152,77459,1,2,0:0:0:0:
224,112,77586,5,10,0:0:0:0:
296,72,77713,1,2,0:0:0:0:
376,96,77840,1,2,0:0:0:0:
416,168,77967,2,0,B|443:152|443:152|459:137,1,53.9999983520508,2|10,0:0|0:0,0:0:0:0:
440,296,78349,2,0,B|424:320|396:326,1,53.9999983520508,2|2,0:0|0:0,0:0:0:0:
364,236,78603,5,10,0:0:0:0:
288,208,78730,1,2,0:0:0:0:
208,200,78857,1,2,0:0:0:0:
128,212,78984,1,2,0:0:0:0:
56,248,79111,5,10,0:0:0:0:
176,96,79365,1,2,0:0:0:0:
246,277,79620,2,0,P|217:296|177:304,1,53.9999983520508,10|0,0:0|0:0,0:0:0:0:
145,304,79874,1,2,0:0:0:0:
92,288,80001,1,2,0:0:0:0:
176,232,80128,2,0,P|207:188|227:138,1,107.999996704102,10|0,0:0|0:0,0:0:0:0:
80,40,80637,69,10,0:0:0:0:
56,248,80891,1,10,3:0:0:0:
16,72,81145,2,0,B|8:40|8:40|16:8,1,53.9999983520508,8|0,0:0|0:0,0:0:0:0:
120,216,81399,2,0,B|128:248|128:248|120:280,1,53.9999983520508,8|0,0:0|0:0,0:0:0:0:
112,344,81654,6,0,P|168:349|224:342,1,112.5,14|0,0:0|0:0,0:0:0:0:
296,280,82162,2,0,P|352:272|416:280,1,112.5,10|0,0:0|0:0,0:0:0:0:
224,208,82671,2,0,P|168:215|112:210,1,112.5,10|0,0:0|0:0,0:0:0:0:
296,280,83179,1,10,0:0:0:0:
112,210,83433,1,2,0:0:0:0:
170,105,83688,6,0,P|200:112|225:123,1,56.25,10|0,0:0|0:0,0:0:0:0:
296,80,83942,2,0,P|326:73|351:62,1,56.25,2|0,0:0|0:0,0:0:0:0:
296,160,84196,2,0,P|326:167|351:178,1,56.25,10|0,0:0|0:0,0:0:0:0:
422,135,84450,2,0,P|452:128|477:117,1,56.25,2|0,0:0|0:0,0:0:0:0:
448,224,84704,5,10,0:0:0:0:
480,304,84832,1,2,0:0:0:0:
424,368,84959,1,2,0:0:0:0:
424,368,85213,2,0,L|352:360,1,56.25,10|0,0:0|0:0,0:0:0:0:
266,290,85467,2,0,B|296:296|296:296|328:296,1,56.25,2|0,0:0|0:0,0:0:0:0:
296,216,85721,69,10,0:0:0:0:
216,200,85849,1,2,0:0:0:0:
136,224,85976,2,0,B|106:230|106:230|74:230,1,56.25,2|0,0:0|0:0,0:0:0:0:
152,112,86230,1,10,0:0:0:0:
248,296,86484,1,2,0:0:0:0:
296,160,86738,22,0,P|312:176|357:190,1,56.25,10|0,0:0|0:0,0:0:0:0:
424,192,86993,1,2,0:0:0:0:
504,160,87120,1,2,0:0:0:0:
410,278,87247,2,0,P|373:235|342:187,1,112.5,10|0,0:0|0:0,0:0:0:0:
400,48,87755,102,0,L|345:63,1,56.25,14|0,0:0|0:0,0:0:0:0:
264,88,88010,1,2,0:0:0:0:
264,88,88137,1,2,0:0:0:0:
140,156,88264,2,0,P|169:151|195:141,1,56.25,10|0,0:0|0:0,0:0:0:0:
272,224,88518,2,0,P|243:229|217:239,1,56.25,2|0,0:0|0:0,0:0:0:0:
304,160,88772,5,10,0:0:0:0:
336,172,88899,1,2,0:0:0:0:
360,196,89027,5,2,0:0:0:0:
372,240,89154,1,2,0:0:0:0:
356,296,89281,1,10,0:0:0:0:
304,336,89408,1,2,0:0:0:0:
224,332,89535,1,2,0:0:0:0:
148,280,89662,1,2,0:0:0:0:
152,176,89789,70,0,P|136:146|112:119,1,58.4999973220826,14|0,0:0|0:0,0:0:0:0:
104,122,90043,1,2,0:0:0:0:
104,122,90171,1,2,0:0:0:0:
52,192,90298,6,0,P|34:220|22:254,1,58.4999973220826,10|0,0:0|0:0,0:0:0:0:
29,260,90552,1,2,0:0:0:0:
29,260,90679,1,2,0:0:0:0:
116,272,90806,6,0,P|149:271|184:264,1,58.4999973220826,10|0,0:0|0:0,0:0:0:0:
186,257,91060,1,2,0:0:0:0:
186,257,91188,1,2,0:0:0:0:
236,364,91315,5,10,0:0:0:0:
236,364,91442,1,2,0:0:0:0:
256,208,91569,2,0,P|263:237|265:266,1,58.4999973220826,2|0,0:0|0:0,0:0:0:0:
168,184,91823,69,10,0:0:0:0:
168,184,91950,1,2,0:0:0:0:
256,88,92077,1,2,0:0:0:0:
256,88,92204,1,2,0:0:0:0:
384,80,92332,2,0,P|352:88|304:88,1,58.4999973220826,10|0,0:0|0:0,0:0:0:0:
416,200,92586,2,0,P|449:189|466:172,1,58.4999973220826,2|0,0:0|0:0,0:0:0:0:
471,160,92840,6,0,P|423:160|368:264,1,175.499991966248,10|0,0:0|0:0,0:0:0:0:
368,272,93349,1,10,0:0:0:0:
304,120,93603,6,0,P|296:90|272:66,1,58.4999973220826,2|0,0:0|0:0,0:0:0:0:
192,60,93857,2,0,P|200:30|224:6,1,58.4999973220826,10|0,0:0|0:0,0:0:0:0:
278,69,94111,1,2,0:0:0:0:
192,60,94238,1,2,0:0:0:0:
124,116,94365,2,0,B|144:136|144:136|174:144,1,58.4999973220826,10|0,0:0|0:0,0:0:0:0:
240,216,94620,6,0,P|248:246|272:270,1,58.4999973220826,2|0,0:0|0:0,0:0:0:0:
352,276,94874,2,0,P|344:306|320:330,1,58.4999973220826,10|0,0:0|0:0,0:0:0:0:
266,267,95128,1,2,0:0:0:0:
352,276,95255,1,2,0:0:0:0:
420,220,95382,2,0,B|400:200|400:200|370:192,1,58.4999973220826,10|0,0:0|0:0,0:0:0:0:
288,88,95637,70,0,P|304:112|329:126,1,58.4999973220826,2|0,0:0|0:0,0:0:0:0:
344,128,95891,2,0,P|336:80|312:16,1,116.999994644165,10|0,0:0|0:0,0:0:0:0:
464,84,96272,1,2,0:0:0:0:
456,96,96399,2,0,P|438:141|427:208,1,116.999994644165,10|0,0:0|0:0,0:0:0:0:
496,276,96781,1,2,0:0:0:0:
488,288,96908,2,0,P|464:320|432:336,1,58.4999973220826,10|0,0:0|0:0,0:0:0:0:
416,344,97162,1,8,3:0:0:0:
368,352,97289,1,8,3:0:0:0:
312,336,97416,5,8,0:0:0:0:
256,296,97543,1,8,0:0:0:0:
224,216,97671,1,8,0:0:0:0:
232,120,97798,1,8,0:0:0:0:
328,56,97925,6,0,P|304:32|277:21,1,58.4999973220826,14|0,0:0|0:0,0:0:0:0:
192,40,98179,1,2,0:0:0:0:
232,120,98306,1,2,0:0:0:0:
103,35,98433,5,10,0:0:0:0:
104,272,98688,1,10,0:0:0:0:
136,136,98942,2,0,P|114:155|102:182,1,58.4999973220826,10|0,0:0|0:0,0:0:0:0:
32,320,99196,1,2,0:0:0:0:
104,344,99323,1,2,0:0:0:0:
176,312,99450,1,10,0:0:0:0:
304,368,99704,2,0,P|296:337|272:304,1,58.4999973220826,2|0,0:0|0:0,0:0:0:0:
272,303,99959,70,0,P|304:311|336:295,1,58.4999973220826,14|0,0:0|0:0,0:0:0:0:
384,240,100213,1,2,0:0:0:0:
392,216,100340,1,2,0:0:0:0:
480,200,100467,1,10,0:0:0:0:
472,224,100594,1,2,0:0:0:0:
488,120,100721,2,0,P|480:89|456:56,1,58.4999973220826,2|0,0:0|0:0,0:0:0:0:
384,24,100976,5,10,0:0:0:0:
336,9,101103,1,2,0:0:0:0:
352,112,101230,1,2,0:0:0:0:
302,123,101357,1,2,0:0:0:0:
240,24,101484,5,10,3:0:0:0:
203,57,101611,1,2,3:0:0:0:
88,24,101738,1,8,3:0:0:0:
102,41,101865,1,8,3:0:0:0:
118,61,101993,22,0,P|86:117|142:189,1,157.5,14|0,0:0|0:0,0:0:0:0:
152,192,103010,2,0,P|109:253|35:241,1,157.5,14|0,0:0|0:0,0:0:0:0:
0,320,104027,6,0,B|40:360|136:312|176:352,1,175.499994644165,14|0,0:0|0:0,0:0:0:0:
280,344,105806,2,0,L|264:360,1,13.4999995880127,10|0,0:0|0:0,0:0:0:0:
301,231,106060,6,0,P|350:268|392:313,1,123.75,14|0,0:0|0:0,0:0:0:0:
480,352,107586,85,10,3:0:0:0:
432,200,107840,1,2,0:0:0:0:
432,184,107967,1,2,0:0:0:0:
424,168,108094,38,0,P|400:136|364:108,1,80.9999975280763,14|0,0:0|0:0,0:0:0:0:
324,88,108476,1,2,0:0:0:0:
276,80,108603,1,10,0:0:0:0:
276,80,108857,2,0,L|236:36,1,40.4999987640381,2|0,0:0|0:0,0:0:0:0:
300,160,109111,6,0,P|292:184|272:200,1,40.4999987640381,10|0,0:0|0:0,0:0:0:0:
236,184,109365,2,0,P|222:199|217:218,1,40.4999987640381,2|0,0:0|0:0,0:0:0:0:
232,264,109620,1,10,0:0:0:0:
232,264,109874,2,0,L|192:308,1,40.4999987640381,2|0,0:0|0:0,0:0:0:0:
148,188,110128,6,0,P|124:180|108:160,1,40.4999987640381,10|0,0:0|0:0,0:0:0:0:
124,124,110382,2,0,P|108:110|89:105,1,40.4999987640381,2|0,0:0|0:0,0:0:0:0:
44,120,110637,1,10,0:0:0:0:
44,120,110891,2,0,L|0:80,1,40.4999987640381,2|0,0:0|0:0,0:0:0:0:
100,36,111145,69,10,0:0:0:0:
140,48,111272,1,2,0:0:0:0:
180,52,111399,1,2,0:0:0:0:
220,52,111527,1,2,0:0:0:0:
304,80,111654,5,10,0:0:0:0:
448,252,111908,1,2,0:0:0:0:
452,226,112035,1,2,0:0:0:0:
447,201,112162,6,0,P|438:179|425:163,1,40.4999987640381,10|0,0:0|0:0,0:0:0:0:
376,96,112416,1,2,0:0:0:0:
359,133,112543,1,2,0:0:0:0:
323,153,112671,2,0,L|283:153,1,40.4999987640381,10|0,0:0|0:0,0:0:0:0:
256,252,112925,2,0,L|296:252,1,40.4999987640381,2|0,0:0|0:0,0:0:0:0:
192,224,113179,5,8,0:0:0:0:
163,205,113306,1,2,0:0:0:0:
130,192,113433,1,2,0:0:0:0:
96,189,113560,1,2,0:0:0:0:
23,135,113688,69,8,0:0:0:0:
53,121,113815,1,2,0:0:0:0:
88,117,113942,1,2,0:0:0:0:
121,120,114069,1,2,0:0:0:0:
216,104,114196,5,8,0:0:0:0:
180,73,114323,1,2,0:0:0:0:
136,49,114450,1,2,0:0:0:0:
90,33,114577,1,2,0:0:0:0:
192,0,114704,6,0,P|216:8|248:24,1,40.4999987640381,10|0,0:0|0:0,0:0:0:0:
324,88,114959,2,0,P|300:80|268:64,1,40.4999987640381,2|0,0:0|0:0,0:0:0:0:
392,56,115213,5,10,0:0:0:0:
432,72,115340,1,2,0:0:0:0:
440,120,115467,1,2,0:0:0:0:
408,160,115594,1,2,0:0:0:0:
352,160,115721,1,10,0:0:0:0:
296,176,115849,1,2,0:0:0:0:
264,224,115976,1,2,0:0:0:0:
272,288,116103,1,2,0:0:0:0:
312,344,116230,70,0,P|341:358|375:365,1,67.5000025749208,14|0,0:0|0:0,0:0:0:0:
352,248,116738,1,10,0:0:0:0:
352,248,116993,1,2,0:0:0:0:
160,240,117247,1,10,0:0:0:0:
144,248,117374,1,2,0:0:0:0:
128,256,117501,1,2,0:0:0:0:
200,104,117755,1,10,0:0:0:0:
200,104,117882,1,2,0:0:0:0:
128,56,118010,1,2,0:0:0:0:
128,56,118137,1,2,0:0:0:0:
56,136,118264,6,0,P|64:168|78:199,1,67.5000025749208,10|0,0:0|0:0,0:0:0:0:
168,312,118772,1,10,0:0:0:0:
328,336,119027,2,0,L|296:296,1,33.7500012874604,2|0,0:0|0:0,0:0:0:0:
344,232,119281,2,0,L|376:272,1,33.7500012874604,10|0,0:0|0:0,0:0:0:0:
424,176,119535,85,2,0:0:0:0:
432,192,119662,1,2,0:0:0:0:
464,96,119789,1,10,0:0:0:0:
456,80,119916,1,2,0:0:0:0:
360,48,120043,1,2,0:0:0:0:
368,64,120171,1,2,0:0:0:0:
304,144,120298,6,0,P|285:172|264:256,1,101.250003862381,10|0,0:0|0:0,0:0:0:0:
272,304,120806,1,10,0:0:0:0:
192,200,121060,2,0,L|216:148,1,33.7500012874604,2|0,0:0|0:0,0:0:0:0:
128,120,121315,5,10,0:0:0:0:
104,104,121442,1,2,0:0:0:0:
88,184,121569,1,2,0:0:0:0:
59,182,121696,1,2,0:0:0:0:
72,264,121823,1,10,0:0:0:0:
45,276,121950,1,2,0:0:0:0:
96,344,122077,1,2,0:0:0:0:
80,368,122204,1,2,0:0:0:0:
176,360,122332,86,0,B|192:328|192:280,1,67.5000025749208,10|2,0:0|0:0,0:0:0:0:
192,200,122840,1,10,0:0:0:0:
352,120,123094,101,2,0:0:0:0:
369,104,123221,1,2,0:0:0:0:
318,193,123349,1,10,0:0:0:0:
320,222,123476,1,2,0:0:0:0:
360,128,123603,1,2,0:0:0:0:
392,121,123730,1,2,0:0:0:0:
328,192,123857,5,10,0:0:0:0:
352,224,123984,1,2,0:0:0:0:
424,256,124111,1,10,0:0:0:0:
472,248,124238,1,2,0:0:0:0:
496,208,124365,6,0,P|501:174|499:141,1,67.5000025749208,10|0,0:0|0:0,0:0:0:0:
448,320,124874,1,10,0:0:0:0:
352,352,125128,1,2,0:0:0:0:
336,328,125255,1,2,0:0:0:0:
256,360,125382,1,10,0:0:0:0:
240,336,125510,1,2,0:0:0:0:
224,312,125637,2,0,L|200:272,1,33.7500012874604,2|0,0:0|0:0,0:0:0:0:
232,200,125891,5,10,0:0:0:0:
208,184,126018,1,2,0:0:0:0:
128,208,126145,1,2,0:0:0:0:
104,192,126272,1,2,0:0:0:0:
32,248,126399,70,0,L|56:288,1,33.7500012874604,10|0,0:0|0:0,0:0:0:0:
32,168,126654,2,0,L|56:128,1,33.7500012874604,2|0,0:0|0:0,0:0:0:0:
16,240,126908,1,10,0:0:0:0:
144,120,127162,1,2,0:0:0:0:
136,88,127289,1,2,0:0:0:0:
232,120,127416,2,0,L|240:80,1,33.7500012874604,10|0,0:0|0:0,0:0:0:0:
344,120,127671,1,2,0:0:0:0:
336,88,127798,1,2,0:0:0:0:
432,120,127925,1,10,0:0:0:0:
440,88,128052,1,2,0:0:0:0:
472,192,128179,2,0,L|432:212,1,33.7500012874604,2|0,0:0|0:0,0:0:0:0:
424,208,128433,6,0,P|458:228|485:261,1,67.5000025749208,10|0,0:0|0:0,0:0:0:0:
488,288,128815,1,2,0:0:0:0:
456,312,128942,1,10,0:0:0:0:
320,336,129196,2,0,L|288:312,1,33.7500012874604,2|0,0:0|0:0,0:0:0:0:
224,248,129450,5,10,0:0:0:0:
208,208,129577,1,2,0:0:0:0:
120,216,129704,1,2,0:0:0:0:
136,176,129832,1,2,0:0:0:0:
216,136,129959,1,10,0:0:0:0:
200,96,130086,1,2,0:0:0:0:
112,104,130213,1,2,0:0:0:0:
128,64,130340,1,2,0:0:0:0:
32,88,130467,6,0,L|18:132,1,33.7500012874604,10|0,0:0|0:0,0:0:0:0:
56,216,130721,2,0,L|70:260,1,33.7500012874604,2|0,0:0|0:0,0:0:0:0:
24,72,130976,1,10,0:0:0:0:
56,312,131230,2,0,L|70:268,1,33.7500012874604,2|0,0:0|0:0,0:0:0:0:
160,280,131484,69,10,0:0:0:0:
176,312,131611,1,2,0:0:0:0:
256,296,131738,1,2,0:0:0:0:
272,328,131865,1,2,0:0:0:0:
264,224,131993,5,10,0:0:0:0:
287,188,132120,1,2,0:0:0:0:
240,120,132247,1,10,0:0:0:0:
262,83,132374,1,2,0:0:0:0:
336,32,132501,6,0,P|360:80|368:133,1,108,14|0,0:0|0:0,0:0:0:0:
432,168,133010,2,0,L|408:195,1,36,10|0,0:0|0:0,0:0:0:0:
424,280,133264,2,0,L|471:240,1,36,2|0,0:0|0:0,0:0:0:0:
376,336,133518,2,0,L|336:289,1,36,10|0,0:0|0:0,0:0:0:0:
304,256,133772,1,2,0:0:0:0:
240,224,133899,1,2,0:0:0:0:
176,256,134027,6,0,L|136:224,1,36,10|0,0:0|0:0,0:0:0:0:
176,168,134281,1,2,0:0:0:0:
240,136,134408,1,2,0:0:0:0:
304,168,134535,86,0,L|332:145,1,36,10|0,0:0|0:0,0:0:0:0:
400,168,134789,1,2,0:0:0:0:
292,268,135043,2,0,L|252:300,1,36,10|0,0:0|0:0,0:0:0:0:
192,302,135298,1,2,0:0:0:0:
124,280,135425,1,2,0:0:0:0:
68,232,135552,6,0,L|108:200,1,36,10|0,0:0|0:0,0:0:0:0:
176,128,135806,1,2,0:0:0:0:
144,120,135933,1,2,0:0:0:0:
40,128,136060,1,10,0:0:0:0:
62,104,136188,1,2,0:0:0:0:
104,16,136315,1,2,0:0:0:0:
113,47,136442,1,2,0:0:0:0:
216,56,136569,6,0,P|246:37|272:12,1,72,10|2,0:0|0:0,0:0:0:0:
488,24,137077,2,0,L|448:56,1,36,10|0,0:0|0:0,0:0:0:0:
368,64,137332,1,2,0:0:0:0:
376,76,137459,1,0,0:0:0:0:
400,152,137586,69,10,0:0:0:0:
384,176,137713,1,2,0:0:0:0:
280,160,137840,1,2,0:0:0:0:
296,184,137967,1,2,0:0:0:0:
352,256,138094,5,10,0:0:0:0:
328,296,138221,1,2,0:0:0:0:
224,272,138349,1,2,0:0:0:0:
248,312,138476,1,2,0:0:0:0:
152,360,138603,5,10,0:0:0:0:
240,200,138857,1,2,0:0:0:0:
80,280,139111,2,0,L|120:248,1,36,10|0,0:0|0:0,0:0:0:0:
144,176,139365,1,2,0:0:0:0:
136,164,139493,1,0,0:0:0:0:
264,192,139620,85,10,0:0:0:0:
280,216,139747,1,2,0:0:0:0:
296,104,139874,1,2,0:0:0:0:
280,80,140001,1,2,0:0:0:0:
352,168,140128,5,10,0:0:0:0:
369,133,140255,1,2,0:0:0:0:
384,248,140382,1,10,0:0:0:0:
367,283,140510,1,2,0:0:0:0:
448,200,140637,6,0,P|472:152|480:96,1,108,10|0,0:0|0:0,0:0:0:0:
408,64,141145,2,0,L|376:80,1,36,10|0,0:0|0:0,0:0:0:0:
472,32,141399,1,2,0:0:0:0:
472,32,141527,1,2,0:0:0:0:
344,16,141654,1,10,0:0:0:0:
344,16,141781,1,2,0:0:0:0:
248,128,141908,6,0,L|287:101,1,36,2|0,0:0|0:0,0:0:0:0:
168,88,142162,2,0,L|129:115,1,36,10|0,0:0|0:0,0:0:0:0:
232,48,142416,1,2,0:0:0:0:
232,48,142543,1,2,0:0:0:0:
200,192,142671,70,0,L|161:219,1,36,10|0,0:0|0:0,0:0:0:0:
280,232,142925,2,0,L|319:205,1,36,2|0,0:0|0:0,0:0:0:0:
208,168,143179,1,10,0:0:0:0:
184,288,143433,2,0,L|191:323,1,36,2|0,0:0|0:0,0:0:0:0:
96,280,143688,2,0,L|86:235,1,36,10|0,0:0|0:0,0:0:0:0:
32,160,143942,1,2,0:0:0:0:
32,160,144069,1,2,0:0:0:0:
72,64,144196,1,10,0:0:0:0:
72,64,144323,1,2,0:0:0:0:
160,72,144450,2,0,L|171:107,1,36,2|0,0:0|0:0,0:0:0:0:
177,122,144704,22,0,P|188:65|227:25,1,108,10|0,0:0|0:0,0:0:0:0:
328,56,145213,2,0,L|302:30,1,36,10|0,0:0|0:0,0:0:0:0:
408,40,145467,2,0,L|433:65,1,36,2|0,0:0|0:0,0:0:0:0:
384,128,145721,5,10,0:0:0:0:
344,144,145849,1,2,0:0:0:0:
248,120,145976,1,2,0:0:0:0:
264,160,146103,1,2,0:0:0:0:
248,256,146230,1,10,0:0:0:0:
288,240,146357,1,2,0:0:0:0:
384,256,146484,2,0,L|368:208,1,36,2|0,0:0|0:0,0:0:0:0:
456,168,146738,86,0,P|450:185|449:202,1,36,10|0,0:0|0:0,0:0:0:0:
496,112,146993,2,0,P|502:96|503:78,1,36,2|0,0:0|0:0,0:0:0:0:
448,224,147247,1,10,0:0:0:0:
424,48,147501,2,0,L|435:13,1,36,2|0,0:0|0:0,0:0:0:0:
336,56,147755,5,10,0:0:0:0:
352,88,147882,1,2,0:0:0:0:
256,40,148010,1,2,0:0:0:0:
263,75,148137,1,2,0:0:0:0:
176,8,148264,5,10,0:0:0:0:
175,57,148391,1,2,0:0:0:0:
88,24,148518,1,10,0:0:0:0:
74,71,148645,1,2,0:0:0:0:
32,144,148772,70,0,P|40:184|35:249,1,87.749995983124,14|0,0:0|0:0,0:0:0:0:
112,184,149281,1,10,0:0:0:0:
88,352,149535,2,0,L|124:329,1,29.2499986610413,2|0,0:0|0:0,0:0:0:0:
184,288,149789,2,0,L|208:272,2,29.2499986610413,8|0|0,0:0|0:0|0:0,0:0:0:0:
328,256,150298,2,0,L|320:240,1,14.6249993305207,10|0,0:3|0:0,0:0:0:0:
248,88,150552,21,2,0:0:0:0:
56,56,150806,2,0,L|72:40,1,19.1250003647804,8|0,0:0|0:0,0:0:0:0:
248,88,151060,1,2,0:0:0:0:
440,56,151315,2,0,L|424:40,1,19.1250003647804,8|0,0:0|0:0,0:0:0:0:
248,88,151569,1,2,0:0:0:0:
440,128,151823,6,0,L|424:144,1,19.1250003647804,8|0,0:0|0:0,0:0:0:0:
288,176,152077,1,2,0:0:0:0:
464,208,152332,2,0,L|480:192,1,19.1250003647804,8|0,0:3|0:0,0:0:0:0:
296,288,152586,1,2,0:0:0:0:
296,288,152840,70,0,B|315:312|315:312|359:347,1,87.749995983124,14|0,0:0|0:0,0:0:0:0:
184,288,153349,1,10,3:0:0:0:
184,288,153603,6,0,B|165:264|165:264|121:229,1,87.749995983124,14|0,0:0|0:0,0:0:0:0:
320,280,154111,1,10,3:0:0:0:
320,280,154365,6,0,B|339:304|339:304|383:339,1,87.749995983124,14|0,0:0|0:0,0:0:0:0:
440,232,154874,2,0,L|461:224,1,14.6249993305207,10|0,0:0|0:0,0:0:0:0:
432,256,155001,2,0,L|428:278,1,14.6249993305207,2|0,0:0|0:0,0:0:0:0:
416,240,155128,2,0,L|398:225,1,14.6249993305207,2|0,0:0|0:0,0:0:0:0:
464,112,155382,2,0,L|473:133,1,14.6249993305207,10|0,0:0|0:0,0:0:0:0:
464,80,155510,2,0,L|477:62,1,14.6249993305207,2|0,0:0|0:0,0:0:0:0:
440,96,155637,2,0,L|417:94,1,14.6249993305207,2|0,0:0|0:0,0:0:0:0:
296,64,155891,2,0,L|275:72,1,14.6249993305207,10|0,0:0|0:0,0:0:0:0:
320,32,156018,2,0,L|324:9,1,14.6249993305207,2|0,0:0|0:0,0:0:0:0:
336,64,156145,5,10,3:0:0:0:
288,192,156399,1,10,0:0:0:0:
132,260,156654,1,10,0:0:0:0:
144,288,156781,1,10,0:0:0:0:
164,312,156908,70,0,P|210:340|256:353,1,87.749995983124,14|0,0:0|0:0,0:0:0:0:
328,256,157416,2,0,L|340:226,1,29.2499986610413,8|0,0:0|0:0,0:0:0:0:
244,248,157671,2,0,L|232:278,1,29.2499986610413,8|0,0:0|0:0,0:0:0:0:
176,200,157925,5,10,3:0:0:0:
72,216,158179,1,2,0:0:0:0:
56,208,158306,1,2,0:0:0:0:
48,192,158433,1,2,0:0:0:0:
176,200,158688,2,0,L|160:176,1,29.2499986610413,8|0,0:0|0:0,0:0:0:0:
72,64,158942,5,10,0:0:0:0:
88,88,159069,1,2,0:0:0:0:
112,96,159196,1,2,0:0:0:0:
208,24,159450,1,2,0:0:0:0:
288,112,159704,1,10,0:0:0:0:
392,168,159959,6,0,P|408:176|432:176,1,29.2499986610413,10|0,0:3|0:0,0:0:0:0:
504,144,160213,2,0,P|488:136|464:136,1,29.2499986610413,8|0,0:0|0:0,0:0:0:0:
432,256,160467,1,8,0:0:0:0:
400,288,160594,1,8,0:0:0:0:
360,304,160721,1,8,0:0:0:0:
312,308,160849,1,8,0:0:0:0:
224,292,160976,70,0,P|216:248|216:208,1,67.5000025749208,14|0,0:0|0:0,0:0:0:0:
216,304,161357,1,2,0:0:0:0:
220,208,161484,2,0,P|228:184|248:156,1,33.7500012874604,10|0,0:0|0:0,0:0:0:0:
128,184,161738,2,0,L|108:216,1,33.7500012874604,2|0,0:0|0:0,0:0:0:0:
104,112,161993,2,0,P|129:75|157:46,1,67.5000025749208,10|0,0:0|0:0,0:0:0:0:
90,115,162374,1,2,0:0:0:0:
161,50,162501,2,0,P|183:38|217:33,1,33.7500012874604,10|0,0:0|0:0,0:0:0:0:
231,176,162755,1,2,0:0:0:0:
428,140,163010,6,0,L|442:169,1,29.2499986610413,10|8,0:0|0:0,0:0:0:0:
452,192,163264,1,8,0:0:0:0:
472,216,163391,1,8,0:0:0:0:
492,236,163518,5,8,0:0:0:0:
512,272,163645,1,8,0:0:0:0:
500,312,163772,1,8,0:0:0:0:
464,332,163899,1,8,0:0:0:0:
424,324,164027,5,8,0:0:0:0:
396,280,164154,1,8,0:0:0:0:
348,256,164281,1,8,0:0:0:0:
296,252,164408,1,8,0:0:0:0:
248,268,164535,5,8,0:0:0:0:
184,252,164662,1,8,0:0:0:0:
144,200,164789,1,8,0:0:0:0:
128,136,164916,1,8,0:0:0:0:
116,124,165043,54,0,L|80:124,3,36,2|2|2|2,0:0|0:0|0:0|0:0,0:0:0:0:
56,360,167077,86,0,P|113:351|169:336,1,116.999994644165,14|0,0:0|0:0,0:0:0:0:
296,216,167586,2,0,P|238:223|181:239,1,116.999994644165,10|0,0:0|0:0,0:0:0:0:
344,304,168094,2,0,P|401:295|457:280,1,116.999994644165,10|0,0:0|0:0,0:0:0:0:
296,216,168603,1,10,0:0:0:0:
160,144,168857,1,2,0:0:0:0:
160,144,169111,5,10,0:0:0:0:
184,60,169238,1,2,0:0:0:0:
264,24,169365,1,2,0:0:0:0:
344,60,169493,1,2,0:0:0:0:
364,144,169620,1,10,0:0:0:0:
312,216,169747,2,0,B|288:229|288:229|257:236,2,58.4999973220826,2|0|0,0:0|0:0|0:0,0:0:0:0:
160,144,170128,69,10,0:0:0:0:
191,228,170255,1,2,0:0:0:0:
265,277,170382,1,2,0:0:0:0:
355,273,170510,1,2,0:0:0:0:
424,216,170637,2,0,L|488:272,1,58.4999973220826,10|0,0:0|0:0,0:0:0:0:
350,202,170891,1,2,0:0:0:0:
308,178,171018,1,2,0:0:0:0:
283,138,171145,5,10,0:0:0:0:
224,72,171272,1,2,0:0:0:0:
135,60,171399,1,2,0:0:0:0:
56,94,171527,2,0,B|73:111|73:111|103:127,1,58.4999973220826,2|10,0:0|0:0,0:0:0:0:
136,272,171908,2,0,B|104:264|89:236,1,58.4999973220826,2|0,0:0|0:0,0:0:0:0:
187,153,172162,5,10,0:0:0:0:
224,72,172289,1,2,0:0:0:0:
304,32,172416,1,2,0:0:0:0:
392,36,172543,1,2,0:0:0:0:
468,80,172671,5,10,0:0:0:0:
296,112,172925,1,2,0:0:0:0:
214,236,173179,2,0,P|188:226|160:208,1,58.4999973220826,10|0,0:0|0:0,0:0:0:0:
120,152,173433,1,2,0:0:0:0:
104,80,173560,1,2,0:0:0:0:
99,225,173688,2,0,P|159:239|227:232,1,116.999994644165,10|0,0:0|0:0,0:0:0:0:
468,80,174196,69,10,0:0:0:0:
309,281,174450,1,10,3:0:0:0:
389,64,174704,2,0,B|399:32|399:32|421:9,1,58.4999973220826,8|0,0:0|0:0,0:0:0:0:
388,294,174959,2,0,B|376:323|376:323|353:346,1,58.4999973220826,8|0,0:0|0:0,0:0:0:0:
133,340,175213,6,0,P|87:306|41:250,1,121.500000463486,14|0,0:0|0:0,0:0:0:0:
32,72,175721,2,0,P|77:105|123:161,1,121.500000463486,10|0,0:0|0:0,0:0:0:0:
304,160,176230,2,0,P|258:126|212:70,1,121.500000463486,10|0,0:0|0:0,0:0:0:0:
119,154,176738,1,10,0:0:0:0:
133,340,176993,1,2,0:0:0:0:
302,250,177247,6,0,P|286:218|272:176,1,60.7500002317429,10|0,0:0|0:0,0:0:0:0:
387,118,177501,2,0,P|371:150|357:192,1,60.7500002317429,2|0,0:0|0:0,0:0:0:0:
304,120,177755,2,0,P|284:90|254:57,1,60.7500002317429,10|0,0:0|0:0,0:0:0:0:
146,127,178010,2,0,P|181:129|225:138,1,60.7500002317429,2|0,0:0|0:0,0:0:0:0:
164,216,178264,5,10,0:0:0:0:
224,284,178391,1,2,0:0:0:0:
308,316,178518,1,2,0:0:0:0:
308,316,178772,2,0,L|372:324,1,60.7500002317429,10|0,0:0|0:0,0:0:0:0:
396,236,179027,2,0,B|368:233|368:233|337:222,1,60.7500002317429,2|0,0:0|0:0,0:0:0:0:
252,188,179281,69,10,0:0:0:0:
164,216,179408,1,2,0:0:0:0:
116,292,179535,2,0,B|80:292|80:292|52:284,1,60.7500002317429,2|0,0:0|0:0,0:0:0:0:
176,136,179789,1,10,0:0:0:0:
408,228,180043,1,2,0:0:0:0:
160,128,180298,22,0,P|131:118|112:96,1,60.7500002317429,10|0,0:0|0:0,0:0:0:0:
80,8,180552,1,2,0:0:0:0:
168,40,180679,1,2,0:0:0:0:
232,104,180806,2,0,P|288:128|352:136,1,121.500000463486,10|0,0:0|0:0,0:0:0:0:
288,304,181315,102,0,P|320:296|352:280,1,60.7500002317429,14|0,0:0|0:0,0:0:0:0:
424,240,181569,1,2,0:0:0:0:
336,208,181696,1,2,0:0:0:0:
185,212,181823,2,0,P|157:224|128:232,1,60.7500002317429,10|0,0:0|0:0,0:0:0:0:
174,123,182077,2,0,P|202:111|232:104,1,60.7500002317429,2|0,0:0|0:0,0:0:0:0:
128,32,182332,5,10,0:0:0:0:
84,56,182459,1,2,0:0:0:0:
56,96,182586,5,2,0:0:0:0:
36,152,182713,1,2,0:0:0:0:
36,224,182840,1,10,0:0:0:0:
80,296,182967,1,2,0:0:0:0:
168,336,183094,1,2,0:0:0:0:
276,332,183221,1,2,0:0:0:0:
368,244,183349,70,0,P|342:209|310:184,1,62.9999980773926,14|0,0:0|0:0,0:0:0:0:
293,181,183603,1,2,0:0:0:0:
252,183,183730,1,2,0:0:0:0:
308,108,183857,6,0,P|264:101|224:106,1,62.9999980773926,10|0,0:0|0:0,0:0:0:0:
210,116,184111,1,2,0:0:0:0:
183,146,184238,1,2,0:0:0:0:
172,52,184365,6,0,P|136:77|112:109,1,62.9999980773926,10|0,0:0|0:0,0:0:0:0:
109,126,184620,1,2,0:0:0:0:
111,167,184747,1,2,0:0:0:0:
40,112,184874,5,10,0:0:0:0:
40,112,185001,1,2,0:0:0:0:
20,248,185128,2,0,P|46:247|81:238,1,62.9999980773926,2|0,0:0|0:0,0:0:0:0:
176,336,185382,69,10,0:0:0:0:
168,352,185510,1,2,0:0:0:0:
176,200,185637,1,2,0:0:0:0:
168,184,185764,1,2,0:0:0:0:
360,176,185891,2,0,P|387:163|407:139,1,62.9999980773926,10|0,0:0|0:0,0:0:0:0:
268,63,186145,2,0,P|298:65|322:85,1,62.9999980773926,2|0,0:0|0:0,0:0:0:0:
330,96,186399,6,0,P|290:96|267:215,1,188.999994232178,10|0,0:0|0:0,0:0:0:0:
280,224,186908,1,10,0:0:0:0:
492,308,187162,6,0,P|492:279|460:236,1,62.9999980773926,2|0,0:0|0:0,0:0:0:0:
388,180,187416,2,0,P|373:207|372:238,1,62.9999980773926,10|0,0:0|0:0,0:0:0:0:
476,249,187671,1,2,0:0:0:0:
372,238,187798,1,2,0:0:0:0:
380,352,187925,2,0,B|350:342|350:342|322:326,1,62.9999980773926,10|0,0:0|0:0,0:0:0:0:
256,220,188179,6,0,P|256:249|224:292,1,62.9999980773926,2|0,0:0|0:0,0:0:0:0:
151,348,188433,2,0,P|136:321|135:290,1,62.9999980773926,10|0,0:0|0:0,0:0:0:0:
240,279,188688,1,2,0:0:0:0:
136,290,188815,1,2,0:0:0:0:
144,176,188942,2,0,B|114:186|114:186|86:202,1,62.9999980773926,10|0,0:0|0:0,0:0:0:0:
176,72,189196,70,0,P|207:77|236:87,1,62.9999980773926,2|0,0:0|0:0,0:0:0:0:
252,88,189450,2,0,P|196:56|172:-8,1,125.999996154785,10|0,0:0|0:0,0:0:0:0:
16,20,189832,1,2,0:0:0:0:
32,20,189959,2,0,P|88:52|112:116,1,125.999996154785,10|0,0:0|0:0,0:0:0:0:
16,112,190340,1,2,0:0:0:0:
16,128,190467,2,0,P|16:152|32:192,1,62.9999980773926,10|0,0:0|0:0,0:0:0:0:
52,220,190721,1,8,3:0:0:0:
91,254,190849,1,8,3:0:0:0:
150,279,190976,5,8,0:0:0:0:
225,282,191103,1,8,0:0:0:0:
308,248,191230,1,8,0:0:0:0:
356,160,191357,1,8,0:0:0:0:
409,58,191484,6,0,P|376:60|346:68,1,62.9999980773926,14|0,0:0|0:0,0:0:0:0:
268,119,191738,1,2,0:0:0:0:
356,160,191865,1,2,0:0:0:0:
257,22,191993,5,10,0:0:0:0:
150,279,192247,1,10,0:0:0:0:
12,12,192501,2,0,P|27:32|46:64,1,62.9999980773926,10|0,0:0|0:0,0:0:0:0:
14,184,192755,1,2,0:0:0:0:
102,176,192882,1,2,0:0:0:0:
174,120,193010,1,10,0:0:0:0:
192,336,193264,2,0,P|216:304|232:264,1,62.9999980773926,2|0,0:0|0:0,0:0:0:0:
232,272,193518,70,0,P|240:304|272:328,1,62.9999980773926,14|0,0:0|0:0,0:0:0:0:
360,336,193772,1,2,0:0:0:0:
402,312,193899,1,2,0:0:0:0:
472,224,194027,1,10,0:0:0:0:
426,236,194154,1,2,0:0:0:0:
312,216,194281,2,0,P|292:192|277:164,1,62.9999980773926,2|0,0:0|0:0,0:0:0:0:
256,72,194535,5,10,0:0:0:0:
246,21,194662,1,2,0:0:0:0:
144,64,194789,1,2,0:0:0:0:
106,31,194916,1,2,0:0:0:0:
104,160,195043,5,10,3:0:0:0:
55,170,195171,1,2,3:0:0:0:
200,240,195298,1,8,3:0:0:0:
224,256,195425,1,8,3:0:0:0:
248,256,195552,22,0,P|208:304|80:344,1,188.999994232178,14|0,0:0|0:0,0:0:0:0:
80,328,196569,2,0,P|146:262|237:240,1,188.999994232178,14|0,0:0|0:0,0:0:0:0:
328,248,197586,6,0,B|376:232|328:40|376:24,1,234,14|0,0:0|0:0,0:0:0:0:
440,24,199365,2,0,L|465:0,1,18,10|0,0:0|0:0,0:0:0:0:
296,24,199620,6,0,B|216:32|128:72,1,173.24999471283,14|0,0:0|0:0,0:0:0:0:
72,16,201145,85,10,3:0:0:0:
64,192,201399,1,2,0:0:0:0:
80,216,201527,1,2,0:0:0:0:
104,232,201654,22,0,P|144:248|200:240,1,90,14|0,0:0|0:0,0:0:0:0:
328,128,202162,1,8,0:0:0:0:
360,304,202416,1,2,0:0:0:0:
496,184,202671,1,8,0:0:0:0:
312,160,202925,1,2,0:0:0:0:
388,321,203179,1,8,0:0:0:0:
488,170,203433,1,2,0:0:0:0:
336,80,203688,5,8,0:0:0:0:
336,80,203942,1,2,0:0:0:0:
256,240,204196,1,8,0:0:0:0:
256,240,204450,1,2,0:0:0:0:
176,80,204704,1,8,0:0:0:0:
96,288,204959,2,0,L|132:276,1,22.5,2|2,0:0|0:0,0:0:0:0:
100,300,205086,1,2,0:0:0:0:
108,308,205213,1,10,0:0:0:0:
320,352,205467,2,0,P|296:360|272:360,1,45,2|0,0:0|0:0,0:0:0:0:
360,280,205721,69,8,0:0:0:0:
368,280,205849,1,0,0:0:0:0:
376,283,205976,1,2,0:0:0:0:
382,289,206103,1,0,0:0:0:0:
387,295,206230,5,8,0:0:0:0:
398,281,206357,1,0,0:0:0:0:
394,263,206484,1,2,0:0:0:0:
380,251,206611,1,0,0:0:0:0:
362,247,206738,5,8,0:0:0:0:
387,237,206865,1,0,0:0:0:0:
413,243,206993,1,2,0:0:0:0:
429,264,207120,1,0,0:0:0:0:
438,289,207247,5,8,0:0:0:0:
452,256,207374,1,0,0:0:0:0:
442,221,207501,1,2,0:0:0:0:
412,201,207628,1,0,0:0:0:0:
376,193,207755,5,8,0:0:0:0:
413,168,207882,1,0,0:0:0:0:
457,175,208010,1,2,0:0:0:0:
486,208,208137,1,0,0:0:0:0:
490,252,208264,5,8,0:0:0:0:
504,200,208391,1,0,0:0:0:0:
496,144,208518,1,2,0:0:0:0:
456,104,208645,1,0,0:0:0:0:
360,124,208772,54,0,P|336:126|315:114,1,45,10|0,0:0|0:0,0:0:0:0:
328,4,209027,1,2,0:0:0:0:
284,56,209154,1,2,0:0:0:0:
216,68,209281,1,8,0:0:0:0:
396,56,209535,1,8,0:0:0:0:
176,160,209789,6,0,P|184:205|186:249,1,90,8|2,0:0|0:0,0:0:0:0:
48,336,210298,2,0,P|39:292|38:247,1,90,8|2,0:0|0:0,0:0:0:0:
24,24,210806,5,8,0:0:0:0:
176,96,211060,1,2,0:0:0:0:
32,40,211315,1,8,0:0:0:0:
184,112,211569,1,2,0:0:0:0:
408,24,211823,5,8,0:0:0:0:
256,96,212077,1,2,0:0:0:0:
408,40,212332,1,8,0:0:0:0:
256,112,212586,1,2,0:0:0:0:
408,240,212840,5,8,0:0:0:0:
248,360,213094,1,2,0:0:0:0:
416,224,213349,1,8,0:0:0:0:
168,272,213603,1,2,0:0:0:0:
104,95,213857,70,0,P|60:112|28:152,1,99.0000030212403,8|2,0:0|0:0,0:0:0:0:
104,95,214366,2,0,P|60:112|24:164,1,107.999996704102,8|2,0:0|0:0,0:0:0:0:
104,95,214874,2,0,P|60:112|20:172,1,116.999994644165,8|2,0:0|0:0,0:0:0:0:
104,95,215382,2,0,P|60:112|20:176,1,125.999996154785,8|2,0:0|0:0,0:0:0:0:
288,196,215891,6,0,P|344:224|416:208,1,135.000005149842,8|2,0:0|0:0,0:0:0:0:
268,44,216400,2,0,P|212:16|128:40,1,144,8|2,0:0|0:0,0:0:0:0:
296,216,216908,2,0,P|352:244|440:216,1,153.000002918243,8|2,0:0|0:0,0:0:0:0:
256,24,217416,2,0,P|200:-4|100:40,1,161.999995056153,8|2,0:0|0:0,0:0:0:0:
96,256,217925,101,12,0:0:0:0:
240,328,218179,1,2,0:0:0:0:
248,336,218433,2,0,P|284:352|325:352,1,80.9999975280763,8|2,0:0|0:0,0:0:0:0:
200,192,218942,2,0,B|200:168|176:136|181:111,2,80.9999975280763,8|2|10,0:0|0:0|2:3,0:0:0:0:
384,112,219704,2,0,P|404:77|440:51,1,80.9999975280763,2|8,0:0|0:0,0:0:0:0:
384,240,220213,1,2,0:0:0:0:
394,245,220467,6,0,P|425:271|450:304,1,80.9999975280763,8|2,0:0|0:0,0:0:0:0:
319,282,220976,2,0,P|288:256|264:224,1,80.9999975280763,8|2,0:0|0:0,0:0:0:0:
112,168,221484,2,0,B|96:176|40:176|24:184,2,80.9999975280763,10|2|8,0:3|0:0|0:0,0:0:0:0:
288,32,222247,1,2,0:0:0:0:
275,41,222501,6,0,P|262:79|264:120,1,80.9999975280763,8|2,0:0|0:0,0:0:0:0:
288,320,223010,1,8,0:0:0:0:
392,112,223264,1,2,0:0:0:0:
376,120,223518,2,0,B|304:183,1,80.9999975280763,10|2,2:3|0:0,0:0:0:0:
424,288,224027,6,0,B|377:260|315:267|275:227,2,161.999995056153,8|8|8,0:0|0:0|0:0,0:0:0:0:
424,288,225298,1,2,0:0:0:0:
315,173,225552,2,0,B|387:110,1,80.9999975280763,10|8,2:3|0:0,0:0:0:0:
272,296,226060,38,0,P|232:248|182:202,1,121.499996292114,14|0,0:0|0:0,0:0:0:0:
176,200,226569,2,0,P|184:224|184:256,1,40.4999987640381,2|0,0:0|0:0,0:0:0:0:
88,232,226823,1,8,0:0:0:0:
264,184,227077,6,0,P|219:142|180:95,1,121.499996292114,10|0,2:3|0:0,0:0:0:0:
176,80,227586,1,2,0:0:0:0:
368,136,227840,1,10,0:0:0:0:
304,328,228094,6,0,P|352:288|392:244,1,121.499996292114,10|0,0:0|0:0,0:0:0:0:
400,232,228603,1,2,0:0:0:0:
192,360,228857,1,8,0:0:0:0:
40,168,229111,2,0,L|35:125,1,40.4999987640381,10|0,2:3|0:0,0:0:0:0:
40,112,229365,5,8,0:0:0:0:
48,96,229493,1,8,0:0:0:0:
80,88,229620,1,10,0:0:0:0:
128,104,229747,1,8,0:0:0:0:
192,88,229874,1,8,0:0:0:0:
272,112,230001,1,8,0:0:0:0:
368,88,230128,5,14,0:0:0:0:
184,176,230382,1,2,0:0:0:0:
240,192,230510,1,2,0:0:0:0:
296,200,230637,2,0,P|320:200|352:192,2,40.4999987640381,10|0|0,0:0|0:0|0:0,0:0:0:0:
144,248,231145,2,0,P|120:248|88:240,2,40.4999987640381,10|0|0,0:0|0:0|0:0,0:0:0:0:
264,360,231654,2,0,P|288:360|320:352,2,40.4999987640381,10|0|0,0:0|0:0|0:0,0:0:0:0:
384,360,232162,70,0,B|396:344|404:320,1,40.4999987640381,10|8,0:0|0:0,0:0:0:0:
412,284,232416,1,8,0:0:0:0:
408,236,232543,1,8,0:0:0:0:
376,200,232671,5,8,0:0:0:0:
328,168,232798,1,8,0:0:0:0:
256,168,232925,1,8,0:0:0:0:
204,188,233052,1,8,0:0:0:0:
148,188,233179,5,8,0:0:0:0:
92,152,233306,1,8,0:0:0:0:
76,72,233433,1,8,0:0:0:0:
112,16,233560,1,8,0:0:0:0:
176,0,233688,5,8,0:0:0:0:
240,32,233815,1,8,0:0:0:0:
328,40,233942,1,8,0:0:0:0:
396,16,234069,1,8,0:0:0:0:
256,192,234196,12,2,235722,0:0:0:0:
272,56,236230,22,0,P|239:109|198:157,1,125.999996154785,14|0,0:0|0:0,0:0:0:0:
176,288,236738,2,0,P|145:232|124:173,1,125.999996154785,10|0,0:0|0:0,0:0:0:0:
24,88,237247,2,0,P|86:89|148:100,1,125.999996154785,10|0,0:0|0:0,0:0:0:0:
176,288,237755,1,10,0:0:0:0:
360,344,238010,1,2,0:0:0:0:
360,344,238264,5,10,0:0:0:0:
288,280,238391,1,2,0:0:0:0:
296,184,238518,1,2,0:0:0:0:
376,136,238645,1,2,0:0:0:0:
464,168,238772,2,0,B|446:212|446:212|397:288,1,125.999996154785,10|0,0:0|0:0,0:0:0:0:
376,136,239281,69,10,0:0:0:0:
312,64,239408,1,2,0:0:0:0:
216,64,239535,1,2,0:0:0:0:
144,128,239662,1,2,0:0:0:0:
144,224,239789,2,0,L|216:224,1,62.9999980773926,10|0,0:0|0:0,0:0:0:0:
272,156,240043,1,2,0:0:0:0:
308,192,240171,1,2,0:0:0:0:
316,240,240298,5,10,0:0:0:0:
280,328,240425,1,2,0:0:0:0:
188,356,240552,1,2,0:0:0:0:
100,324,240679,2,0,B|74:305|74:305|43:268,1,62.9999980773926,2|10,0:0|0:0,0:0:0:0:
207,224,241060,1,2,0:0:0:0:
243,188,241188,1,2,0:0:0:0:
251,139,241315,5,10,0:0:0:0:
215,51,241442,1,2,0:0:0:0:
123,22,241569,1,2,0:0:0:0:
40,68,241696,1,2,0:0:0:0:
20,160,241823,5,10,0:0:0:0:
215,51,242077,1,2,0:0:0:0:
480,184,242332,2,0,P|454:174|416:152,1,62.9999980773926,10|0,0:0|0:0,0:0:0:0:
376,96,242586,1,2,0:0:0:0:
448,80,242713,1,2,0:0:0:0:
320,144,242840,2,0,P|272:112|208:40,1,125.999996154785,10|0,0:0|0:0,0:0:0:0:
47,242,243349,69,10,0:0:0:0:
350,217,243603,1,10,3:0:0:0:
81,169,243857,2,0,B|48:160|48:160|19:159,1,62.9999980773926,8|0,0:0|0:0,0:0:0:0:
316,289,244111,2,0,B|349:297|349:297|379:297,1,62.9999980773926,8|0,0:0|0:0,0:0:0:0:
250,144,244365,6,0,P|220:201|200:264,1,130.500003982544,14|0,0:0|0:0,0:0:0:0:
176,112,244874,2,0,P|141:57|97:8,1,130.500003982544,10|0,0:0|0:0,0:0:0:0:
240,64,245382,2,0,P|304:61|368:47,1,130.500003982544,10|0,0:0|0:0,0:0:0:0:
200,263,245891,1,10,0:0:0:0:
368,47,246145,1,2,0:0:0:0:
487,243,246399,6,0,P|471:211|458:169,1,65.250001991272,10|0,0:0|0:0,0:0:0:0:
378,297,246654,2,0,P|394:329|407:371,1,65.250001991272,2|0,0:0|0:0,0:0:0:0:
394,217,246908,2,0,P|378:185|365:143,1,65.250001991272,10|0,0:0|0:0,0:0:0:0:
285,271,247162,2,0,P|301:303|314:345,1,65.250001991272,2|0,0:0|0:0,0:0:0:0:
312,204,247416,5,10,0:0:0:0:
232,148,247543,1,2,0:0:0:0:
176,68,247671,1,2,0:0:0:0:
176,68,247925,2,0,L|136:132,1,65.250001991272,10|0,0:0|0:0,0:0:0:0:
39,203,248179,2,0,B|48:172|48:172|80:139,1,65.250001991272,2|0,0:0|0:0,0:0:0:0:
176,68,248433,69,10,0:0:0:0:
272,92,248560,1,2,0:0:0:0:
368,84,248688,2,0,B|399:75|399:75|432:43,1,65.250001991272,2|0,0:0|0:0,0:0:0:0:
144,144,248942,1,10,0:0:0:0:
360,264,249196,1,2,0:0:0:0:
360,264,249450,5,10,0:0:0:0:
304,320,249577,1,2,0:0:0:0:
228,336,249704,1,2,0:0:0:0:
151,315,249832,1,2,0:0:0:0:
208,264,249959,5,10,0:0:0:0:
248,180,250086,1,2,0:0:0:0:
256,88,250213,1,2,0:0:0:0:
216,4,250340,1,2,0:0:0:0:
92,44,250467,6,0,P|133:92|188:126,1,130.500003982544,12|0,0:0|0:0,0:0:0:0:
288,24,250849,2,0,P|351:39|415:34,1,130.500003982544,8|0,0:0|0:0,0:0:0:0:
392,176,251230,2,0,B|359:178|359:178|327:194,1,65.250001991272,8|0,0:0|0:0,0:0:0:0:
388,264,251484,2,0,B|421:262|421:262|453:246,1,65.250001991272,8|0,0:0|0:0,0:0:0:0:
268,256,251738,69,10,0:0:0:0:
268,256,251865,2,0,L|228:240,1,32.625000995636,2|2,0:0|0:0,0:0:0:0:
188,288,251993,2,0,L|167:262,1,32.625000995636,2|2,0:0|0:0,0:0:0:0:
104,284,252120,1,2,0:0:0:0:
36,232,252247,1,2,0:0:0:0:
4,152,252374,1,2,0:0:0:0:
40,72,252501,6,0,P|72:48|120:40,1,67.5000025749208,14|0,0:0|0:0,0:0:0:0:
168,40,252755,1,2,0:0:0:0:
224,80,252882,1,2,0:0:0:0:
248,8,253010,6,0,P|279:32|299:76,1,67.5000025749208,10|0,0:0|0:0,0:0:0:0:
312,123,253264,1,2,0:0:0:0:
287,187,253391,1,2,0:0:0:0:
360,196,253518,6,0,P|344:232|306:263,1,67.5000025749208,10|0,0:0|0:0,0:0:0:0:
265,287,253772,1,2,0:0:0:0:
197,279,253899,1,2,0:0:0:0:
320,352,254027,69,10,0:0:0:0:
320,352,254154,1,2,0:0:0:0:
464,304,254281,2,0,P|467:268|456:232,1,67.5000025749208,2|0,0:0|0:0,0:0:0:0:
424,168,254535,5,10,0:0:0:0:
384,128,254662,1,2,0:0:0:0:
392,8,254789,1,2,0:0:0:0:
432,48,254916,1,2,0:0:0:0:
336,64,255043,2,0,P|305:50|271:45,1,67.5000025749208,10|0,0:0|0:0,0:0:0:0:
72,88,255298,2,0,P|102:101|136:106,1,67.5000025749208,2|0,0:0|0:0,0:0:0:0:
152,104,255552,6,0,P|92:143|87:279,1,202.500007724762,10|0,0:0|0:0,0:0:0:0:
88,280,256060,1,10,0:0:0:0:
280,344,256315,6,0,P|280:304|296:264,1,67.5000025749208,2|0,0:0|0:0,0:0:0:0:
392,296,256569,2,0,P|392:256|376:216,1,67.5000025749208,10|0,0:0|0:0,0:0:0:0:
289,279,256823,1,2,0:0:0:0:
392,296,256950,1,2,0:0:0:0:
192,256,257077,2,0,B|208:224|208:224|231:202,1,67.5000025749208,10|0,0:0|0:0,0:0:0:0:
252,0,257332,70,0,P|252:40|236:80,1,67.5000025749208,2|0,0:0|0:0,0:0:0:0:
140,48,257586,2,0,P|140:88|156:128,1,67.5000025749208,10|0,0:0|0:0,0:0:0:0:
243,65,257840,1,2,0:0:0:0:
140,48,257967,1,2,0:0:0:0:
340,88,258094,2,0,B|324:120|324:120|301:142,1,67.5000025749208,10|0,0:0|0:0,0:0:0:0:
200,232,258349,6,0,P|232:248|272:248,1,67.5000025749208,2|0,0:0|0:0,0:0:0:0:
280,252,258603,2,0,P|248:308|168:332,1,135.000005149842,10|0,0:0|0:0,0:0:0:0:
32,136,258984,1,2,0:0:0:0:
32,152,259111,2,0,P|64:208|144:232,1,135.000005149842,10|0,0:0|0:0,0:0:0:0:
128,132,259493,1,2,0:0:0:0:
132,122,259620,2,0,P|148:92|193:72,1,67.5000025749208,10|0,0:0|0:0,0:0:0:0:
202,70,259874,1,8,3:0:0:0:
244,76,260001,1,8,3:0:0:0:
293,103,260128,5,8,0:0:0:0:
334,159,260255,1,8,0:0:0:0:
338,241,260382,1,8,0:0:0:0:
294,326,260510,1,8,0:0:0:0:
192,364,260637,6,0,P|163:357|122:338,1,67.5000025749208,14|0,0:0|0:0,0:0:0:0:
82,250,260891,1,2,0:0:0:0:
183,247,261018,1,2,0:0:0:0:
35,339,261145,69,10,0:0:0:0:
300,32,261399,1,10,0:0:0:0:
464,216,261654,2,0,P|435:197|406:180,1,67.5000025749208,10|0,0:0|0:0,0:0:0:0:
288,120,261908,1,2,0:0:0:0:
185,111,262035,1,2,0:0:0:0:
88,144,262162,1,10,0:0:0:0:
128,341,262416,2,0,P|144:301|168:261,1,67.5000025749208,2|0,0:0|0:0,0:0:0:0:
160,269,262671,6,0,P|128:278|70:274,1,67.5000025749208,14|0,0:0|0:0,0:0:0:0:
44,216,262925,1,2,0:0:0:0:
76,168,263052,1,2,0:0:0:0:
96,48,263179,1,10,0:0:0:0:
48,79,263306,1,2,0:0:0:0:
160,128,263433,2,0,P|199:144|244:156,1,67.5000025749208,2|0,0:0|0:0,0:0:0:0:
320,160,263688,5,10,0:0:0:0:
369,109,263815,1,2,0:0:0:0:
488,72,263942,1,2,0:0:0:0:
438,23,264069,1,2,0:0:0:0:
304,32,264196,5,10,3:0:0:0:
370,12,264323,1,2,3:0:0:0:
440,128,264450,1,8,3:0:0:0:
439,168,264577,1,8,3:0:0:0:
429,203,264704,6,0,P|360:288|256:336,1,220.499993270874,14|0,0:0|0:0,0:0:0:0:
240,336,265721,2,0,P|304:247|323:134,1,220.499993270874,14|0,0:0|0:0,0:0:0:0:
288,40,266738,6,0,B|160:64|256:256|128:280,1,292.5,14|0,0:0|0:0,0:0:0:0:
128,200,268518,2,0,L|108:189,1,22.5,10|0,0:0|0:0,0:0:0:0:
40,288,268772,6,0,B|120:368|256:352,1,222.74999320221,14|0,0:0|0:0,0:0:0:0:
232,264,270298,85,10,3:0:0:0:
40,192,270552,1,2,0:0:0:0:
24,176,270679,1,2,0:0:0:0:
24,152,270806,38,0,P|24:111|30:71,1,80.9999975280763,14|0,0:0|0:0,0:0:0:0:
64,24,271188,1,2,0:0:0:0:
120,8,271315,1,10,0:0:0:0:
176,160,271569,2,0,L|136:112,1,40.4999987640381,2|0,0:0|0:0,0:0:0:0:
328,152,271823,6,0,P|332:128|328:104,1,40.4999987640381,10|0,0:0|0:0,0:0:0:0:
284,76,272077,2,0,P|280:52|284:28,1,40.4999987640381,2|0,0:0|0:0,0:0:0:0:
328,4,272332,1,10,0:0:0:0:
176,160,272586,2,0,L|216:112,1,40.4999987640381,2|0,0:0|0:0,0:0:0:0:
24,168,272840,6,0,P|20:192|24:216,1,40.4999987640381,10|0,0:0|0:0,0:0:0:0:
68,244,273094,2,0,P|72:268|68:292,1,40.4999987640381,2|0,0:0|0:0,0:0:0:0:
24,316,273349,1,10,0:0:0:0:
176,160,273603,2,0,L|136:208,1,40.4999987640381,2|0,0:0|0:0,0:0:0:0:
328,160,273857,69,10,0:0:0:0:
332,208,273984,1,2,0:0:0:0:
356,248,274111,1,2,0:0:0:0:
396,276,274238,1,2,0:0:0:0:
288,260,274365,5,10,0:0:0:0:
439,124,274620,1,2,0:0:0:0:
415,104,274747,1,2,0:0:0:0:
387,92,274874,6,0,P|367:88|343:92,1,40.4999987640381,10|0,0:0|0:0,0:0:0:0:
228,104,275128,1,2,0:0:0:0:
192,152,275255,1,2,0:0:0:0:
140,180,275382,2,0,L|100:180,1,40.4999987640381,10|0,0:0|0:0,0:0:0:0:
204,244,275637,2,0,L|244:244,1,40.4999987640381,2|0,0:0|0:0,0:0:0:0:
272,160,275891,5,8,0:0:0:0:
304,112,276018,1,2,0:0:0:0:
352,88,276145,1,2,0:0:0:0:
408,80,276272,1,2,0:0:0:0:
512,80,276399,69,8,0:0:0:0:
480,128,276527,1,2,0:0:0:0:
432,152,276654,1,2,0:0:0:0:
376,160,276781,1,2,0:0:0:0:
264,48,276908,5,8,0:0:0:0:
208,16,277035,1,2,0:0:0:0:
144,16,277162,1,2,0:0:0:0:
88,48,277289,1,2,0:0:0:0:
152,103,277416,6,0,P|172:101|192:96,1,40.4999987640381,10|0,0:0|0:0,0:0:0:0:
63,144,277671,2,0,P|44:148|24:152,1,40.4999987640381,2|0,0:0|0:0,0:0:0:0:
96,208,277925,5,10,0:0:0:0:
128,256,278052,1,2,0:0:0:0:
184,288,278179,1,2,0:0:0:0:
256,296,278306,1,2,0:0:0:0:
328,264,278433,1,10,0:0:0:0:
376,192,278560,1,2,0:0:0:0:
376,96,278688,1,2,0:0:0:0:
296,32,278815,1,2,0:0:0:0:
184,40,278942,38,0,P|148:48|108:80,1,72,2|0,0:0|0:0,0:0:0:0:
96,156,279323,2,0,P|132:148|172:116,1,72,2|0,0:0|0:0,0:0:0:0:
260,196,279704,2,0,P|232:193|208:180,1,36
212,180,279959,6,0,P|262:177|315:134,1,108,2|0,0:0|0:0,0:0:0:0:
388,72,280467,2,0,P|434:111|489:143,1,108
480,152,280976,102,0,P|399:158|365:196,1,134.999995880127,2|0,0:0|0:0,0:0:0:0:
336,264,281738,1,0,0:0:0:0:
264,280,281865,1,0,0:0:0:0:
232,344,281993,22,0,B|317:366|400:364|402:356|402:356|405:361|405:361|407:353|407:353|410:358|410:358|412:350|412:350|415:355|415:355|417:348|417:348|420:352|420:352|422:345|422:345|424:350|424:350|427:342|427:342|429:347|429:347|431:339|431:339|434:344|434:344|440:337|440:337|448:339,1,270,2|0,0:0|0:0,0:0:0:0:
