osu file format v14

[General]
AudioFilename: audio.mp3
AudioLeadIn: 0
PreviewTime: 62000
Countdown: 0
SampleSet: Soft
StackLeniency: 0.7
Mode: 2
LetterboxInBreaks: 0
WidescreenStoryboard: 1

[Editor]
DistanceSpacing: 0.4
BeatDivisor: 8
GridSize: 8
TimelineZoom: 1.4

[Metadata]
Title:No.7 (TV Size)
TitleUnicode:No.7 (TV Size)
Artist:Jibaku Shounen Band
ArtistUnicode:地縛少年バンド
Creator:rew0825
Version:Salad
Source:地縛少年花子くん
Tags:AirinCat [_-Kukkai-_] Kukkai anime japanese rock jrock j-rock number 7 no seven hanako san kun Toilet bound Toilet-bound Hanako-kun Yashiro Nene Minamoto Kou Mitsuba Sousuke 生田鷹司 × オーイシマサヨシ x ZiNG Youji Ikuta from PENGUIN RESEARCH Masayoshi Ooishi opening op anchor
BeatmapID:2348271
BeatmapSetID:1119382

[Difficulty]
HPDrainRate:3
CircleSize:3
OverallDifficulty:7
ApproachRate:7
SliderMultiplier:1.28000000000001
SliderTickRate:1

[Events]
//Background and Video events
0,0,"BG.jpg",0,0
//Break Periods
//Storyboard Layer 0 (Background)
//Storyboard Layer 1 (Fail)
//Storyboard Layer 2 (Pass)
//Storyboard Layer 3 (Foreground)
//Storyboard Layer 4 (Overlay)
//Storyboard Sound Samples

[TimingPoints]
145,315.789473684211,4,2,1,40,1,0
6302,-100,4,2,1,80,0,0
8987,-100,4,2,1,40,0,0
10408,-100,4,2,1,50,0,0
11197,-100,4,2,1,60,0,0
11513,-100,4,2,1,70,0,0
31723,-100,4,2,1,60,0,0
51934,-100,4,2,1,70,0,0
62513,-100,4,2,1,50,0,0
63145,-100,4,2,1,80,0,1
83355,-100,4,2,1,70,0,0
83513,-100,4,2,1,40,0,0
85408,-100,4,2,1,30,0,0
85566,-100,4,2,1,70,0,0

[Colours]
Combo1 : 231,194,86
Combo2 : 227,74,104
Combo3 : 64,206,236
Combo4 : 125,227,128

[HitObjects]
208,192,5671,5,2,0:0:0:0:
128,192,5829,1,2,0:0:0:0:
135,128,5987,1,2,0:0:0:0:
216,128,6145,1,2,0:0:0:0:
392,128,6302,6,0,P|456:128|472:72,1,128.000000000001,6|8,1:2|1:3,0:0:0:0:
392,72,6776,1,8,1:2:0:0:
136,72,7092,2,0,L|40:72,2,96.0000000000007,14|10|10,1:2|0:0|0:0,0:0:0:0:
232,72,7723,6,0,P|264:88|232:120,1,96.0000000000007,10|8,1:2|0:2,0:0:0:0:
104,120,8197,2,0,P|64:152|104:200,1,128.000000000001,8|0,0:2|1:0,0:0:0:0:
280,200,8671,1,12,0:0:0:0:
136,200,10566,6,0,P|96:168|136:120,1,128.000000000001,12|8,0:0|0:0,0:0:0:0:
216,120,11039,1,8,0:0:0:0:
136,120,11197,1,10,0:0:0:0:
72,120,11355,1,10,0:0:0:0:
248,120,11513,6,0,L|384:120,1,128.000000000001,4|8,1:2|0:0,0:0:0:0:
216,120,12145,2,0,L|88:120,1,128.000000000001,2|8,1:2|0:0,0:0:0:0:
184,120,12618,6,0,P|248:120|264:176,1,128.000000000001,2|2,0:0|1:2,0:0:0:0:
104,176,13250,2,0,P|64:208|104:256,1,128.000000000001,2|2,0:0|1:2,0:0:0:0:
184,255,13723,1,10,0:0:0:0:
440,256,14039,6,0,P|480:224|440:176,1,128.000000000001,2|8,1:2|0:0,0:0:0:0:
280,176,14671,2,0,L|144:176,1,128.000000000001,2|8,1:2|0:0,0:0:0:0:
248,176,15145,6,0,P|288:144|248:96,1,128.000000000001,2|8,0:0|0:1,0:0:0:0:
168,96,15618,1,8,0:1:0:0:
72,96,15776,2,0,P|32:128|72:176,1,128.000000000001,0|2,0:0|0:0,0:0:0:0:
152,176,16250,1,10,1:2:0:0:
408,176,16566,6,0,P|448:208|408:256,1,128.000000000001,6|8,1:2|0:0,0:0:0:0:
312,256,17039,2,0,P|272:224|312:176,1,128.000000000001,2|2,1:2|1:2,0:0:0:0:
408,176,17513,1,10,0:0:0:0:
248,176,17829,6,0,L|120:176,1,128.000000000001,0|10,1:0|0:0,0:0:0:0:
216,176,18302,2,0,L|344:176,1,128.000000000001,2|2,0:0|1:2,0:0:0:0:
440,176,18776,1,10,0:0:0:0:
184,176,19092,6,0,P|120:176|104:232,1,128.000000000001,6|8,1:2|0:0,0:0:0:0:
200,232,19566,2,0,P|240:264|200:312,1,128.000000000001,2|2,0:0|1:2,0:0:0:0:
104,312,20039,1,10,0:0:0:0:
264,312,20355,5,0,1:0:0:0:
344,312,20513,1,8,1:1:0:0:
264,312,20671,1,8,1:1:0:0:
104,312,20987,1,4,1:3:0:0:
208,312,21223,1,4,1:3:0:0:
104,312,21460,1,4,1:3:0:0:
280,312,21618,6,0,L|408:312,1,128.000000000001,6|8,1:2|0:0,0:0:0:0:
248,312,22250,2,0,P|208:280|248:232,1,128.000000000001,2|8,1:2|0:0,0:0:0:0:
344,232,22723,6,0,P|384:200|344:152,1,128.000000000001,2|2,0:0|1:2,0:0:0:0:
184,152,23355,2,0,L|56:152,1,128.000000000001,2|2,0:0|1:2,0:0:0:0:
152,152,23829,1,10,0:0:0:0:
408,152,24145,6,0,P|448:184|408:232,1,128.000000000001,2|8,1:2|0:0,0:0:0:0:
248,232,24776,2,0,L|120:232,1,128.000000000001,2|8,1:2|0:0,0:0:0:0:
216,232,25250,6,0,P|256:200|216:152,1,128.000000000001,2|8,0:0|0:1,0:0:0:0:
128,152,25723,1,8,0:1:0:0:
216,152,25881,2,0,L|344:152,1,128.000000000001,0|2,0:0|0:0,0:0:0:0:
440,152,26355,1,10,1:2:0:0:
184,152,26671,6,0,L|56:152,1,128.000000000001,6|8,1:2|0:0,0:0:0:0:
152,152,27145,2,0,L|280:152,1,128.000000000001,2|2,0:0|1:2,0:0:0:0:
184,152,27618,1,10,0:0:0:0:
344,152,27934,6,0,P|384:184|344:232,1,128.000000000001,0|10,1:0|0:0,0:0:0:0:
248,232,28408,2,0,P|208:264|248:312,1,128.000000000001,2|2,0:0|1:2,0:0:0:0:
344,312,28881,1,10,0:0:0:0:
88,312,29197,6,0,P|48:280|88:232,1,128.000000000001,6|8,1:2|0:0,0:0:0:0:
184,232,29671,2,0,L|312:232,1,128.000000000001,2|2,0:0|1:2,0:0:0:0:
216,232,30145,1,10,0:0:0:0:
56,232,30460,6,0,L|48:168,1,64.0000000000005,0|8,1:0|0:1,0:0:0:0:
144,168,30776,1,8,0:1:0:0:
400,168,31092,1,8,0:1:0:0:
488,168,31250,1,8,0:0:0:0:
480,88,31408,1,8,0:0:0:0:
392,88,31566,1,8,0:0:0:0:
216,88,31723,6,0,L|80:88,1,128.000000000001,6|10,1:2|0:0,0:0:0:0:
232,88,32355,2,0,L|296:88,1,64.0000000000005,2|0,1:2|1:0,0:0:0:0:
216,88,32671,6,0,P|176:120|216:168,1,128.000000000001,8|0,0:0|1:0,0:0:0:0:
376,280,33302,2,0,L|504:280,1,128.000000000001,8|0,0:0|1:0,0:0:0:0:
424,280,33776,2,0,L|296:280,1,128.000000000001,0|0,1:0|0:0,0:0:0:0:
120,280,34250,6,0,P|80:248|120:200,1,128.000000000001,6|10,1:2|0:0,0:0:0:0:
264,200,34881,2,0,L|392:200,1,128.000000000001,2|8,1:2|0:0,0:0:0:0:
296,200,35355,6,0,L|168:200,1,128.000000000001,2|0,0:0|1:0,0:0:0:0:
248,200,35829,1,8,0:0:0:0:
408,200,36145,1,8,0:0:0:0:
488,200,36302,1,8,0:0:0:0:
408,200,36460,1,4,1:3:0:0:
152,200,36776,6,0,P|88:200|72:144,1,128.000000000001,4|10,1:2|0:0,0:0:0:0:
216,144,37408,2,0,L|344:144,1,128.000000000001,2|8,1:2|0:0,0:0:0:0:
248,144,37881,5,2,0:0:0:0:
112,144,38197,1,2,0:0:0:0:
248,144,38513,1,2,0:0:0:0:
328,144,38671,2,0,P|368:176|328:224,1,128.000000000001,2|10,1:2|0:0,0:0:0:0:
168,224,39302,6,0,L|40:224,1,128.000000000001,10|0,0:0|1:0,0:0:0:0:
200,224,39934,2,0,L|72:224,1,128.000000000001,2|8,1:2|0:0,0:0:0:0:
152,224,40408,1,0,1:0:0:0:
248,224,40566,6,0,L|376:224,1,128.000000000001,10|0,1:2|1:0,0:0:0:0:
280,224,41039,1,10,0:0:0:0:
136,224,41355,1,10,0:0:0:0:
56,224,41513,1,8,0:0:0:0:
136,224,41671,1,8,0:0:0:0:
312,224,41829,6,0,L|448:224,1,128.000000000001,6|10,1:2|0:2,0:0:0:0:
296,224,42460,2,0,L|160:224,1,128.000000000001,2|8,1:2|0:0,0:0:0:0:
264,224,42934,6,0,L|400:224,1,128.000000000001,2|2,0:0|1:2,0:0:0:0:
312,224,43408,1,10,0:0:0:0:
168,224,43723,1,2,1:2:0:0:
88,224,43881,2,0,P|48:192|88:144,1,128.000000000001,2|2,1:2|0:0,0:0:0:0:
264,168,44355,6,0,L|392:168,1,128.000000000001,2|10,1:2|0:2,0:0:0:0:
248,168,44987,2,0,P|208:136|248:88,1,128.000000000001,2|10,1:2|0:2,0:0:0:0:
344,88,45460,6,0,P|384:120|344:168,1,128.000000000001,2|8,0:0|0:1,0:0:0:0:
248,168,45934,1,8,0:1:0:0:
104,168,46250,1,2,1:2:0:0:
24,168,46408,1,8,0:0:0:0:
32,248,46566,1,8,0:0:0:0:
112,248,46723,1,8,0:0:0:0:
288,248,46881,6,0,L|424:248,1,128.000000000001,6|10,1:2|0:0,0:0:0:0:
272,248,47513,2,0,L|144:248,1,128.000000000001,2|8,1:2|0:0,0:0:0:0:
240,248,47987,5,2,0:0:0:0:
376,248,48302,1,2,1:2:0:0:
240,248,48618,1,2,0:0:0:0:
160,248,48776,2,0,P|88:240|64:184,1,128.000000000001,2|10,1:2|0:0,0:0:0:0:
320,168,49408,6,0,L|448:168,1,128.000000000001,6|10,1:2|0:2,0:0:0:0:
288,168,50039,2,0,L|416:168,1,128.000000000001,2|10,1:2|0:2,0:0:0:0:
336,168,50513,1,2,0:2:0:0:
240,168,50671,6,0,L|104:168,1,128.000000000001,2|8,1:2|0:1,0:0:0:0:
192,168,51145,1,8,0:1:0:0:
448,168,51460,2,0,L|456:232,1,64.0000000000005,0|10,1:0|0:0,0:0:0:0:
376,232,51776,1,2,0:0:0:0:
200,232,51934,6,0,L|72:232,1,128.000000000001,6|2,1:2|1:2,0:0:0:0:
232,232,52566,2,0,L|368:232,1,128.000000000001,10|2,0:0|0:0,0:0:0:0:
280,232,53039,1,0,0:0:0:0:
184,232,53197,6,0,P|144:200|184:152,1,128.000000000001,2|2,1:2|0:2,0:0:0:0:
344,152,53829,2,0,P|408:152|424:96,1,128.000000000001,10|8,1:2|0:0,0:0:0:0:
344,96,54302,1,12,0:3:0:0:
168,96,54460,6,0,L|32:96,1,128.000000000001,4|2,1:3|1:2,0:0:0:0:
120,96,54934,1,0,1:2:0:0:
216,96,55092,2,0,L|352:96,1,128.000000000001,10|2,0:0|0:0,0:0:0:0:
184,96,55723,6,0,P|144:128|184:176,1,128.000000000001,2|2,1:2|0:2,0:0:0:0:
344,176,56355,1,6,1:3:0:0:
448,176,56592,1,6,1:3:0:0:
344,176,56829,1,6,1:3:0:0:
168,176,56987,5,4,1:3:0:0:
88,176,57145,1,2,0:2:0:0:
232,176,57460,1,0,1:0:0:0:
328,176,57618,2,0,P|368:144|328:96,1,128.000000000001,10|2,0:0|0:0,0:0:0:0:
248,96,58092,1,0,0:0:0:0:
152,96,58250,5,2,1:2:0:0:
48,96,58487,1,2,1:2:0:0:
152,96,58723,1,2,1:2:0:0:
248,96,58881,2,0,L|376:96,1,128.000000000001,8|10,0:0|0:0,0:0:0:0:
296,96,59355,1,0,1:0:0:0:
120,96,59513,6,0,P|80:128|120:176,1,128.000000000001,14|8,1:2|0:0,0:0:0:0:
200,176,59987,1,8,0:0:0:0:
296,176,60145,1,10,0:0:0:0:
376,176,60302,1,10,0:0:0:0:
368,240,60460,1,8,0:0:0:0:
288,240,60618,1,4,1:3:0:0:
112,240,60776,6,0,P|72:208|112:160,1,128.000000000001,14|0,0:0|1:0,0:0:0:0:
208,160,61250,1,10,0:0:0:0:
368,160,61566,1,12,1:3:0:0:
448,160,61723,1,4,1:3:0:0:
368,160,61881,1,4,1:3:0:0:
176,160,62513,5,2,0:0:0:0:
96,160,62671,2,0,P|112:216|176:216,1,128.000000000001,2|2,0:0|0:0,0:0:0:0:
352,216,63145,6,0,P|392:184|352:136,1,128.000000000001,6|2,1:2|0:0,0:0:0:0:
256,136,63618,1,10,1:2:0:0:
96,136,63934,1,2,1:2:0:0:
16,136,64092,1,2,0:0:0:0:
24,56,64250,1,10,1:2:0:0:
104,56,64408,1,2,0:0:0:0:
280,56,64566,6,0,L|408:56,1,128.000000000001,2|10,1:2|1:2,0:0:0:0:
312,56,65039,1,2,0:0:0:0:
168,56,65355,1,2,0:0:0:0:
248,56,65513,1,8,0:0:0:0:
424,56,65671,6,0,P|464:88|424:136,1,128.000000000001,6|2,1:2|0:0,0:0:0:0:
328,136,66145,1,10,1:2:0:0:
168,136,66460,2,0,L|160:200,1,64.0000000000005,2|2,1:2|0:0,0:0:0:0:
256,200,66776,2,0,L|264:264,1,64.0000000000005,10|2,1:2|0:0,0:0:0:0:
88,264,67092,6,0,P|48:232|88:184,1,128.000000000001,2|10,1:2|1:2,0:0:0:0:
184,184,67566,1,2,0:0:0:0:
328,184,67881,1,2,0:0:0:0:
408,184,68039,1,10,0:0:0:0:
232,184,68197,6,0,L|96:184,1,128.000000000001,6|0,1:2|0:0,0:0:0:0:
184,184,68671,1,8,1:2:0:0:
328,208,68987,2,0,P|368:176|328:128,1,128.000000000001,0|10,1:0|1:2,0:0:0:0:
168,128,69618,6,0,P|128:160|168:208,1,128.000000000001,2|10,1:2|1:2,0:0:0:0:
264,208,70092,2,0,P|328:208|344:264,1,128.000000000001,2|2,0:0|0:0,0:0:0:0:
264,264,70566,1,10,0:2:0:0:
88,264,70723,6,0,P|48:232|88:184,1,128.000000000001,6|2,1:2|1:2,0:0:0:0:
184,184,71197,1,8,1:2:0:0:
344,184,71513,1,2,1:2:0:0:
424,184,71671,1,8,0:1:0:0:
344,184,71829,1,8,0:1:0:0:
168,184,71987,6,0,P|128:152|168:104,1,128.000000000001,6|0,1:2|1:0,0:0:0:0:
264,104,72460,1,10,0:2:0:0:
104,104,72776,2,0,L|96:168,1,64.0000000000005,4|4,1:3|1:3,0:0:0:0:
352,168,73250,6,0,P|416:168|432:224,1,128.000000000001,6|2,1:2|0:0,0:0:0:0:
336,224,73723,1,10,1:2:0:0:
176,224,74039,2,0,L|184:160,1,64.0000000000005,2|2,1:2|0:2,0:0:0:0:
280,160,74355,2,0,L|272:96,1,64.0000000000005,10|2,1:2|0:2,0:0:0:0:
96,96,74671,6,0,P|56:128|96:176,1,128.000000000001,2|10,1:2|1:2,0:0:0:0:
192,176,75145,1,2,0:0:0:0:
352,176,75460,1,2,0:0:0:0:
96,176,75776,6,0,P|56:208|96:256,1,128.000000000001,6|2,1:2|0:0,0:0:0:0:
192,256,76250,1,10,1:2:0:0:
352,256,76566,1,2,1:2:0:0:
432,256,76723,1,2,0:2:0:0:
424,176,76881,1,10,1:2:0:0:
344,176,77039,1,2,0:2:0:0:
168,176,77197,5,10,1:2:0:0:
88,176,77355,1,0,1:0:0:0:
168,176,77513,1,10,0:0:0:0:
264,176,77671,1,6,1:3:0:0:
104,176,77987,1,6,1:3:0:0:
360,176,78302,6,0,P|400:208|360:256,1,128.000000000001,6|0,1:2|1:0,0:0:0:0:
280,255,78776,1,8,0:0:0:0:
120,256,79092,1,10,0:0:0:0:
32,256,79250,1,0,1:0:0:0:
40,168,79408,1,10,0:0:0:0:
128,168,79566,1,0,1:0:0:0:
304,168,79723,6,0,P|344:136|304:88,1,128.000000000001,10|10,0:0|0:0,0:0:0:0:
208,88,80197,1,0,1:0:0:0:
48,88,80513,1,2,1:2:0:0:
304,88,80829,6,0,L|432:88,1,128.000000000001,6|0,1:2|1:0,0:0:0:0:
352,88,81302,1,10,0:0:0:0:
208,88,81618,1,12,1:3:0:0:
104,88,81855,1,8,1:2:0:0:
208,88,82092,1,8,1:2:0:0:
384,88,82250,5,10,1:2:0:0:
488,88,82487,1,8,0:2:0:0:
384,88,82723,1,8,1:2:0:0:
224,88,83039,2,0,L|216:152,1,64.0000000000005,8|8,0:0|0:0,0:0:0:0:
392,152,83355,1,4,1:2:0:0:
256,192,83671,12,0,85250,0:0:0:0:
128,248,85566,6,0,L|120:184,1,64.0000000000005,4|8,1:3|1:2,0:0:0:0:
216,184,85881,1,8,0:0:0:0:
376,184,86197,6,0,L|384:120,1,64.0000000000005,4|8,1:3|0:0,0:0:0:0:
288,120,86513,1,8,0:0:0:0:
128,120,86829,5,4,1:3:0:0:
48,120,86987,1,8,0:0:0:0:
128,120,87145,1,8,0:0:0:0:
288,120,87460,5,4,1:3:0:0:
368,120,87618,1,8,0:0:0:0:
288,120,87776,1,8,0:0:0:0:
208,120,87934,1,0,1:0:0:0:
216,208,88092,1,8,1:3:0:0:
296,208,88250,1,4,1:3:0:0:
472,208,88408,1,12,1:2:0:0:
