osu file format v14

[General]
AudioFilename: audio.mp3
AudioLeadIn: 0
PreviewTime: 62000
Countdown: 0
SampleSet: Soft
StackLeniency: 0.7
Mode: 2
LetterboxInBreaks: 0
WidescreenStoryboard: 1

[Editor]
DistanceSpacing: 0.4
BeatDivisor: 4
GridSize: 8
TimelineZoom: 1.8

[Metadata]
Title:No.7 (TV Size)
TitleUnicode:No.7 (TV Size)
Artist:Jibaku Shounen Band
ArtistUnicode:地縛少年バンド
Creator:rew0825
Version:Platter
Source:地縛少年花子くん
Tags:AirinCat [_-Kukkai-_] Kukkai anime japanese rock jrock j-rock number 7 no seven hanako san kun Toilet bound Toilet-bound Hanako-kun Yashiro Nene Minamoto Kou Mitsuba Sousuke 生田鷹司 × オーイシマサヨシ x ZiNG Youji Ikuta from PENGUIN RESEARCH Masayoshi Ooishi opening op anchor
BeatmapID:2341826
BeatmapSetID:1119382

[Difficulty]
HPDrainRate:4
CircleSize:3.5
OverallDifficulty:8
ApproachRate:8
SliderMultiplier:1.49000000000001
SliderTickRate:2

[Events]
//Background and Video events
0,0,"BG.jpg",0,0
//Break Periods
//Storyboard Layer 0 (Background)
//Storyboard Layer 1 (Fail)
//Storyboard Layer 2 (Pass)
//Storyboard Layer 3 (Foreground)
//Storyboard Layer 4 (Overlay)
//Storyboard Sound Samples

[TimingPoints]
145,315.789473684211,4,2,1,40,1,0
6302,-100,4,2,1,80,0,0
8987,-100,4,2,1,40,0,0
10408,-100,4,2,1,50,0,0
11197,-100,4,2,1,60,0,0
11513,-100,4,2,1,70,0,0
31723,-100,4,2,1,60,0,0
33934,-100,4,2,2,60,0,0
34092,-100,4,2,1,60,0,0
44039,-100,4,2,2,60,0,0
44197,-100,4,2,1,60,0,0
51934,-100,4,2,1,70,0,0
62513,-100,4,2,1,50,0,0
63145,-100,4,2,1,80,0,1
83355,-100,4,2,1,70,0,0
83513,-100,4,2,1,40,0,0
85408,-100,4,2,1,30,0,0
85566,-100,4,2,1,70,0,0

[Colours]
Combo1 : 231,194,86
Combo2 : 227,74,104
Combo3 : 64,206,236
Combo4 : 125,227,128

[HitObjects]
248,256,5671,5,2,0:0:0:0:
344,256,5829,2,0,L|424:256,2,74.5000000000005,2|2|2,0:0|0:0|0:0,0:0:0:0:
120,256,6302,6,0,P|72:232|120:176,1,149.000000000001,6|8,1:2|1:3,0:0:0:0:
208,176,6776,1,8,1:2:0:0:
120,176,6934,1,8,1:3:0:0:
344,176,7092,1,14,1:2:0:0:
464,176,7329,1,10,0:0:0:0:
344,176,7566,1,10,0:0:0:0:
176,176,7723,5,10,1:2:0:0:
168,287,7960,1,8,0:2:0:0:
296,288,8197,2,0,P|344:264|296:208,1,149.000000000001,8|0,0:2|1:0,0:0:0:0:
72,208,8671,1,12,0:0:0:0:
216,208,8987,5,0,0:0:0:0:
224,208,9145,1,0,0:0:0:0:
80,208,9460,1,0,0:0:0:0:
72,208,9618,1,0,0:0:0:0:
224,208,9934,1,0,0:0:0:0:
232,208,10092,1,0,0:0:0:0:
72,208,10408,5,0,1:0:0:0:
296,208,10566,2,0,L|376:208,1,74.5000000000005,12|0,0:0|0:0,0:0:0:0:
208,208,10881,1,8,0:0:0:0:
128,208,11039,1,8,0:0:0:0:
216,208,11197,1,10,0:0:0:0:
128,208,11355,1,10,0:0:0:0:
352,208,11513,6,0,L|360:128,1,74.5000000000005,4|0,1:2|0:0,0:0:0:0:
264,136,11829,2,0,L|256:56,1,74.5000000000005,8|0,0:0|0:0,0:0:0:0:
424,64,12145,2,0,P|472:88|424:144,1,149.000000000001,2|8,1:2|0:0,0:0:0:0:
256,144,12618,6,0,L|176:144,1,74.5000000000005,2|0,0:0|1:0,0:0:0:0:
272,144,12934,2,0,L|352:144,1,74.5000000000005,2|8,1:2|0:0,0:0:0:0:
184,144,13250,2,0,P|136:168|184:224,1,149.000000000001,2|2,0:0|1:2,0:0:0:0:
352,224,13723,2,0,L|440:224,1,74.5000000000005,10|0,0:0|0:0,0:0:0:0:
200,224,14039,6,0,L|192:144,1,74.5000000000005,2|0,1:2|0:0,0:0:0:0:
288,152,14355,2,0,L|296:72,1,74.5000000000005,8|0,0:0|0:0,0:0:0:0:
128,80,14671,2,0,P|48:80|32:136,1,149.000000000001,2|8,1:2|0:0,0:0:0:0:
200,136,15145,6,0,L|208:216,1,74.5000000000005,2|0,0:0|1:0,0:0:0:0:
120,216,15460,1,8,0:1:0:0:
208,216,15618,1,8,0:1:0:0:
376,216,15776,2,0,L|384:136,1,74.5000000000005,0|10,0:0|1:2,0:0:0:0:
216,136,16092,1,2,0:0:0:0:
128,136,16250,2,0,L|136:56,1,74.5000000000005,10|8,1:2|0:0,0:0:0:0:
360,136,16566,6,0,P|408:160|360:216,1,149.000000000001,6|8,1:2|0:0,0:0:0:0:
192,216,17039,2,0,L|112:216,2,74.5000000000005,2|0|2,1:2|1:0|1:2,0:0:0:0:
360,216,17513,2,0,L|368:296,1,74.5000000000005,10|0,0:0|0:0,0:0:0:0:
200,296,17829,6,0,P|152:272|200:216,1,149.000000000001,0|10,1:0|0:0,0:0:0:0:
352,216,18302,2,0,L|440:216,2,74.5000000000005,2|0|2,0:0|1:0|1:2,0:0:0:0:
200,216,18776,2,0,L|192:136,1,74.5000000000005,10|0,0:0|0:0,0:0:0:0:
416,136,19092,6,0,P|464:160|416:216,1,149.000000000001,6|8,1:2|0:0,0:0:0:0:
248,216,19566,2,0,L|168:216,2,74.5000000000005,2|0|2,0:0|1:0|1:2,0:0:0:0:
408,216,20039,2,0,L|416:136,1,74.5000000000005,10|2,0:0|0:0,0:0:0:0:
256,144,20355,6,0,L|176:144,1,74.5000000000005,0|8,1:0|1:1,0:0:0:0:
272,144,20671,2,0,L|360:144,1,74.5000000000005,8|0,1:1|0:0,0:0:0:0:
176,144,20987,1,4,1:3:0:0:
56,144,21223,1,4,1:3:0:0:
176,144,21460,1,4,1:3:0:0:
400,144,21618,6,0,L|480:144,1,74.5000000000005,6|0,1:2|0:0,0:0:0:0:
384,232,21934,2,0,L|296:232,1,74.5000000000005,8|0,0:0|0:0,0:0:0:0:
144,232,22250,2,0,P|96:208|144:152,1,149.000000000001,2|8,1:2|0:0,0:0:0:0:
312,152,22723,6,0,L|320:72,1,74.5000000000005,2|0,0:0|1:0,0:0:0:0:
232,72,23039,2,0,L|224:152,1,74.5000000000005,2|8,1:2|0:0,0:0:0:0:
392,152,23355,2,0,P|440:176|392:232,1,149.000000000001,2|2,0:0|1:2,0:0:0:0:
224,232,23829,2,0,L|136:232,1,74.5000000000005,10|0,0:0|0:0,0:0:0:0:
376,232,24145,6,0,L|384:144,1,74.5000000000005,2|0,1:2|0:0,0:0:0:0:
472,152,24460,2,0,L|392:152,1,74.5000000000005,8|0,0:0|0:0,0:0:0:0:
232,152,24776,2,0,P|152:152|136:96,1,149.000000000001,2|8,1:2|0:0,0:0:0:0:
304,96,25250,6,0,L|384:96,1,74.5000000000005,2|0,0:0|1:0,0:0:0:0:
464,96,25566,1,8,0:1:0:0:
376,96,25723,1,8,0:1:0:0:
208,96,25881,2,0,L|200:176,1,74.5000000000005,0|10,0:0|1:2,0:0:0:0:
368,176,26197,1,2,0:0:0:0:
456,176,26355,2,0,L|448:256,1,74.5000000000005,10|8,1:2|0:0,0:0:0:0:
224,248,26671,6,0,P|176:224|224:168,1,149.000000000001,6|8,1:2|0:0,0:0:0:0:
392,168,27145,2,0,L|472:168,2,74.5000000000005,2|0|2,0:0|1:0|1:2,0:0:0:0:
224,168,27618,2,0,L|144:168,1,74.5000000000005,10|0,0:0|0:0,0:0:0:0:
320,168,27934,6,0,P|368:192|320:248,1,149.000000000001,0|10,1:0|0:0,0:0:0:0:
152,248,28408,2,0,L|64:248,2,74.5000000000005,2|0|2,0:0|1:0|1:2,0:0:0:0:
320,248,28881,2,0,L|408:248,1,74.5000000000005,10|0,0:0|0:0,0:0:0:0:
168,168,29197,6,0,P|120:208|176:248,1,149.000000000001,6|8,1:2|0:0,0:0:0:0:
352,240,29671,2,0,L|360:160,1,74.5000000000005,2|0,0:0|1:0,0:0:0:0:
264,160,29987,1,2,1:2:0:0:
104,160,30145,2,0,L|96:80,1,74.5000000000005,10|2,0:0|0:0,0:0:0:0:
256,88,30460,5,0,1:0:0:0:
344,88,30618,1,8,0:1:0:0:
256,88,30776,2,0,L|168:88,1,74.5000000000005,8|2,0:1|0:0,0:0:0:0:
408,88,31092,5,8,0:1:0:0:
448,80,31171,1,0,0:0:0:0:
480,96,31250,1,8,0:0:0:0:
496,136,31329,1,8,0:0:0:0:
480,168,31408,1,8,0:0:0:0:
448,184,31487,1,8,0:0:0:0:
408,176,31566,1,8,0:0:0:0:
184,176,31723,6,0,P|104:176|88:232,1,149.000000000001,6|10,1:2|0:0,0:0:0:0:
248,232,32355,2,0,L|328:232,1,74.5000000000005,2|0,1:2|1:0,0:0:0:0:
144,232,32671,6,0,P|96:208|144:152,1,149.000000000001,8|0,0:0|1:0,0:0:0:0:
304,160,33302,2,0,P|352:136|304:80,1,149.000000000001,8|0,0:0|1:0,0:0:0:0:
216,80,33776,2,0,P|168:104|216:160,1,149.000000000001,0|0,1:0|0:0,0:0:0:0:
384,160,34250,6,0,P|448:160|472:232,1,149.000000000001,6|10,1:2|0:0,0:0:0:0:
312,232,34881,2,0,L|152:232,1,149.000000000001,2|8,1:2|0:0,0:0:0:0:
328,232,35355,6,0,P|376:208|328:152,1,149.000000000001,2|0,0:0|1:0,0:0:0:0:
232,152,35829,2,0,L|224:72,1,74.5000000000005,8|0,0:0|0:0,0:0:0:0:
392,80,36145,1,8,0:0:0:0:
432,80,36223,1,8,0:0:0:0:
464,96,36302,1,8,0:0:0:0:
472,176,36460,1,4,1:3:0:0:
88,176,36776,6,0,P|40:200|88:256,1,149.000000000001,4|10,1:2|0:0,0:0:0:0:
248,256,37408,2,0,L|400:256,1,149.000000000001,2|8,1:2|0:0,0:0:0:0:
232,256,37881,6,0,P|168:256|144:184,1,149.000000000001,2|2,0:0|0:0,0:0:0:0:
304,184,38513,1,2,0:0:0:0:
400,184,38671,2,0,P|448:160|400:104,1,149.000000000001,2|10,1:2|0:0,0:0:0:0:
128,104,39302,6,0,P|80:128|128:184,1,149.000000000001,10|0,0:0|1:0,0:0:0:0:
208,184,39776,1,8,0:0:0:0:
375,184,39934,2,0,P|424:208|376:264,1,149.000000000001,2|8,1:2|0:0,0:0:0:0:
296,264,40408,1,0,1:0:0:0:
128,264,40566,6,0,P|144:192|216:192,1,149.000000000001,10|0,1:2|1:0,0:0:0:0:
376,184,41039,2,0,L|384:104,1,74.5000000000005,10|0,0:0|1:0,0:0:0:0:
216,104,41355,1,10,0:0:0:0:
128,104,41513,1,8,0:0:0:0:
160,144,41592,1,8,0:0:0:0:
208,152,41671,1,8,0:0:0:0:
432,152,41829,6,0,P|480:176|432:232,1,149.000000000001,6|10,1:2|0:2,0:0:0:0:
272,232,42460,2,0,L|120:232,1,149.000000000001,2|8,1:2|0:0,0:0:0:0:
288,232,42934,6,0,P|336:208|288:152,1,149.000000000001,2|2,0:0|1:2,0:0:0:0:
192,152,43408,2,0,P|144:128|192:72,1,149.000000000001,10|2,0:0|1:2,0:0:0:0:
288,72,43881,2,0,P|352:72|376:144,1,149.000000000001,2|2,1:2|0:0,0:0:0:0:
208,144,44355,6,0,L|48:144,1,149.000000000001,2|10,1:2|0:2,0:0:0:0:
216,144,44987,2,0,P|280:144|304:216,1,149.000000000001,2|10,1:2|0:2,0:0:0:0:
136,216,45460,6,0,P|88:240|136:296,1,149.000000000001,2|8,0:0|0:1,0:0:0:0:
232,296,45934,2,0,L|320:296,2,74.5000000000005,8|0|2,0:1|0:0|1:2,0:0:0:0:
64,296,46408,1,8,0:0:0:0:
40,264,46487,1,8,0:0:0:0:
64,232,46566,1,8,0:0:0:0:
152,232,46723,1,8,0:0:0:0:
376,232,46881,6,0,P|440:232|464:160,1,149.000000000001,6|10,1:2|0:0,0:0:0:0:
304,160,47513,2,0,L|152:160,1,149.000000000001,2|8,1:2|0:0,0:0:0:0:
320,160,47987,6,0,P|368:136|320:80,1,149.000000000001,2|2,0:0|1:2,0:0:0:0:
160,80,48618,1,2,0:0:0:0:
72,80,48776,2,0,P|80:136|160:152,1,149.000000000001,2|10,1:2|0:0,0:0:0:0:
432,152,49408,6,0,P|480:176|432:232,1,149.000000000001,6|10,1:2|0:2,0:0:0:0:
344,232,49881,1,2,0:2:0:0:
176,232,50039,2,0,P|112:232|88:160,1,149.000000000001,2|10,1:2|0:2,0:0:0:0:
176,152,50513,1,2,0:2:0:0:
344,152,50671,6,0,L|352:72,1,74.5000000000005,2|0,1:2|1:2,0:0:0:0:
264,72,50987,1,8,0:1:0:0:
96,72,51145,2,0,L|88:152,1,74.5000000000005,8|8,0:1|0:0,0:0:0:0:
312,144,51460,1,0,1:0:0:0:
400,144,51618,1,10,0:0:0:0:
312,144,51776,1,2,0:0:0:0:
88,144,51934,6,0,P|40:168|88:224,1,149.000000000001,6|2,1:2|1:2,0:0:0:0:
352,224,52566,2,0,P|416:224|440:296,1,149.000000000001,10|2,0:0|0:0,0:0:0:0:
352,296,53039,1,0,0:0:0:0:
184,296,53197,6,0,L|176:216,1,74.5000000000005,2|10,1:2|0:2,0:0:0:0:
272,224,53513,2,0,L|280:144,1,74.5000000000005,2|0,0:2|1:0,0:0:0:0:
112,152,53829,2,0,P|64:128|112:72,1,149.000000000001,10|8,1:2|0:0,0:0:0:0:
200,72,54302,1,12,0:3:0:0:
424,72,54460,6,0,L|432:152,1,74.5000000000005,4|0,1:3|0:0,0:0:0:0:
344,152,54776,1,2,1:2:0:0:
432,152,54934,1,0,1:2:0:0:
264,152,55092,2,0,L|184:152,1,74.5000000000005,10|0,0:0|0:0,0:0:0:0:
288,152,55408,2,0,L|368:152,1,74.5000000000005,2|0,0:0|0:0,0:0:0:0:
192,152,55723,6,0,L|184:232,1,74.5000000000005,2|10,1:2|0:2,0:0:0:0:
280,224,56039,2,0,L|288:144,1,74.5000000000005,2|2,0:2|0:2,0:0:0:0:
120,152,56355,1,6,1:3:0:0:
8,152,56592,1,6,1:3:0:0:
120,152,56829,1,6,1:3:0:0:
344,152,56987,5,4,1:3:0:0:
440,152,57145,2,0,P|424:96|344:96,1,149.000000000001,2|0,0:2|1:0,0:0:0:0:
176,96,57618,2,0,L|168:176,1,74.5000000000005,10|0,0:0|0:0,0:0:0:0:
256,176,57934,1,2,0:0:0:0:
168,176,58092,1,0,0:0:0:0:
336,176,58250,5,2,1:2:0:0:
456,176,58487,1,2,1:2:0:0:
336,176,58723,1,2,1:2:0:0:
168,176,58881,2,0,L|160:256,1,74.5000000000005,8|0,0:0|0:0,0:0:0:0:
248,256,59197,2,0,L|328:256,1,74.5000000000005,10|0,0:0|1:0,0:0:0:0:
96,256,59513,6,0,P|48:232|96:176,1,149.000000000001,14|8,1:2|0:0,0:0:0:0:
184,176,59987,1,8,0:0:0:0:
352,176,60145,1,10,0:0:0:0:
392,168,60223,1,8,0:0:0:0:
408,136,60302,1,10,0:0:0:0:
392,112,60381,1,8,0:0:0:0:
352,104,60460,1,8,0:0:0:0:
264,104,60618,1,4,1:3:0:0:
40,104,60776,6,0,L|32:184,1,74.5000000000005,14|0,0:0|1:0,0:0:0:0:
128,184,61092,1,0,1:0:0:0:
296,184,61250,2,0,L|304:264,1,74.5000000000005,10|0,0:0|0:0,0:0:0:0:
136,256,61566,1,12,1:3:0:0:
56,256,61723,1,4,1:3:0:0:
136,256,61881,1,4,1:3:0:0:
360,256,62513,5,2,0:0:0:0:
280,256,62671,1,2,0:0:0:0:
360,256,62829,1,2,0:0:0:0:
456,256,62987,1,2,0:0:0:0:
232,256,63145,6,0,P|168:256|144:184,1,149.000000000001,6|2,1:2|0:0,0:0:0:0:
312,184,63618,2,0,L|320:104,1,74.5000000000005,10|0,1:2|0:0,0:0:0:0:
152,112,63934,2,0,L|144:192,1,74.5000000000005,2|2,1:2|0:0,0:0:0:0:
232,192,64250,1,10,1:2:0:0:
144,192,64408,1,2,0:0:0:0:
368,184,64566,6,0,P|416:208|368:264,1,149.000000000001,2|10,1:2|1:2,0:0:0:0:
200,264,65039,2,0,L|120:264,1,74.5000000000005,2|0,0:0|1:0,0:0:0:0:
216,264,65355,1,2,0:0:0:0:
128,264,65513,1,8,0:0:0:0:
352,176,65671,6,0,P|400:152|352:96,1,149.000000000001,6|2,1:2|0:0,0:0:0:0:
184,96,66145,2,0,L|176:176,1,74.5000000000005,10|0,1:2|0:0,0:0:0:0:
344,168,66460,2,0,L|352:248,1,74.5000000000005,2|2,1:2|0:0,0:0:0:0:
264,248,66776,1,10,1:2:0:0:
352,248,66934,1,2,0:0:0:0:
128,176,67092,6,0,P|88:184|128:248,1,149.000000000001,2|10,1:2|1:2,0:0:0:0:
296,248,67566,2,0,L|370:248,1,74.5000000000005,2|0,0:0|1:0,0:0:0:0:
280,248,67881,1,2,0:0:0:0:
368,248,68039,1,10,0:0:0:0:
144,248,68197,6,0,P|104:240|144:176,1,149.000000000001,6|0,1:2|0:0,0:0:0:0:
224,176,68671,1,8,1:2:0:0:
144,176,68829,1,2,0:0:0:0:
312,176,68987,2,0,L|320:96,1,74.5000000000005,0|2,1:0|0:0,0:0:0:0:
224,96,69302,2,0,L|144:96,1,74.5000000000005,10|0,1:2|0:0,0:0:0:0:
376,96,69618,6,0,P|424:120|376:176,1,149.000000000001,2|10,1:2|1:2,0:0:0:0:
208,176,70092,2,0,P|144:176|120:248,1,149.000000000001,2|2,0:0|0:0,0:0:0:0:
208,256,70566,1,10,0:2:0:0:
432,256,70723,6,0,P|480:232|432:176,1,149.000000000001,6|2,1:2|1:2,0:0:0:0:
264,176,71197,2,0,L|184:176,1,74.5000000000005,8|2,1:2|0:0,0:0:0:0:
360,176,71513,2,0,L|440:176,2,74.5000000000005,2|8|8,1:2|0:1|0:1,0:0:0:0:
136,176,71987,6,0,P|72:176|48:248,1,149.000000000001,6|0,1:2|1:0,0:0:0:0:
215,247,72460,2,0,L|224:168,1,74.5000000000005,10|2,0:2|0:0,0:0:0:0:
56,176,72776,2,0,L|48:96,1,74.5000000000005,4|4,1:3|1:3,0:0:0:0:
432,176,73250,6,0,P|472:192|424:256,1,149.000000000001,6|2,1:2|0:0,0:0:0:0:
264,256,73723,2,0,L|176:256,1,74.5000000000005,10|0,1:2|0:0,0:0:0:0:
360,256,74039,2,0,L|368:176,1,74.5000000000005,2|2,1:2|0:2,0:0:0:0:
280,184,74355,1,10,1:2:0:0:
368,184,74513,1,2,0:2:0:0:
144,104,74671,6,0,P|96:128|144:184,1,149.000000000001,2|10,1:2|1:2,0:0:0:0:
312,184,75145,2,0,L|400:184,1,74.5000000000005,2|0,0:0|1:0,0:0:0:0:
280,184,75460,1,2,0:0:0:0:
384,184,75618,1,8,0:0:0:0:
160,184,75776,6,0,P|112:168|160:112,1,149.000000000001,6|2,1:2|0:0,0:0:0:0:
328,112,76250,2,0,L|408:112,1,74.5000000000005,10|0,1:2|0:0,0:0:0:0:
232,112,76566,2,0,L|224:192,1,74.5000000000005,2|2,1:2|0:2,0:0:0:0:
320,184,76881,1,10,1:2:0:0:
224,186,77039,1,2,0:2:0:0:
448,256,77197,5,10,1:2:0:0:
472,224,77276,1,8,1:2:0:0:
448,184,77355,1,0,1:0:0:0:
360,184,77513,1,10,0:0:0:0:
192,184,77671,2,0,L|40:184,1,149.000000000001,6|6,1:3|1:3,0:0:0:0:
424,136,78302,6,0,P|472:160|424:216,1,149.000000000001,6|0,1:2|1:0,0:0:0:0:
344,216,78776,1,8,0:0:0:0:
424,216,78934,1,0,1:0:0:0:
256,216,79092,2,0,L|248:136,1,74.5000000000005,10|0,0:0|1:0,0:0:0:0:
344,144,79408,2,0,L|352:64,1,74.5000000000005,10|0,0:0|1:0,0:0:0:0:
128,72,79723,6,0,P|80:96|128:152,1,149.000000000001,10|10,0:0|0:0,0:0:0:0:
296,152,80197,2,0,L|304:232,1,74.5000000000005,0|8,1:0|0:0,0:0:0:0:
208,224,80513,2,0,L|200:304,1,74.5000000000005,2|8,1:2|0:0,0:0:0:0:
424,304,80829,6,0,P|472:280|424:224,1,149.000000000001,6|0,1:2|1:0,0:0:0:0:
344,224,81302,1,10,0:0:0:0:
424,224,81460,1,2,1:2:0:0:
256,224,81618,1,12,1:3:0:0:
248,168,81855,1,8,1:2:0:0:
376,168,82092,1,8,1:2:0:0:
152,168,82250,5,10,1:2:0:0:
41,168,82487,1,8,0:2:0:0:
152,168,82723,1,8,1:2:0:0:
424,168,83039,1,8,0:0:0:0:
440,120,83118,1,8,0:0:0:0:
424,80,83197,1,8,0:0:0:0:
200,80,83355,1,4,1:2:0:0:
256,192,83671,12,0,85250,0:0:0:0:
96,256,85566,6,0,L|88:176,1,74.5000000000005,4|8,1:3|1:2,0:0:0:0:
256,184,85881,1,8,0:0:0:0:
416,184,86197,6,0,L|424:104,1,74.5000000000005,4|8,1:3|0:0,0:0:0:0:
256,112,86513,1,8,0:0:0:0:
96,256,86829,6,0,L|88:176,1,74.5000000000005,4|8,1:3|0:0,0:0:0:0:
256,184,87145,1,8,0:0:0:0:
416,184,87460,6,0,L|424:264,1,74.5000000000005,4|8,1:3|0:0,0:0:0:0:
256,256,87776,1,8,0:0:0:0:
160,256,87934,1,0,1:0:0:0:
256,256,88092,1,8,1:3:0:0:
160,256,88250,1,4,1:3:0:0:
424,256,88408,1,12,1:2:0:0:
