osu file format v14

[General]
AudioFilename: audio.mp3
AudioLeadIn: 0
PreviewTime: 62000
Countdown: 0
SampleSet: Soft
StackLeniency: 0.7
Mode: 2
LetterboxInBreaks: 0
WidescreenStoryboard: 0

[Editor]
DistanceSpacing: 0.4
BeatDivisor: 4
GridSize: 8
TimelineZoom: 2.2

[Metadata]
Title:No.7 (TV Size)
TitleUnicode:No.7 (TV Size)
Artist:Jibaku Shounen Band
ArtistUnicode:地縛少年バンド
Creator:rew0825
Version:Overdose
Source:地縛少年花子くん
Tags:AirinCat [_-Kukkai-_] Kukkai anime japanese rock jrock j-rock number 7 no seven hanako san kun Toilet bound Toilet-bound Hanako-kun Yashiro Nene Minamoto Kou Mitsuba Sousuke 生田鷹司 × オーイシマサヨシ x ZiNG Youji Ikuta from PENGUIN RESEARCH Masayoshi Ooishi opening op anchor
BeatmapID:2338553
BeatmapSetID:1119382

[Difficulty]
HPDrainRate:6
CircleSize:4.5
OverallDifficulty:9.4
ApproachRate:9.4
SliderMultiplier:2.16000000000001
SliderTickRate:2

[Events]
//Background and Video events
0,0,"BG.jpg",0,0
//Break Periods
//Storyboard Layer 0 (Background)
//Storyboard Layer 1 (Fail)
//Storyboard Layer 2 (Pass)
//Storyboard Layer 3 (Foreground)
//Storyboard Layer 4 (Overlay)
//Storyboard Sound Samples

[TimingPoints]
145,315.789473684211,4,2,1,40,1,0
6302,-100,4,2,1,80,0,0
8987,-100,4,2,1,40,0,0
10408,-100,4,2,1,50,0,0
11197,-100,4,2,1,60,0,0
11513,-100,4,2,1,70,0,0
20987,-84.7457627118644,4,2,1,70,0,0
21460,-100,4,2,1,70,0,0
31723,-100,4,2,1,60,0,0
33934,-100,4,2,2,60,0,0
34092,-100,4,2,1,60,0,0
44039,-100,4,2,2,60,0,0
44197,-100,4,2,1,60,0,0
51934,-100,4,2,1,70,0,0
56355,-84.7457627118644,4,2,1,70,0,0
56829,-100,4,2,1,70,0,0
58250,-84.7457627118644,4,2,1,70,0,0
58723,-100,4,2,1,70,0,0
62513,-100,4,2,1,50,0,0
63145,-100,4,2,1,80,0,1
83355,-100,4,2,1,70,0,0
83513,-100,4,2,1,40,0,0
85408,-100,4,2,1,30,0,0
85566,-100,4,2,1,70,0,0

[Colours]
Combo1 : 231,194,86
Combo2 : 227,74,104
Combo3 : 64,206,236
Combo4 : 125,227,128

[HitObjects]
64,192,5671,5,2,0:0:0:0:
208,192,5829,2,0,L|200:80,1,108,2|2,0:0|0:0,0:0:0:0:
56,88,6145,1,2,0:0:0:0:
328,88,6302,6,0,L|112:88,1,216.000000000001,6|8,1:2|1:3,0:0:0:0:
328,88,6776,1,8,1:2:0:0:
184,88,6934,2,0,L|176:144,1,54.0000000000002,8|0,1:3|0:0,0:0:0:0:
344,144,7092,2,0,L|352:256,1,108,14|0,1:2|0:0,0:0:0:0:
184,256,7329,2,0,L|176:144,1,108,10|0,0:0|0:0,0:0:0:0:
312,144,7566,2,0,L|320:88,1,54.0000000000002,10|0,0:0|0:0,0:0:0:0:
136,88,7723,6,0,L|24:88,1,108,10|0,1:2|0:0,0:0:0:0:
200,88,7960,2,0,L|312:88,1,108,8|0,0:2|0:0,0:0:0:0:
160,96,8197,2,0,P|88:136|144:200,1,189.000000000001,8|0,0:2|1:0,0:0:0:0:
200,200,8533,1,0,1:0:0:0:
256,200,8592,1,0,1:0:0:0:
416,200,8671,6,0,L|200:200,1,216.000000000001,12|0,0:0|0:0,0:0:0:0:
192,88,9145,1,0,0:0:0:0:
432,88,9460,1,0,0:0:0:0:
440,88,9618,1,0,0:0:0:0:
168,88,9934,1,0,0:0:0:0:
160,88,10092,1,0,0:0:0:0:
464,88,10408,5,0,1:0:0:0:
480,88,10460,1,0,1:0:0:0:
464,88,10513,1,0,1:0:0:0:
312,88,10566,2,0,P|240:88|216:168,1,162.000000000001,12|0,0:0|0:0,0:0:0:0:
376,168,10881,2,0,L|384:232,1,54.0000000000001,8|8,0:0|0:0,0:0:0:0:
304,224,11039,2,0,L|296:288,1,54.0000000000001,8|8,0:0|0:0,0:0:0:0:
456,280,11197,2,0,L|384:280,1,54.0000000000001,10|10,0:0|0:0,0:0:0:0:
264,280,11355,2,0,L|200:280,1,54.0000000000001,10|10,0:0|0:0,0:0:0:0:
400,280,11513,6,0,L|408:168,1,108,4|0,1:2|0:0,0:0:0:0:
264,168,11829,2,0,L|376:168,1,108,8|0,0:0|0:0,0:0:0:0:
152,168,12145,1,2,1:2:0:0:
296,168,12302,1,0,1:0:0:0:
152,168,12460,1,8,0:0:0:0:
392,168,12618,5,2,0:0:0:0:
248,168,12776,1,0,1:0:0:0:
392,168,12934,2,0,L|400:288,1,108,2|8,1:2|0:0,0:0:0:0:
184,280,13250,1,2,0:0:0:0:
328,280,13408,1,0,1:0:0:0:
184,280,13566,1,2,1:2:0:0:
40,280,13723,2,0,P|64:200|136:200,1,162.000000000001,10|8,0:0|0:0,0:0:0:0:
296,200,14039,5,2,1:2:0:0:
448,200,14197,1,0,0:0:0:0:
296,200,14355,2,0,L|184:200,1,108,8|0,0:0|0:0,0:0:0:0:
408,200,14671,1,2,1:2:0:0:
256,200,14829,1,0,1:0:0:0:
408,200,14987,1,8,0:0:0:0:
168,200,15145,6,0,L|160:312,1,108,2|0,0:0|1:0,0:0:0:0:
376,312,15460,1,8,0:1:0:0:
232,312,15618,1,8,0:1:0:0:
376,312,15776,2,0,L|256:312,1,108,0|10,0:0|1:2,0:0:0:0:
120,312,16092,1,2,0:0:0:0:
336,200,16250,2,0,L|344:88,1,108,10|8,1:2|0:0,0:0:0:0:
272,88,16487,1,8,0:0:0:0:
80,88,16566,6,0,L|320:88,1,216.000000000001,6|8,1:2|0:0,0:0:0:0:
80,88,17039,1,2,1:2:0:0:
224,88,17197,1,0,1:0:0:0:
80,88,17355,2,0,L|72:208,1,108,2|10,1:2|0:0,0:0:0:0:
216,200,17671,1,0,0:0:0:0:
456,200,17829,5,0,1:0:0:0:
312,200,17987,1,0,1:0:0:0:
456,200,18145,2,0,L|328:200,1,108,10|2,0:0|0:0,0:0:0:0:
128,200,18460,1,0,1:0:0:0:
272,200,18618,1,2,1:2:0:0:
128,200,18776,2,0,P|72:168|128:120,1,162.000000000001,10|8,0:0|0:0,0:0:0:0:
288,120,19092,6,0,L|72:120,1,216.000000000001,6|8,1:2|0:0,0:0:0:0:
288,120,19566,1,2,0:0:0:0:
432,120,19723,1,0,1:0:0:0:
288,120,19881,2,0,L|296:232,1,108,2|10,1:2|0:0,0:0:0:0:
440,232,20197,1,2,0:0:0:0:
200,232,20355,5,0,1:0:0:0:
344,232,20513,1,8,1:1:0:0:
200,232,20671,2,0,L|72:232,1,108,8|0,1:1|0:0,0:0:0:0:
312,232,20987,2,0,L|120:232,2,191.1599932912,4|4|4,1:3|1:3|1:3,0:0:0:0:
240,232,21539,1,4,1:3:0:0:
48,232,21618,6,0,L|40:120,1,108,6|0,1:2|0:0,0:0:0:0:
184,120,21934,2,0,L|72:120,1,108,8|0,0:0|0:0,0:0:0:0:
296,120,22250,1,2,1:2:0:0:
440,120,22408,1,0,1:0:0:0:
296,120,22566,1,8,0:0:0:0:
56,120,22723,5,2,0:0:0:0:
200,120,22881,1,0,1:0:0:0:
56,120,23039,2,0,L|48:232,1,108,2|8,1:2|0:0,0:0:0:0:
264,232,23355,2,0,L|376:232,1,108,2|0,0:0|1:0,0:0:0:0:
224,232,23671,1,2,1:2:0:0:
376,232,23829,2,0,P|432:192|376:144,1,162.000000000001,10|8,0:0|0:0,0:0:0:0:
216,144,24145,6,0,L|208:256,1,108,2|0,1:2|0:0,0:0:0:0:
360,256,24460,2,0,L|368:368,1,108,8|0,0:0|0:0,0:0:0:0:
152,368,24776,1,2,1:2:0:0:
296,368,24934,1,0,1:0:0:0:
152,368,25092,1,8,0:0:0:0:
392,368,25250,6,0,L|400:256,1,108,2|0,0:0|1:0,0:0:0:0:
184,256,25566,1,8,0:1:0:0:
328,256,25723,1,8,0:1:0:0:
184,256,25881,2,0,L|176:144,1,108,0|10,0:0|1:2,0:0:0:0:
320,144,26197,1,2,0:0:0:0:
104,144,26355,2,0,L|96:256,1,108,10|8,1:2|0:0,0:0:0:0:
168,256,26592,1,8,0:0:0:0:
360,256,26671,6,0,L|144:256,1,216.000000000001,6|8,1:2|0:0,0:0:0:0:
360,256,27145,1,2,0:0:0:0:
216,256,27302,1,0,1:0:0:0:
360,256,27460,2,0,L|352:144,1,108,2|10,1:2|0:0,0:0:0:0:
208,144,27776,1,0,0:0:0:0:
448,144,27934,6,0,L|224:144,1,216.000000000001,0|10,1:0|0:0,0:0:0:0:
448,144,28408,1,2,0:0:0:0:
304,144,28566,1,0,1:0:0:0:
160,144,28723,1,2,1:2:0:0:
304,144,28881,2,0,P|376:144|400:224,1,162.000000000001,10|8,0:0|0:0,0:0:0:0:
240,224,29197,6,0,L|128:224,1,108,6|0,1:2|0:0,0:0:0:0:
280,224,29513,1,8,0:0:0:0:
64,224,29671,1,2,0:0:0:0:
208,224,29829,1,0,1:0:0:0:
64,224,29987,1,2,1:2:0:0:
280,224,30145,2,0,L|392:224,1,108,10|2,0:0|0:0,0:0:0:0:
144,224,30460,5,0,1:0:0:0:
288,224,30618,1,8,0:1:0:0:
144,224,30776,2,0,L|136:112,1,108,8|2,0:1|0:0,0:0:0:0:
352,112,31092,2,0,L|408:112,1,54.0000000000002,8|0,0:1|0:0,0:0:0:0:
488,112,31250,2,0,L|432:112,1,54.0000000000002,8|8,0:0|0:0,0:0:0:0:
272,112,31408,2,0,L|216:112,1,54.0000000000002,8|8,0:0|0:0,0:0:0:0:
360,112,31566,2,0,L|416:112,1,54.0000000000002,8|8,0:0|0:0,0:0:0:0:
216,112,31723,6,0,L|208:232,1,108,6|0,1:2|0:0,0:0:0:0:
352,224,32039,2,0,L|360:336,1,108,10|0,0:0|0:0,0:0:0:0:
216,336,32355,1,2,1:2:0:0:
360,336,32513,1,0,1:0:0:0:
144,336,32671,6,0,L|360:336,1,216.000000000001,8|0,0:0|1:0,0:0:0:0:
216,336,33145,1,0,0:0:0:0:
360,336,33302,2,0,L|368:224,1,108,8|0,0:0|0:0,0:0:0:0:
224,224,33618,1,0,1:0:0:0:
368,224,33776,2,0,L|152:224,1,216.000000000001,0|0,1:0|0:0,0:0:0:0:
392,224,34250,6,0,L|400:112,1,108,6|0,1:2|0:0,0:0:0:0:
256,112,34566,2,0,L|368:112,1,108,10|0,0:0|0:0,0:0:0:0:
224,112,34881,2,0,P|152:152|224:224,1,216.000000000001,2|8,1:2|0:0,0:0:0:0:
440,224,35355,6,0,L|224:224,1,216.000000000001,2|0,0:0|1:0,0:0:0:0:
80,224,35829,1,8,0:0:0:0:
224,224,35987,1,0,0:0:0:0:
368,224,36145,2,0,L|376:168,1,54.0000000000002,8|8,0:0|0:0,0:0:0:0:
216,168,36302,2,0,L|208:112,1,54.0000000000002,8|8,0:0|0:0,0:0:0:0:
288,104,36460,2,0,P|360:104|384:184,1,162.000000000001,4|0,1:3|0:0,0:0:0:0:
192,184,36776,6,0,L|80:184,1,108,4|0,1:2|0:0,0:0:0:0:
224,184,37092,2,0,L|232:296,1,108,10|0,0:0|0:0,0:0:0:0:
88,296,37408,1,2,1:2:0:0:
232,296,37566,2,0,L|344:296,1,108,0|8,1:0|0:0,0:0:0:0:
120,296,37881,6,0,L|112:184,1,108,2|0,0:0|1:0,0:0:0:0:
256,184,38197,2,0,L|264:72,1,108,2|8,0:0|0:0,0:0:0:0:
120,72,38513,1,2,0:0:0:0:
264,72,38671,2,0,L|376:72,1,108,2|0,1:2|1:0,0:0:0:0:
232,72,38987,2,0,P|176:112|232:160,1,162.000000000001,10|0,0:0|0:0,0:0:0:0:
392,160,39302,6,0,L|400:272,1,108,10|0,0:0|1:0,0:0:0:0:
256,272,39618,1,0,1:0:0:0:
400,272,39776,1,8,0:0:0:0:
184,272,39934,2,0,L|72:272,1,108,2|0,1:2|1:0,0:0:0:0:
224,272,40250,1,8,0:0:0:0:
72,272,40408,1,0,1:0:0:0:
312,272,40566,6,0,L|320:160,1,108,10|0,1:2|1:0,0:0:0:0:
176,160,40881,1,0,1:0:0:0:
392,160,41039,2,0,L|280:160,1,108,10|0,0:0|1:0,0:0:0:0:
64,160,41355,1,10,0:0:0:0:
208,160,41513,2,0,L|216:104,1,54.0000000000002,8|8,0:0|0:0,0:0:0:0:
136,104,41671,2,0,L|128:48,1,54.0000000000002,8|8,0:0|0:0,0:0:0:0:
320,48,41829,6,0,L|432:48,1,108,6|0,1:2|0:0,0:0:0:0:
280,48,42145,2,0,L|392:48,1,108,10|0,0:2|0:0,0:0:0:0:
248,48,42460,1,2,1:2:0:0:
392,48,42618,1,0,1:0:0:0:
416,96,42697,1,0,0:0:0:0:
392,144,42776,1,8,0:0:0:0:
176,144,42934,6,0,L|392:144,1,216.000000000001,2|2,0:0|1:2,0:0:0:0:
248,144,43408,2,0,L|256:256,1,108,10|2,0:0|0:0,0:0:0:0:
400,248,43723,1,2,1:2:0:0:
256,256,43881,2,0,P|144:256|120:168,1,216.000000000001,2|2,1:2|0:0,0:0:0:0:
360,168,44355,6,0,L|368:56,1,108,2|0,1:2|0:0,0:0:0:0:
224,56,44671,2,0,L|216:168,1,108,10|0,0:2|0:0,0:0:0:0:
360,168,44987,1,2,1:2:0:0:
216,168,45145,2,0,L|104:168,1,108,2|10,1:2|0:2,0:0:0:0:
328,168,45460,6,0,P|400:208|328:280,1,216.000000000001,2|8,0:0|0:1,0:0:0:0:
184,280,45934,1,8,0:1:0:0:
328,280,46092,2,0,L|440:280,1,108,0|2,0:0|1:2,0:0:0:0:
200,280,46408,2,0,L|192:224,1,54.0000000000002,8|8,0:0|0:0,0:0:0:0:
272,224,46566,2,0,L|280:168,1,54.0000000000002,8|8,0:0|0:0,0:0:0:0:
200,168,46723,2,0,L|144:168,1,54.0000000000002,8|8,0:0|0:0,0:0:0:0:
336,168,46881,6,0,L|456:168,1,108,6|0,1:2|0:0,0:0:0:0:
304,168,47197,2,0,L|296:280,1,108,10|0,0:0|0:0,0:0:0:0:
440,280,47513,1,2,1:2:0:0:
296,280,47671,2,0,L|408:280,1,108,0|8,1:0|0:0,0:0:0:0:
184,280,47987,5,2,0:0:0:0:
40,280,48145,1,0,1:0:0:0:
184,280,48302,2,0,L|296:280,1,108,2|8,1:2|0:0,0:0:0:0:
440,280,48618,1,2,0:0:0:0:
296,280,48776,2,0,L|176:280,1,108,2|0,1:2|1:0,0:0:0:0:
336,280,49092,2,0,P|392:232|336:192,1,162.000000000001,10|8,0:0|0:0,0:0:0:0:
176,192,49408,6,0,L|168:80,1,108,6|0,1:2|0:0,0:0:0:0:
312,80,49723,1,10,0:2:0:0:
168,80,49881,1,2,0:2:0:0:
312,80,50039,2,0,L|320:192,1,108,2|0,1:2|1:2,0:0:0:0:
176,192,50355,1,10,0:2:0:0:
320,192,50513,1,2,0:2:0:0:
80,192,50671,6,0,L|192:192,1,108,2|0,1:2|1:2,0:0:0:0:
48,192,50987,1,8,0:1:0:0:
264,192,51145,1,8,0:1:0:0:
120,192,51302,2,0,L|176:192,1,54.0000000000002,8|0,0:0|0:0,0:0:0:0:
312,192,51460,2,0,L|368:192,1,54.0000000000002,0|0,1:0|1:0,0:0:0:0:
208,192,51618,2,0,L|200:136,1,54.0000000000002,10|0,0:0|0:0,0:0:0:0:
336,136,51776,2,0,L|344:80,1,54.0000000000002,2|0,0:0|0:0,0:0:0:0:
160,80,51934,6,0,L|48:80,1,108,6|0,1:2|0:0,0:0:0:0:
200,80,52250,1,2,1:2:0:0:
56,80,52408,1,0,0:0:0:0:
272,80,52566,2,0,P|344:120|272:192,1,216.000000000001,10|2,0:0|0:0,0:0:0:0:
128,192,53039,1,0,0:0:0:0:
368,192,53197,5,2,1:2:0:0:
224,192,53355,1,10,0:2:0:0:
368,192,53513,1,2,0:2:0:0:
400,232,53592,1,0,0:0:0:0:
368,272,53671,1,0,1:0:0:0:
152,272,53829,2,0,P|80:232|152:160,1,216.000000000001,10|8,1:2|0:0,0:0:0:0:
208,160,54223,1,8,0:3:0:0:
288,160,54302,2,0,L|232:160,1,54.0000000000002,12|8,0:3|1:3,0:0:0:0:
72,160,54460,5,4,1:3:0:0:
216,160,54618,2,0,L|208:272,1,108,0|2,0:0|1:2,0:0:0:0:
64,272,54934,1,0,1:2:0:0:
280,272,55092,2,0,L|400:272,1,108,10|0,0:0|0:0,0:0:0:0:
248,272,55408,2,0,L|136:272,1,108,2|0,0:0|0:0,0:0:0:0:
392,272,55723,5,2,1:2:0:0:
248,272,55881,2,0,L|256:160,1,108,10|2,0:2|0:2,0:0:0:0:
400,168,56197,1,2,0:2:0:0:
160,168,56355,2,0,L|352:168,2,191.1599932912,6|6|6,1:3|1:3|1:3,0:0:0:0:
432,168,56987,5,4,1:3:0:0:
296,168,57145,2,0,P|320:256|432:256,1,216.000000000001,2|0,0:2|1:0,0:0:0:0:
216,256,57618,2,0,L|96:256,1,108,10|0,0:0|0:0,0:0:0:0:
248,256,57934,1,2,0:0:0:0:
104,256,58092,1,0,0:0:0:0:
320,256,58250,6,0,L|128:256,2,191.1599932912,2|2|2,1:2|1:2|1:2,0:0:0:0:
80,256,58881,1,8,0:0:0:0:
224,256,59039,2,0,L|216:144,1,108,0|10,0:0|0:0,0:0:0:0:
72,144,59355,2,0,L|64:88,1,54.0000000000002,0|0,1:0|1:0,0:0:0:0:
256,88,59513,6,0,P|312:128|256:176,1,162.000000000001,14|0,1:2|0:0,0:0:0:0:
176,176,59829,2,0,L|168:232,1,54.0000000000002,8|0,0:0|0:0,0:0:0:0:
328,232,59987,2,0,L|336:288,1,54.0000000000002,8|8,0:0|0:0,0:0:0:0:
200,288,60145,2,0,L|136:288,1,54.0000000000002,10|8,0:0|0:0,0:0:0:0:
312,288,60302,2,0,L|368:288,1,54.0000000000002,10|8,0:0|0:0,0:0:0:0:
288,288,60460,2,0,L|232:288,1,54.0000000000002,8|8,0:0|1:3,0:0:0:0:
376,288,60618,2,0,L|384:232,1,54.0000000000002,4|0,1:3|1:0,0:0:0:0:
192,232,60776,5,14,0:0:0:0:
328,232,60934,1,0,1:0:0:0:
456,232,61092,1,0,1:0:0:0:
216,232,61250,2,0,L|104:232,1,108,10|0,0:0|0:0,0:0:0:0:
328,232,61566,1,12,1:3:0:0:
184,232,61723,1,4,1:3:0:0:
336,232,61881,1,4,1:3:0:0:
160,104,62513,5,2,0:0:0:0:
304,104,62671,1,2,0:0:0:0:
160,104,62829,1,2,0:0:0:0:
376,104,62987,1,2,0:0:0:0:
104,104,63145,6,0,L|320:104,1,216.000000000001,6|2,1:2|0:0,0:0:0:0:
104,104,63618,2,0,L|96:216,1,108,10|0,1:2|0:0,0:0:0:0:
336,216,63934,1,2,1:2:0:0:
480,216,64092,1,2,0:0:0:0:
264,216,64250,1,10,1:2:0:0:
480,216,64408,1,2,0:0:0:0:
208,216,64566,6,0,L|96:216,1,108,2|0,1:2|0:0,0:0:0:0:
312,216,64881,1,10,1:2:0:0:
72,216,65039,2,0,L|64:104,1,108,2|0,0:0|1:0,0:0:0:0:
280,104,65355,1,2,0:0:0:0:
64,104,65513,1,8,0:0:0:0:
336,104,65671,6,0,L|112:104,1,216.000000000001,6|2,1:2|0:0,0:0:0:0:
336,104,66145,2,0,L|456:104,1,108,10|0,1:2|0:0,0:0:0:0:
200,216,66460,1,2,1:2:0:0:
56,216,66618,1,2,0:0:0:0:
272,216,66776,1,10,1:2:0:0:
56,216,66934,1,2,0:0:0:0:
328,216,67092,6,0,L|336:104,1,108,2|0,1:2|0:0,0:0:0:0:
120,104,67408,1,10,1:2:0:0:
360,104,67566,2,0,L|472:104,1,108,2|0,0:0|1:0,0:0:0:0:
240,104,67881,1,2,0:0:0:0:
472,104,68039,1,10,0:0:0:0:
200,104,68197,6,0,P|128:144|200:216,1,216.000000000001,6|0,1:2|0:0,0:0:0:0:
344,216,68671,1,8,1:2:0:0:
200,216,68829,1,2,0:0:0:0:
416,216,68987,2,0,L|424:104,1,108,0|2,1:0|0:0,0:0:0:0:
280,104,69302,2,0,L|392:104,1,108,10|0,1:2|0:0,0:0:0:0:
144,104,69618,6,0,L|136:216,1,108,2|0,1:2|0:0,0:0:0:0:
280,216,69934,1,10,1:2:0:0:
136,216,70092,2,0,L|24:216,1,108,2|0,0:0|1:0,0:0:0:0:
176,216,70408,1,2,0:0:0:0:
392,216,70566,1,10,0:2:0:0:
120,216,70723,6,0,L|336:216,1,216.000000000001,6|2,1:2|1:2,0:0:0:0:
264,216,71118,1,0,0:0:0:0:
72,216,71197,1,8,1:2:0:0:
216,216,71355,1,2,0:0:0:0:
432,216,71513,1,2,1:2:0:0:
288,216,71671,1,8,0:1:0:0:
72,216,71829,1,8,0:1:0:0:
288,216,71987,6,0,P|400:216|424:128,1,216.000000000001,6|0,1:2|1:0,0:0:0:0:
208,128,72460,1,10,0:2:0:0:
352,128,72618,1,2,0:0:0:0:
80,128,72776,1,4,1:3:0:0:
232,128,72934,2,0,L|64:128,1,162.000000000001,4|0,1:3|0:0,0:0:0:0:
264,128,73250,6,0,L|488:128,1,216.000000000001,6|2,1:2|0:0,0:0:0:0:
264,128,73723,2,0,L|144:128,1,108,10|0,1:2|0:0,0:0:0:0:
400,128,74039,1,2,1:2:0:0:
256,128,74197,1,2,0:2:0:0:
472,128,74355,1,10,1:2:0:0:
256,128,74513,1,2,0:2:0:0:
16,128,74671,6,0,L|136:128,1,108,2|0,1:2|0:0,0:0:0:0:
344,128,74987,1,10,1:2:0:0:
104,128,75145,2,0,L|96:240,1,108,2|0,0:0|1:0,0:0:0:0:
312,240,75460,1,2,0:0:0:0:
96,240,75618,1,8,0:0:0:0:
368,240,75776,6,0,L|152:240,1,216.000000000001,6|2,1:2|0:0,0:0:0:0:
368,240,76250,2,0,L|480:240,1,108,10|0,1:2|0:0,0:0:0:0:
232,240,76566,1,2,1:2:0:0:
88,240,76723,1,2,0:2:0:0:
304,240,76881,1,10,1:2:0:0:
88,240,77039,1,2,0:2:0:0:
360,240,77197,6,0,L|424:240,1,54.0000000000002,10|8,1:2|1:2,0:0:0:0:
280,240,77355,2,0,L|224:240,1,54.0000000000002,0|0,1:0|1:0,0:0:0:0:
384,240,77513,1,10,0:0:0:0:
144,240,77671,2,0,L|136:128,1,108,6|0,1:3|0:0,0:0:0:0:
352,128,77987,2,0,L|360:16,1,108,6|0,1:3|0:0,0:0:0:0:
88,16,78302,6,0,L|312:16,1,216.000000000001,6|0,1:2|1:0,0:0:0:0:
88,16,78776,1,8,0:0:0:0:
232,16,78934,1,0,1:0:0:0:
472,16,79092,2,0,L|480:128,1,108,10|0,0:0|1:0,0:0:0:0:
408,128,79329,1,0,1:0:0:0:
248,128,79408,2,0,L|128:128,1,108,10|0,0:0|1:0,0:0:0:0:
208,128,79645,1,0,1:0:0:0:
400,128,79723,6,0,L|408:240,1,108,10|0,0:0|1:0,0:0:0:0:
336,240,79960,1,0,1:0:0:0:
176,240,80039,1,10,0:0:0:0:
344,240,80197,2,0,L|352:184,1,54.0000000000002,0|0,1:0|1:0,0:0:0:0:
192,184,80355,1,8,0:0:0:0:
48,184,80513,2,0,L|40:128,1,54.0000000000002,2|0,1:2|1:0,0:0:0:0:
200,128,80671,1,8,0:0:0:0:
472,128,80829,6,0,L|248:128,1,216.000000000001,6|0,1:2|1:0,0:0:0:0:
328,128,81223,1,0,1:0:0:0:
488,128,81302,1,10,0:0:0:0:
344,128,81460,1,2,1:2:0:0:
104,128,81618,2,0,L|96:240,1,108,12|0,1:3|0:0,0:0:0:0:
256,240,81855,2,0,L|128:240,1,108,8|0,1:2|0:0,0:0:0:0:
296,240,82092,2,0,L|301:184,1,54.0000000000002,8|0,1:2|0:0,0:0:0:0:
136,184,82250,6,0,L|256:184,1,108,10|0,1:2|0:0,0:0:0:0:
408,184,82487,2,0,L|288:184,1,108,8|0,0:2|0:0,0:0:0:0:
160,184,82723,2,0,P|112:120|168:104,1,162.000000000001,8|0,1:2|0:0,0:0:0:0:
248,104,83039,2,0,L|256:48,1,54.0000000000002,8|8,0:0|0:0,0:0:0:0:
88,48,83197,2,0,L|80:104,1,54.0000000000002,8|8,0:0|0:0,0:0:0:0:
280,104,83355,1,4,1:2:0:0:
256,192,83513,12,0,85408,0:0:0:0:
288,192,85566,5,4,1:3:0:0:
432,192,85723,1,8,1:2:0:0:
160,192,85881,1,8,0:0:0:0:
376,192,86197,5,4,1:3:0:0:
232,192,86355,1,8,0:0:0:0:
472,192,86513,1,8,0:0:0:0:
256,192,86829,5,4,1:3:0:0:
112,192,86987,1,8,0:0:0:0:
384,192,87145,1,8,0:0:0:0:
168,192,87460,5,4,1:3:0:0:
312,192,87618,1,8,0:0:0:0:
64,192,87776,1,8,0:0:0:0:
312,192,87934,1,0,1:0:0:0:
168,192,88092,1,8,1:3:0:0:
32,192,88250,1,4,1:3:0:0:
360,192,88408,1,12,1:2:0:0:
