osu file format v14

[General]
AudioFilename: audio.mp3
AudioLeadIn: 0
PreviewTime: 62483
Countdown: 0
SampleSet: Soft
StackLeniency: 0.4
Mode: 0
LetterboxInBreaks: 0
WidescreenStoryboard: 1

[Editor]
Bookmarks: 21608,41819,51924,63135,73240
DistanceSpacing: 1
BeatDivisor: 6
GridSize: 32
TimelineZoom: 1.5

[Metadata]
Title:No.7 (TV Size)
TitleUnicode:No.7 (TV Size)
Artist:Jibaku Shounen Band
ArtistUnicode:地縛少年バンド
Creator:Ryuusei Aika
Version:Strakito's Insane
Source:地縛少年花子くん
Tags:Ryxliee Bakugo- Stratos Akito kanor CoLouRed GlaZeE airincat anime japanese rock jrock j-rock number 7 no seven hanako san kun Toilet bound Toilet-bound Hanako-kun Yashiro Nene Minamoto Kou Mitsuba Sousuke 生田鷹司 × オーイシマサヨシ x ZiNG Youji Ikuta from PENGUIN RESEARCH Masayoshi Ooishi opening op anchor
BeatmapID:3320203
BeatmapSetID:1603819

[Difficulty]
HPDrainRate:6
CircleSize:4
OverallDifficulty:9
ApproachRate:9
SliderMultiplier:1.8
SliderTickRate:1

[Events]
//Background and Video events
0,0,"BG.jpeg",0,0
//Break Periods
//Storyboard Layer 0 (Background)
//Storyboard Layer 1 (Fail)
//Storyboard Layer 2 (Pass)
//Storyboard Layer 3 (Foreground)
//Storyboard Layer 4 (Overlay)
//Storyboard Sound Samples

[TimingPoints]
135,315.789473684211,4,2,1,40,1,0
6292,-100,4,2,1,80,0,0
6529,-100,4,2,1,5,0,0
6608,-100,4,2,1,70,0,0
7082,-100,4,2,1,80,0,0
7319,-100,4,2,1,70,0,0
7476,-100,4,2,1,5,0,0
7556,-100,4,2,1,70,0,0
7713,-100,4,2,1,80,0,0
7950,-100,4,2,1,70,0,0
8107,-100,4,2,1,5,0,0
8187,-100,4,2,1,70,0,0
8471,-100,4,2,1,60,0,0
8740,-100,4,2,1,30,0,0
10366,-100,4,2,1,50,0,0
10792,-100,4,2,1,5,0,0
10871,-100,4,2,1,50,0,0
11187,-100,4,2,1,60,0,0
11503,-111.111111111111,4,2,1,70,0,0
20897,-111.111111111111,4,2,1,5,0,0
20977,-111.111111111111,4,2,1,70,0,0
31713,-111.111111111111,4,2,1,56,0,0
33292,-142.857142857143,4,2,1,56,0,0
34240,-111.111111111111,4,2,1,56,0,0
35345,-142.857142857143,4,2,1,56,0,0
36766,-111.111111111111,4,2,1,66,0,0
39213,-111.111111111111,4,2,1,5,0,0
39292,-111.111111111111,4,2,1,66,0,0
41819,-111.111111111111,4,2,1,56,0,0
46871,-111.111111111111,4,2,1,66,0,0
51450,-111.111111111111,4,2,1,60,0,0
51924,-111.111111111111,4,2,1,78,0,0
52556,-111.111111111111,4,2,1,66,0,0
53187,-111.111111111111,4,2,1,78,0,0
54055,-111.111111111111,4,2,1,5,0,0
54135,-111.111111111111,4,2,1,60,0,0
54450,-111.111111111111,4,2,1,66,0,0
55713,-111.111111111111,4,2,1,78,0,0
56345,-111.111111111111,4,2,1,66,0,0
56739,-111.111111111111,4,2,1,5,0,0
56819,-111.111111111111,4,2,1,66,0,0
56977,-111.111111111111,4,2,1,78,0,0
57450,-111.111111111111,4,2,1,66,0,0
58240,-111.111111111111,4,2,1,78,0,0
58634,-111.111111111111,4,2,1,5,0,0
58713,-111.111111111111,4,2,1,78,0,0
58871,-111.111111111111,4,2,1,66,0,0
59503,-111.111111111111,4,2,1,70,0,0
60766,-111.111111111111,4,2,1,80,0,0
62503,-111.111111111111,4,2,1,50,0,0
63135,-100,4,2,1,80,0,0
72213,-100,4,2,1,5,0,0
72292,-100,4,2,1,80,0,0
72924,-100,4,2,1,74,0,0
73240,-100,4,2,1,80,0,0
81608,-100,4,2,1,90,0,0
81845,-100,4,2,1,80,0,0
82002,-100,4,2,1,5,0,0
82082,-100,4,2,1,80,0,0
82634,-100,4,2,1,5,0,0
82713,-100,4,2,1,80,0,0
83029,-100,4,2,1,64,0,0
83345,-100,4,2,1,70,0,0
84766,-100,4,2,24,20,0,0
84845,-100,4,2,2,20,0,0
84924,-100,4,2,24,30,0,0
85003,-100,4,2,2,40,0,0
85082,-100,4,2,24,50,0,0
85161,-100,4,2,2,60,0,0
85240,-100,4,2,24,70,0,0
85319,-100,4,2,2,80,0,0
85398,-100,4,2,24,90,0,0
85477,-100,4,2,2,5,0,0
85556,-100,4,2,1,70,0,0
87924,-100,4,2,1,80,0,0
88082,-100,4,2,1,86,0,0

[Colours]
Combo1 : 255,128,192
Combo2 : 170,85,85

[HitObjects]
82,306,529,6,0,L|68:355,2,45
256,192,924,12,0,4240,0:0:0:0:
417,90,5661,5,2,0:0:0:0:
417,90,5819,1,2,0:0:0:0:
417,90,5977,1,2,0:0:0:0:
417,90,6135,1,2,0:0:0:0:
512,197,6292,6,0,P|431:220|339:250,1,180,6|8,1:2|1:3,0:0:0:0:
204,88,6766,2,0,B|188:62|188:62|197:12,2,60,8|0|0,1:2|0:0|0:0,0:0:0:0:
204,88,7082,1,14,1:2:0:0:
339,249,7319,1,10,0:0:0:0:
165,360,7556,1,10,0:0:0:0:
252,328,7713,5,10,1:2:0:0:
299,108,7950,1,8,0:2:0:0:
78,65,8187,1,8,0:2:0:0:
52,250,8471,6,0,L|11:262,2,36,0|0|0,1:0|1:0|1:0,0:0:0:0:
76,243,8661,1,12,0:0:0:0:
415,298,10398,6,0,L|463:311,2,30,0|0|0,1:0|1:0|1:0,0:0:0:0:
389,291,10556,1,12,0:0:0:0:
338,83,10871,5,8,0:0:0:0:
338,83,10950,1,8,0:0:0:0:
338,83,11029,2,0,L|283:98,1,45,8|8,0:0|0:0,0:0:0:0:
199,35,11187,1,10,0:0:0:0:
162,24,11266,1,10,0:0:0:0:
128,41,11345,1,10,0:0:0:0:
117,79,11424,1,10,0:0:0:0:
131,113,11503,6,0,P|140:167|151:204,1,80.9999975280763,4|0,1:2|0:0,0:0:0:0:
7,332,11819,2,0,P|-5:256|54:208,1,161.999995056153,8|0,0:0|0:0,0:0:0:0:
125,381,12292,1,0,1:0:0:0:
192,301,12450,2,0,P|153:291|115:279,1,80.9999975280763,8|2,0:0|0:0,0:0:0:0:
315,156,12766,6,0,B|342:183|342:183|333:239,1,80.9999975280763,0|2,1:0|1:2,0:0:0:0:
409,281,13082,2,0,B|398:318|398:318|345:337,1,80.9999975280763,8|2,0:0|0:0,0:0:0:0:
358,332,13398,1,0,1:0:0:0:
210,208,13556,2,0,L|243:49,1,161.999995056153,2|0,1:2|0:0,0:0:0:0:
243,49,13950,1,8,0:0:0:0:
243,49,14029,5,2,1:2:0:0:
336,17,14187,1,0,0:0:0:0:
396,90,14345,2,0,L|377:179,1,80.9999975280763,8|0,0:0|0:0,0:0:0:0:
512,276,14661,1,2,1:2:0:0:
447,343,14819,2,0,P|425:310|419:255,1,80.9999975280763,0|8,1:0|0:0,0:0:0:0:
512,147,15135,5,2,0:0:0:0:
512,147,15292,1,0,1:0:0:0:
328,249,15450,1,8,0:1:0:0:
258,185,15608,2,0,B|236:92|311:130|289:29,1,161.999995056153,8|10,0:1|1:2,0:0:0:0:
369,137,16082,1,2,0:0:0:0:
197,54,16240,1,10,1:2:0:0:
129,118,16398,5,8,0:0:0:0:
129,118,16477,1,8,0:0:0:0:
129,118,16556,2,0,P|85:129|47:145,1,80.9999975280763,6|0,1:2|0:0,0:0:0:0:
173,251,16871,1,8,0:0:0:0:
173,251,17029,2,0,B|274:236|234:287|333:273,1,161.999995056153,2|2,1:2|1:2,1:0:0:0:
391,47,17503,1,10,0:0:0:0:
369,137,17661,1,0,0:0:0:0:
301,73,17819,5,0,1:0:0:0:
481,211,18135,1,10,0:0:0:0:
481,211,18292,2,0,P|467:254|459:298,1,80.9999975280763,2|0,0:0|1:0,0:0:0:0:
457,384,18608,1,2,1:2:0:0:
340,232,18766,2,0,P|282:240|257:267,1,80.9999975280763,10|0,0:0|0:0,0:0:0:0:
121,368,19082,6,0,P|161:310|150:203,1,161.999995056153,6|8,1:2|0:0,0:0:0:0:
31,81,19556,2,0,P|7:127|4:176,1,80.9999975280763,2|0,0:0|1:0,0:0:0:0:
64,227,19871,1,2,1:2:0:0:
220,137,20029,2,0,P|180:129|136:117,1,80.9999975280763,10|2,0:0|0:0,0:0:0:0:
274,308,20345,5,0,1:0:0:0:
307,220,20503,1,8,1:1:0:0:
215,233,20661,1,8,1:1:0:0:
215,233,20977,5,4,1:3:0:0:
391,356,21213,1,4,1:3:0:0:
512,176,21450,1,4,1:3:0:0:
512,176,21529,1,4,1:3:0:0:
512,176,21608,2,0,P|472:165|433:157,1,80.9999975280763,6|0,1:2|0:0,0:0:0:0:
264,2,21924,6,0,P|325:51|320:129,1,161.999995056153,8|2,0:0|1:2,0:0:0:0:
147,241,22398,1,0,1:0:0:0:
253,260,22556,2,0,P|243:219|234:181,1,80.9999975280763,8|2,0:0|0:0,0:0:0:0:
495,338,22871,6,0,B|467:303|467:303|430:302,1,80.9999975280763,0|2,1:0|1:2,0:0:0:0:
415,218,23187,2,0,B|370:224|370:224|352:255,1,80.9999975280763,8|2,0:0|0:0,0:0:0:0:
352,255,23503,1,0,1:0:0:0:
204,337,23661,2,0,P|140:321|46:298,1,161.999995056153,2|0,1:2|0:0,0:0:0:0:
46,298,24056,5,8,0:0:0:0:
46,298,24135,1,2,1:2:0:0:
22,212,24292,1,0,0:0:0:0:
88,152,24450,2,0,P|126:162|166:171,1,80.9999975280763,8|0,0:0|0:0,0:0:0:0:
296,31,24766,1,2,1:2:0:0:
362,89,24924,2,0,P|329:113|290:117,1,80.9999975280763,0|8,1:0|0:0,0:0:0:0:
182,277,25240,6,0,P|227:237|286:232,1,121.499996292114,2|0,0:0|0:0,0:0:0:0:
286,232,25556,1,8,0:1:0:0:
401,212,25713,2,0,P|391:250|382:290,1,80.9999975280763,8|0,0:1|0:0,0:0:0:0:
224,137,26029,2,0,P|234:99|243:59,1,80.9999975280763,10|2,1:2|0:0,0:0:0:0:
339,63,26345,1,10,1:2:0:0:
135,136,26503,5,8,0:0:0:0:
135,136,26582,1,8,0:0:0:0:
135,136,26661,2,0,P|202:173|207:255,1,161.999995056153,6|8,1:2|0:0,0:0:0:0:
132,310,27135,2,0,P|93:300|53:290,1,80.9999975280763,2|0,0:0|1:0,0:0:0:0:
248,214,27450,1,2,1:2:0:0:
248,214,27608,2,0,P|287:224|326:233,1,80.9999975280763,10|2,0:0|0:0,0:0:0:0:
445,191,27924,2,0,P|401:126|324:127,1,161.999995056153,0|10,1:0|0:0,0:0:0:0:
83,42,28556,5,0,1:0:0:0:
160,96,28713,1,2,1:2:0:0:
168,3,28871,1,10,0:0:0:0:
78,141,29029,1,8,0:0:0:0:
78,141,29108,1,8,0:0:0:0:
78,141,29187,2,0,P|39:131|-1:121,1,80.9999975280763,6|0,1:2|0:0,0:0:0:0:
222,175,29503,2,0,P|261:185|301:195,1,80.9999975280763,8|2,0:0|0:0,0:0:0:0:
378,147,29819,1,0,1:0:0:0:
378,147,29977,1,2,1:2:0:0:
506,315,30135,6,0,P|459:253|382:262,1,161.999995056153,10|0,0:0|1:0,0:0:0:0:
199,364,30608,1,8,0:1:0:0:
311,384,30766,2,0,P|301:344|291:305,1,80.9999975280763,8|2,0:1|0:0,0:0:0:0:
167,120,31082,5,8,0:1:0:0:
108,193,31240,2,0,P|60:222|91:321,1,161.999995056153,8|8,0:0|0:0,0:0:0:0:
199,209,31713,1,6,1:2:0:0:
199,209,32029,1,10,0:0:0:0:
351,33,32345,5,2,1:2:0:0:
441,52,32503,1,0,1:0:0:0:
419,143,32661,1,8,0:0:0:0:
328,121,32819,1,0,0:0:0:0:
328,121,33135,1,0,0:0:0:0:
265,189,33292,6,0,P|236:178|204:172,1,62.9999980773926,8|0,0:0|0:0,0:0:0:0:
386,225,33608,1,0,1:0:0:0:
386,225,33766,2,0,P|414:235|446:241,1,62.9999980773926,0|0,1:0|0:0,0:0:0:0:
328,384,34082,1,8,0:0:0:0:
328,384,34161,1,8,0:0:0:0:
327,384,34240,2,0,P|333:307|266:269,1,161.999995056153,6|10,1:2|0:0,0:0:0:0:
266,269,34871,5,2,1:2:0:0:
219,345,35029,1,0,0:0:0:0:
132,366,35187,1,8,0:0:0:0:
52,324,35345,2,0,L|67:263,1,62.9999980773926,2|0,0:0|1:0,0:0:0:0:
159,135,35661,1,0,1:0:0:0:
223,192,35819,2,0,P|197:212|166:217,1,62.9999980773926,8|0,0:0|0:0,0:0:0:0:
13,133,36135,5,8,0:0:0:0:
6,102,36213,1,8,0:0:0:0:
19,73,36292,1,8,0:0:0:0:
47,59,36371,1,8,0:0:0:0:
78,64,36450,1,4,1:3:0:0:
78,64,36766,6,0,P|115:55|156:44,1,80.9999975280763,4|0,1:2|0:0,0:0:0:0:
338,135,37082,2,0,P|396:87|368:17,1,161.999995056153,10|2,0:0|1:2,0:0:0:0:
234,126,37556,1,0,1:0:0:0:
234,126,37713,2,0,P|246:165|253:204,1,80.9999975280763,8|2,0:0|0:0,0:0:0:0:
409,297,38029,2,0,P|397:258|389:218,1,80.9999975280763,0|2,1:0|0:0,0:0:0:0:
283,325,38345,2,0,P|243:332|204:344,1,80.9999975280763,8|2,0:0|0:0,0:0:0:0:
204,343,38582,1,2,0:2:0:0:
204,343,38661,1,2,1:2:0:0:
116,321,38819,1,0,1:0:0:0:
174,223,38977,2,0,P|213:215|252:204,1,80.9999975280763,10|0,0:0|0:0,0:0:0:0:
339,82,39292,6,0,P|327:43|319:3,2,80.9999975280763,10|0|0,0:0|1:0|1:0,0:0:0:0:
375,233,39766,2,0,P|386:271|394:311,2,80.9999975280763,8|2|0,0:0|1:2|1:0,0:0:0:0:
429,145,40240,1,8,0:0:0:0:
429,145,40398,1,0,1:0:0:0:
269,218,40556,5,10,1:2:0:0:
184,192,40713,1,0,1:0:0:0:
99,166,40871,1,0,1:0:0:0:
64,26,41029,2,0,P|140:27|164:99,1,161.999995056153,10|10,0:0|0:0,0:0:0:0:
41,247,41503,1,8,0:0:0:0:
41,247,41582,1,8,0:0:0:0:
41,247,41661,1,8,0:0:0:0:
41,247,41740,1,8,0:0:0:0:
41,247,41819,6,0,P|29:295|14:342,1,80.9999975280763,6|0,1:2|0:0,0:0:0:0:
112,384,42135,2,0,P|120:344|132:305,1,80.9999975280763,10|0,0:2|0:0,0:0:0:0:
304,213,42450,1,2,1:2:0:0:
304,213,42608,2,0,P|348:216|381:250,1,80.9999975280763,0|8,1:0|0:0,0:0:0:0:
256,352,42924,6,0,B|271:264|191:295|208:204,1,161.999995056153,2|2,0:0|1:2,0:0:0:0:
356,51,43398,2,0,B|387:83|387:83|377:130,1,80.9999975280763,10|2,0:0|0:0,0:0:0:0:
180,20,43713,5,2,1:2:0:0:
162,119,43871,2,0,L|257:97,1,80.9999975280763,2|0,1:2|0:0,0:0:0:0:
91,55,44187,1,2,0:0:0:0:
24,189,44345,6,0,P|107:205|193:231,2,161.999995056153,2|10|2,1:2|0:2|1:2,0:0:0:0:
78,295,45135,1,2,1:2:0:0:
78,295,45292,1,10,0:2:0:0:
155,350,45450,6,0,P|196:340|251:331,1,80.9999975280763,2|0,0:0|0:0,0:0:0:0:
414,185,45766,1,8,0:1:0:0:
327,221,45924,1,8,0:1:0:0:
261,155,46082,1,0,0:0:0:0:
346,119,46240,1,2,1:2:0:0:
272,60,46398,6,0,L|259:7,1,40.4999987640381,8|8,0:0|0:0,0:0:0:0:
166,124,46556,2,0,L|156:163,3,40.4999987640381,8|8|8|8,0:0|0:0|0:0|0:0,0:0:0:0:
84,29,46871,6,0,P|17:32|3:116,1,161.999995056153,6|10,1:2|0:0,0:0:0:0:
174,331,47503,1,2,1:2:0:0:
110,261,47661,1,0,1:0:0:0:
82,350,47819,1,8,0:0:0:0:
201,242,47977,6,0,P|247:257|290:267,1,80.9999975280763,2|0,0:0|1:0,0:0:0:0:
396,337,48292,1,2,1:2:0:0:
396,337,48450,2,0,P|356:346|318:359,1,80.9999975280763,8|2,0:0|0:0,0:0:0:0:
442,183,48766,2,0,P|461:214|464:258,1,80.9999975280763,2|0,1:2|1:0,0:0:0:0:
281,159,49082,2,0,P|284:101|333:49,1,121.499996292114,10|8,0:0|0:0,0:0:0:0:
323,54,49398,6,0,P|368:70|406:81,1,80.9999975280763,6|0,1:2|0:0,0:0:0:0:
179,123,49713,2,0,P|140:111|102:97,1,80.9999975280763,10|2,0:2|0:2,0:0:0:0:
223,235,50029,2,0,P|292:214|356:278,1,161.999995056153,2|10,1:2|0:2,0:0:0:0:
138,285,50503,6,0,P|129:244|111:189,1,80.9999975280763,2|2,0:2|1:2,0:0:0:0:
274,321,50819,1,0,1:2:0:0:
274,321,50977,1,8,0:1:0:0:
363,214,51135,2,0,B|390:184|390:184|430:184,1,80.9999975280763,8|8,0:1|0:0,0:0:0:0:
430,184,51371,1,8,0:0:0:0:
430,184,51450,1,0,1:0:0:0:
507,243,51608,1,10,0:0:0:0:
427,278,51766,1,2,0:0:0:0:
256,205,51924,6,0,P|182:188|98:168,1,161.999995056153,6|2,1:2|1:2,0:0:0:0:
98,168,52398,1,0,0:0:0:0:
67,285,52556,2,0,P|105:272|145:264,1,80.9999975280763,10|0,0:0|0:0,0:0:0:0:
98,80,52871,2,0,P|59:92|19:100,1,80.9999975280763,2|0,0:0|0:0,0:0:0:0:
214,125,53187,5,2,1:2:0:0:
236,36,53345,1,10,0:2:0:0:
323,60,53503,1,2,0:2:0:0:
300,146,53661,1,0,1:0:0:0:
445,239,53819,6,0,P|471:182|386:127,1,161.999995056153,10|8,1:2|0:0,0:0:0:0:
294,258,54292,1,12,0:3:0:0:
294,258,54371,1,8,1:3:0:0:
294,258,54450,2,0,P|255:246|215:238,1,80.9999975280763,4|0,1:3|0:0,0:0:0:0:
302,50,54766,2,0,P|311:89|324:127,1,80.9999975280763,2|0,1:2|1:2,0:0:0:0:
118,147,55082,2,0,P|147:119|174:89,1,80.9999975280763,10|0,0:0|0:0,0:0:0:0:
240,157,55398,1,2,0:0:0:0:
240,157,55556,1,0,0:0:0:0:
407,216,55713,6,0,P|446:204|486:196,1,80.9999975280763,2|10,1:2|0:2,0:0:0:0:
289,248,56029,2,0,P|250:260|210:268,1,80.9999975280763,2|2,0:2|0:2,0:0:0:0:
374,303,56345,5,6,1:3:0:0:
374,303,56582,5,6,1:3:0:0:
374,303,56819,5,6,1:3:0:0:
324,136,56977,5,4,1:3:0:0:
324,136,57135,2,0,P|312:97|304:57,1,80.9999975280763,2|0,0:2|0:0,0:0:0:0:
401,76,57450,1,0,1:0:0:0:
232,143,57608,2,0,P|306:163|325:238,1,161.999995056153,10|2,0:0|0:0,0:0:0:0:
199,297,58082,5,2,0:0:0:0:
199,297,58240,2,0,P|160:285|120:277,1,80.9999975280763,2|0,1:2|0:0,0:0:0:0:
142,372,58556,1,2,0:0:0:0:
324,238,58713,2,0,P|363:250|403:258,1,80.9999975280763,2|8,1:2|0:0,0:0:0:0:
402,257,59029,1,0,0:0:0:0:
252,144,59187,2,0,P|264:105|272:65,1,80.9999975280763,10|0,0:0|1:0,0:0:0:0:
272,66,59424,1,0,1:0:0:0:
271,65,59503,1,14,1:2:0:0:
52,245,59819,6,0,P|58:264|63:283,3,40.4999987640381,8|8|8|8,0:0|0:0|0:0|0:0,0:0:0:0:
149,163,60135,2,0,P|129:169|110:174,3,40.4999987640381,10|8|10|8,0:0|0:0|0:0|0:0,0:0:0:0:
154,314,60450,1,8,0:0:0:0:
182,303,60528,1,8,1:3:0:0:
211,293,60607,1,4,1:3:0:0:
240,285,60686,1,0,1:0:0:0:
269,277,60766,5,14,0:0:0:0:
357,317,60924,1,0,1:0:0:0:
397,229,61082,1,0,1:0:0:0:
309,189,61240,2,0,P|297:150|289:110,1,80.9999975280763,10|0,0:0|1:0,0:0:0:0:
182,48,61556,5,12,1:3:0:0:
182,48,61713,1,4,1:3:0:0:
182,48,61871,1,4,1:3:0:0:
210,212,63135,6,0,P|171:276|72:269,1,180,6|2,1:2|0:0,0:0:0:0:
194,107,63608,2,0,P|238:121|296:135,1,90,10|0,1:2|0:0,0:0:0:0:
116,171,63924,1,2,1:2:0:0:
116,171,64082,1,2,0:0:0:0:
47,92,64240,2,0,P|61:48|75:-12,1,90,10|2,1:2|0:0,0:0:0:0:
14,283,64556,6,0,B|116:258|79:325|187:301,1,180,2|10,1:2|1:2,0:0:0:0:
258,99,65029,2,0,P|235:147|207:191,1,90,2|0,0:0|1:0,0:0:0:0:
370,290,65345,2,0,P|339:246|315:199,1,90,2|8,0:0|0:0,0:0:0:0:
424,30,65661,6,0,P|491:62|483:170,1,180,6|2,1:2|0:0,0:0:0:0:
322,213,66135,2,0,P|268:230|218:251,1,90,10|0,1:2|0:0,0:0:0:0:
123,63,66450,1,2,1:2:0:0:
241,137,66608,1,2,0:0:0:0:
313,15,66766,1,10,1:2:0:0:
210,7,66924,5,2,0:0:0:0:
339,118,67082,2,0,B|441:93|404:160|512:136,1,180,2|10,1:2|1:2,0:0:0:0:
399,303,67556,1,2,0:0:0:0:
253,164,67713,1,0,1:0:0:0:
179,233,67871,2,0,L|76:260,1,90,2|10,0:0|0:0,0:0:0:0:
324,368,68187,6,0,B|284:284|284:284|343:218,1,180,6|0,1:2|0:0,0:0:0:0:
142,20,68661,2,0,P|175:56|170:111,1,90,8|2,1:2|0:0,0:0:0:0:
91,155,68977,1,0,1:0:0:0:
406,59,69292,6,0,P|359:108|267:90,1,135,10|0,1:2|0:0,0:0:0:0:
295,108,69608,2,0,P|284:67|273:7,1,90,2|0,1:2|0:0,0:0:0:0:
217,171,69924,1,10,1:2:0:0:
131,120,70082,2,0,P|58:165|64:254,1,180,2|2,0:0|0:0,0:0:0:0:
340,336,70556,5,10,0:2:0:0:
233,355,70713,2,0,P|246:312|256:268,1,90,6|0,1:2|0:0,0:0:0:0:
33,132,71029,1,2,1:2:0:0:
33,132,71108,1,0,1:0:0:0:
33,132,71187,1,8,1:2:0:0:
122,91,71345,1,2,0:0:0:0:
213,175,71503,5,2,1:2:0:0:
342,242,71661,1,8,0:1:0:0:
415,115,71819,1,8,0:1:0:0:
296,41,71977,6,0,L|326:225,1,180,6|0,1:2|1:0,0:0:0:0:
132,338,72450,2,0,L|150:234,1,90,10|2,0:2|0:0,0:0:0:0:
238,311,72766,1,4,1:3:0:0:
81,168,72924,2,0,B|41:167|31:126|31:126|58:154|105:151,1,135,4|0,1:3|0:0,0:0:0:0:
88,151,73240,6,0,B|159:132|159:132|189:147|189:147|260:130,1,180,6|2,1:2|0:0,0:0:0:0:
419,85,73713,2,0,P|403:43|392:0,1,90,10|0,1:2|0:0,0:0:0:0:
351,182,74029,1,2,1:2:0:0:
351,182,74187,1,2,0:2:0:0:
427,236,74345,2,0,P|469:220|512:209,1,90,10|2,1:2|0:2,0:0:0:0:
421,363,74661,6,0,P|355:306|269:320,1,180,2|10,1:2|1:2,0:0:0:0:
84,225,75135,2,0,P|58:262|31:298,1,90,2|0,0:0|1:0,0:0:0:0:
189,384,75450,2,0,P|169:343|152:302,1,90,2|8,0:0|0:0,0:0:0:0:
253,99,75766,2,0,P|332:127|329:211,1,180,6|2,1:2|0:0,0:0:0:0:
170,168,76240,2,0,L|147:80,1,90,10|0,1:2|0:0,0:0:0:0:
375,11,76556,1,2,1:2:0:0:
323,83,76713,1,2,0:2:0:0:
409,103,76871,1,10,1:2:0:0:
283,1,77029,1,2,0:2:0:0:
257,154,77187,6,0,L|268:197,4,45,10|8|0|0|10,1:2|1:2|1:0|1:0|0:0,0:0:0:0:
179,275,77661,2,0,L|136:264,1,45,6|0,1:3|0:0,0:0:0:0:
346,76,77977,2,0,L|389:87,1,45,6|0,1:3|0:0,0:0:0:0:
512,305,78292,6,0,P|472:229|387:233,1,180,6|0,1:2|1:0,0:0:0:0:
280,206,78766,2,0,L|302:293,1,90,8|0,0:0|1:0,0:0:0:0:
419,130,79082,5,10,0:0:0:0:
344,84,79240,1,0,1:0:0:0:
280,206,79398,5,10,0:0:0:0:
205,252,79556,1,0,1:0:0:0:
66,152,79713,6,0,P|119:84|204:97,1,180,10|10,0:0|0:0,0:0:0:0:
87,263,80187,2,0,P|43:250|0:240,1,90,0|8,1:0|0:0,0:0:0:0:
161,180,80503,2,0,P|204:192|248:202,1,90,2|8,1:2|0:0,0:0:0:0:
489,67,80819,6,0,P|445:140|361:130,1,180,6|0,1:2|1:0,0:0:0:0:
360,129,81213,1,0,1:0:0:0:
360,129,81292,1,10,0:0:0:0:
277,74,81450,1,2,1:2:0:0:
260,181,81608,5,12,1:3:0:0:
375,30,81845,1,8,1:2:0:0:
177,0,82082,1,8,1:2:0:0:
277,74,82240,5,10,1:2:0:0:
138,240,82477,1,8,0:2:0:0:
352,278,82713,1,8,1:2:0:0:
87,375,83029,5,8,0:0:0:0:
57,360,83107,1,8,0:0:0:0:
37,333,83186,1,8,0:0:0:0:
31,300,83265,1,8,0:0:0:0:
41,268,83344,1,4,1:2:0:0:
339,136,85556,5,4,1:3:0:0:
386,59,85713,1,8,1:2:0:0:
476,56,85871,1,8,0:0:0:0:
339,136,86187,5,4,1:3:0:0:
418,92,86344,1,8,0:0:0:0:
497,135,86502,1,8,0:0:0:0:
339,136,86819,5,4,1:3:0:0:
429,137,86976,1,8,0:0:0:0:
476,214,87134,1,8,0:0:0:0:
367,314,87450,5,4,1:3:0:0:
279,293,87608,1,8,0:0:0:0:
191,272,87766,1,8,0:0:0:0:
106,345,87924,5,0,1:0:0:0:
278,202,88082,1,8,1:3:0:0:
96,135,88240,1,4,1:3:0:0:
185,261,88398,1,12,1:2:0:0:
